osu file format v14

[General]
AudioFilename: audio.mp3
AudioLeadIn: 0
PreviewTime: 194558
Countdown: 0
SampleSet: Soft
StackLeniency: 0.5
Mode: 0
LetterboxInBreaks: 0
WidescreenStoryboard: 0

[Editor]
Bookmarks: 1180,17396,43342,69288,98477,130909,133139,133544,134558,135166,136990,139625,141044,143071,169828,195774,228207,250909,263882,276855,297936
DistanceSpacing: 0.2
BeatDivisor: 8
GridSize: 4
TimelineZoom: 2

[Metadata]
Title:Akane Sasu
TitleUnicode:茜さす
Artist:Aimer
ArtistUnicode:Aimer
Creator:Kalibe
Version:Solitude
Source:夏目友人帳 伍
Tags:japanese anime エメ ED everlasting snow Natsume Yūjin-chō Go Natsume's Book of Friends season 5 Ending full version
BeatmapID:2146959
BeatmapSetID:1026624

[Difficulty]
HPDrainRate:7
CircleSize:4.1
OverallDifficulty:7
ApproachRate:7
SliderMultiplier:2.8
SliderTickRate:1

[Events]
//Background and Video events
0,0,"animeeee.png",0,0
//Break Periods
2,134352,140639
2,297936,302508
//Storyboard Layer 0 (Background)
//Storyboard Layer 1 (Fail)
//Storyboard Layer 2 (Pass)
//Storyboard Layer 3 (Foreground)
//Storyboard Layer 4 (Overlay)
//Storyboard Sound Samples

[TimingPoints]
1180,810.810810810811,4,2,1,25,1,0
1180,-500.000000000005,4,2,1,25,0,0
4423,-250.000000000001,4,2,1,25,0,0
7666,-125,4,1,1,35,0,0
16788,-200,4,1,1,30,0,0
29152,-200,4,1,1,20,0,0
29963,-200,4,1,1,30,0,0
40909,-166.666666666667,4,1,1,35,0,0
43342,-125,4,1,1,40,0,0
56315,-125,4,1,1,30,0,0
56416,-125,4,1,1,40,0,0
69288,-142.857142857143,4,1,1,45,0,0
95234,-142.857142857143,4,1,1,50,0,0
96044,-142.857142857143,4,1,1,54,0,0
96855,-142.857142857143,4,1,1,60,0,0
97666,-142.857142857143,4,1,1,70,0,0
98071,-142.857142857143,4,2,3,50,0,0
98477,-100,4,1,3,60,0,0
98578,-100,4,1,1,60,0,0
124423,-133.333333333333,4,1,1,55,0,0
134152,-133.333333333333,4,1,1,35,0,0
143882,-117.647058823529,4,1,1,45,0,0
169828,-125,4,1,1,50,0,0
189288,-111.111111111111,4,1,1,55,0,0
192531,-100,4,1,1,60,0,0
194152,-100,4,1,1,65,0,0
195369,-333.333333333333,4,1,3,55,0,0
195673,-333.333333333333,4,1,3,5,0,0
195774,-90.9090909090909,4,1,3,65,0,0
195875,-90.9090909090909,4,1,1,65,0,0
201855,-90.9090909090909,4,1,3,55,0,0
202261,-90.9090909090909,4,1,1,65,0,0
214828,-90.9090909090909,4,1,3,65,0,0
215234,-90.9090909090909,4,1,1,65,0,0
221720,-133.333333333333,4,1,1,55,0,0
227193,-133.333333333333,4,1,1,50,0,0
227396,-133.333333333333,4,1,1,60,0,0
227801,-133.333333333333,4,1,1,70,0,0
228207,-105.263157894737,4,1,1,60,0,0
237936,-105.263157894737,4,1,1,62,0,0
241180,-105.263157894737,4,1,1,64,0,0
244423,-105.263157894737,4,1,1,68,0,0
247666,-105.263157894737,4,1,1,72,0,0
248071,-105.263157894737,4,1,1,35,0,1
248274,-105.263157894737,4,1,1,45,0,1
248477,-105.263157894737,4,1,1,55,0,1
248680,-105.263157894737,4,1,1,65,0,1
248882,-105.263157894737,4,1,1,75,0,0
249288,-105.263157894737,4,1,1,60,0,0
249896,-105.263157894737,4,1,1,50,0,0
250098,-105.263157894737,4,1,1,70,0,0
250909,-79.9999999999999,4,1,3,70,0,1
251315,-86.9565217391304,4,1,1,70,0,0
251720,-76.9230769230769,4,1,1,70,0,0
251923,-86.9565217391304,4,1,1,70,0,0
268747,-74.0740740740741,4,1,1,55,0,0
269152,-86.9565217391304,4,1,1,55,0,0
269558,-74.0740740740741,4,1,1,55,0,0
269963,-68.9655172413793,4,1,1,55,0,0
270369,-86.9565217391304,4,1,1,55,0,0
276855,-133.333333333333,4,1,1,55,0,0
279693,-133.333333333333,4,1,3,55,0,0
280098,-133.333333333333,4,1,1,55,0,0
296315,-133.333333333333,4,1,1,5,0,0
297936,810.810810810811,4,1,1,55,1,0
304422,-125,4,1,1,55,0,0
314152,1748.25174825175,4,1,1,55,1,0
315900,-100,4,2,1,30,0,0
316040,1182.49901458415,4,2,1,25,1,0
318404,-100,4,1,1,20,0,0
318996,-100,4,2,1,15,0,0
319587,-100,4,1,1,10,0,0
320769,-100,4,2,1,5,0,0

[Colours]
Combo1 : 235,37,37
Combo2 : 216,218,222
Combo3 : 138,153,148
Combo4 : 227,190,102
Combo5 : 219,153,125
Combo6 : 191,72,60

[HitObjects]
308,186,1180,6,0,P|311:204|316:218,3,28,12|0|0|0,0:0|0:0|0:0|0:0,0:0:0:0:
184,279,2801,2,0,P|182:292|178:306,3,28,8|0|0|0,0:0|0:0|0:0|0:0,0:0:0:0:
270,384,4423,2,0,P|264:347|260:248,1,112,2|0,0:0|0:0,0:0:0:0:
259,272,5639,1,0,0:0:0:0:
201,179,6044,6,0,L|241:188,2,28,2|0|0,0:0|0:0|0:0,0:0:0:0:
304,132,6652,1,8,3:0:0:0:
200,28,6855,5,0,3:0:0:0:
264,68,7058,5,2,3:2:0:0:
204,148,7261,5,8,3:0:0:0:
264,248,7463,5,8,3:0:0:0:
150,346,7666,6,0,B|78:435|-45:339|11:271|55:292,1,224,4|0,0:0|2:0,0:0:0:0:
36,288,8882,2,0,P|64:289|91:312,1,56,0|0,0:0|2:0,0:0:0:0:
254,364,9288,6,0,P|306:369|335:306,1,112,2|0,0:2|2:0,0:0:0:0:
398,282,9896,1,0,3:0:0:0:
230,181,10098,2,0,P|224:233|287:262,1,112,10|0,0:0|2:0,0:0:0:0:
437,359,10909,6,0,P|419:335|225:313,1,224,2|0,0:2|2:0,0:0:0:0:
256,280,12125,2,0,P|231:289|196:312,1,56,0|0,3:0|3:0,0:0:0:0:
40,144,12531,6,0,P|102:134|164:228,1,168,2|0,0:2|2:0,0:0:0:0:
205,304,13342,1,8,0:0:0:0:
172,365,13747,6,0,P|198:362|217:324,1,56,8|0,3:0|3:0,0:0:0:0:
396,365,14152,6,0,P|392:278|460:340,1,224,4|0,3:0|2:0,0:0:0:0:
435,362,15166,5,0,2:0:0:0:
398,284,15369,5,2,3:2:0:0:
492,262,15571,5,0,3:0:0:0:
512,362,15774,6,0,P|464:373|373:158,1,336,4|0,3:2|2:0,0:0:0:0:
489,9,17294,5,0,3:0:0:0:
489,9,17396,2,0,P|494:28|521:80,1,70,4|0,3:0|2:0,0:0:0:0:
412,17,18207,2,0,P|401:51|394:85,1,70,0|0,0:0|2:0,0:0:0:0:
238,204,19017,6,0,P|206:200|183:171,2,70
299,169,20234,2,0,L|249:179,1,35,0|0,2:0|2:0,0:0:0:0:
136,256,20639,5,0,3:0:0:0:
236,275,21044,1,0,0:0:0:0:
338,297,21450,1,0,1:0:0:0:
409,273,21652,5,2,2:0:0:0:
338,297,21855,1,0,2:0:0:0:
362,363,22058,1,0,2:0:0:0:
478,318,22261,2,0,L|403:302,1,70,0|0,0:0|2:0,0:0:0:0:
281,223,23071,2,0,L|204:243,1,70,2|0,0:3|3:0,0:0:0:0:
7,346,23781,5,0,3:0:0:0:
7,346,23882,2,0,P|29:332|46:285,1,70,0|0,0:0|2:0,0:0:0:0:
112,323,24490,2,0,P|98:306|78:214,1,105,2|0,2:0|2:0,0:0:0:0:
49,40,25504,2,0,L|91:49,2,35,0|0|0,3:0|2:0|2:0,0:0:0:0:
2,101,26112,2,0,P|19:72|97:76,1,105,2|0,2:0|2:0,0:0:0:0:
313,190,27125,6,0,B|378:177|375:207|466:193,1,140,0|0,3:0|0:0,0:0:0:0:
475,178,28342,1,0,0:0:0:0:
374,118,28544,2,0,P|337:113|292:117,1,70,0|0,0:0|2:0,0:0:0:0:
232,93,29152,2,0,L|226:131,1,35,0|0,0:0|2:0,0:0:0:0:
120,225,29558,1,0,0:0:0:0:
53,209,29761,2,0,L|14:227,2,35,0|2|0,0:0|2:0|2:0,0:0:0:0:
192,291,30369,6,0,P|219:296|267:316,1,70,0|0,3:0|2:0,0:0:0:0:
313,235,30977,2,0,P|330:254|334:307,1,70,2|0,2:0|2:0,0:0:0:0:
431,336,31585,2,0,P|412:364|367:364,2,70,2|0|0,2:0|0:0|3:0,0:0:0:0:
489,186,32801,1,2,0:2:0:0:
489,186,33207,2,0,L|484:145,1,35,0|0,0:0|2:0,0:0:0:0:
323,0,33612,6,0,L|311:76,1,70,0|0,3:0|2:0,0:0:0:0:
220,36,34220,2,0,L|236:117,1,70,2|0,2:0|2:0,0:0:0:0:
203,175,34828,1,0,0:0:0:0:
203,175,35031,1,0,0:0:0:0:
311,315,35234,6,0,P|283:313|159:333,1,140,0|2,3:0|0:2,0:0:0:0:
172,328,36450,1,0,3:0:0:0:
490,370,36855,6,0,P|500:342|467:315,1,70,4|0,3:0|2:0,0:0:0:0:
395,364,37463,2,0,B|415:312|387:336|411:255,1,105,2|0,2:0|2:0,0:0:0:0:
453,162,38274,5,2,0:2:0:0:
453,162,38882,2,0,L|413:171,1,35,0|0,0:0|2:0,0:0:0:0:
312,136,39288,1,0,0:0:0:0:
296,146,39490,1,2,2:0:0:0:
261,128,39693,1,0,2:0:0:0:
190,160,39896,1,0,3:0:0:0:
67,135,40098,6,0,P|47:130|-12:107,1,70,0|0,3:0|2:0,0:0:0:0:
154,158,40707,2,0,P|119:165|86:176,1,70,0|0,0:0|3:3,0:0:0:0:
319,104,41315,6,0,L|373:114,1,41.9999987182618,4|0,3:0|2:0,0:0:0:0:
369,115,41585,2,0,L|386:116,2,13.9999995727539,2|2|6,2:0|2:0|2:0,0:0:0:0:
498,175,42531,1,2,0:3:0:0:
498,175,43342,6,0,B|499:245|386:309|323:190,1,224,4|0,0:0|0:0,0:0:0:0:
292,150,44558,1,0,2:0:0:0:
223,213,44761,1,0,3:0:0:0:
131,186,44963,2,0,B|83:185|77:211|8:203,2,112,0|0|2,3:0|0:0|0:3,0:0:0:0:
209,211,46180,6,0,L|193:280,1,56,0|0,0:0|2:0,0:0:0:0:
255,320,46585,2,0,P|289:295|283:228,1,112,2|0,3:2|0:0,0:0:0:0:
83,163,47396,2,0,P|49:138|55:71,1,112,2|0,0:2|0:0,0:0:0:0:
156,11,48004,5,0,3:0:0:0:
156,11,48207,2,0,L|133:93,1,56,0|0,3:0|2:0,0:0:0:0:
198,122,48612,2,0,B|234:115|234:115|261:85|261:85|306:77,2,112,4|10|0,3:3|0:3|2:0,0:0:0:0:
16,246,49828,6,0,B|56:208|56:208|120:224,1,112,0|0,3:0|2:0,0:0:0:0:
48,313,50436,1,0,2:0:0:0:
127,350,50639,2,0,L|266:331,1,112,2|0,0:2|0:0,0:0:0:0:
343,303,51247,2,0,P|345:331|307:351,1,56,0|0,3:0|3:0,0:0:0:0:
326,349,51855,1,2,1:2:0:0:
422,287,52058,2,0,P|437:263|509:256,1,56,0|2,2:0|0:3,0:0:0:0:
422,287,52463,2,0,P|397:284|327:231,1,112,0|0,2:0|3:0,0:0:0:0:
230,131,53071,6,0,B|200:89|100:117|104:199|218:264,1,224,4|2,0:2|0:2,0:0:0:0:
253,281,54288,1,0,2:0:0:0:
165,356,54490,1,0,3:0:0:0:
107,297,54693,2,0,P|91:300|-26:348,2,112,2|4|2,3:2|3:0|0:3,0:0:0:0:
78,279,55909,2,0,P|92:278|145:286,1,56,0|0,2:0|3:0,0:0:0:0:
279,361,56315,6,0,P|299:358|421:347,1,112,4|0,3:1|0:0,0:0:0:0:
305,249,56923,2,0,P|328:250|417:265,1,112,2|0,2:0|2:0,0:0:0:0:
415,264,57531,1,0,0:0:0:0:
346,174,57734,1,0,3:0:0:0:
432,132,57936,2,0,B|424:72|460:96|448:12,2,112,2|0|2,3:2|2:0|3:0,0:0:0:0:
512,124,59152,5,0,2:0:0:0:
512,124,59355,1,0,2:0:0:0:
365,51,59558,2,0,L|213:88,1,112,2|0,0:2|2:0,0:0:0:0:
297,165,60166,1,0,2:0:0:0:
293,169,60369,2,0,L|163:140,1,112,2|0,0:2|2:0,0:0:0:0:
31,171,60977,5,0,3:0:0:0:
77,230,61180,2,0,P|128:229|154:164,1,112,0|4,3:0|3:0,0:0:0:0:
344,26,61990,1,2,3:0:0:0:
382,126,62193,1,2,0:2:0:0:
418,63,62598,5,0,2:0:0:0:
314,105,62801,2,0,B|248:85|270:114|187:81,2,112,4|0|0,0:2|2:0|0:3,0:0:0:0:
268,108,64017,2,0,P|293:111|339:134,1,56,0|0,2:0|3:0,0:0:0:0:
408,206,64423,5,0,3:0:0:0:
434,281,64625,1,0,0:0:0:0:
364,318,64828,1,4,3:0:0:0:
430,358,65234,2,0,P|447:365|506:370,1,56,2|0,0:3|2:0,0:0:0:0:
340,247,65639,2,0,P|314:257|287:262,1,56,0|0,0:0|2:0,0:0:0:0:
434,281,66044,6,0,B|363:276|396:303|292:283,1,112,2|0,3:0|0:0,0:0:0:0:
234,362,66652,2,0,P|143:295|171:259,1,168,2|0,2:0|0:0,0:0:0:0:
60,204,67463,1,0,3:0:0:0:
66,273,67666,2,0,L|36:347,1,56,2|0,0:0|2:0,0:0:0:0:
208,196,68071,2,0,L|240:267,1,56,4|8,3:0|3:0,0:0:0:0:
243,258,68375,1,8,3:0:0:0:
249,261,68477,1,10,0:0:0:0:
348,222,68680,1,8,0:0:0:0:
430,297,68882,1,8,3:0:0:0:
430,297,69288,6,0,P|437:280|351:243,1,146.999995513916,4|0,2:1|2:0,0:0:0:0:
441,334,70098,1,0,0:0:0:0:
441,334,70504,2,0,L|497:350,1,48.9999985046387,0|0,2:0|3:0,0:0:0:0:
309,304,70909,2,0,L|198:336,1,97.9999970092774,4|0,3:0|2:0,0:0:0:0:
166,283,71517,1,0,3:0:0:0:
55,351,71720,2,0,P|51:309|92:268,1,97.9999970092774,8|0,0:0|2:0,0:0:0:0:
264,146,72531,6,0,P|306:163|373:187,1,97.9999970092774,2|0,3:2|2:0,0:0:0:0:
505,100,73139,2,0,P|459:114|391:127,1,97.9999970092774,0|0,0:0|2:0,0:0:0:0:
442,247,73747,2,0,P|437:227|432:178,1,48.9999985046387,0|0,2:0|3:0,0:0:0:0:
410,124,74152,5,0,3:0:0:0:
356,182,74355,1,0,0:0:0:0:
433,199,74558,1,4,3:0:0:0:
296,35,74963,2,0,P|262:32|231:90,1,97.9999970092774,10|0,0:0|2:0,0:0:0:0:
246,97,75571,1,0,0:0:0:0:
141,150,75774,6,0,L|33:127,1,97.9999970092774,2|0,3:2|2:0,0:0:0:0:
164,252,76585,2,0,L|56:290,1,97.9999970092774,0|0,0:0|2:0,0:0:0:0:
212,195,77193,5,0,3:0:0:0:
241,262,77396,2,0,L|258:206,1,48.9999985046387,2|0,3:2|2:0,0:0:0:0:
92,152,77801,2,0,L|107:211,1,48.9999985046387,0|0,0:0|2:0,0:0:0:0:
59,332,78207,1,10,0:0:0:0:
120,281,78409,1,0,0:0:0:0:
52,257,78612,2,0,P|25:252|-7:242,1,48.9999985046387,0|0,0:0|2:0,0:0:0:0:
139,363,79017,6,0,B|183:356|174:378|266:357,1,97.9999970092774,4|0,3:2|2:0,0:0:0:0:
496,231,79828,2,0,B|453:205|453:205|390:230,1,97.9999970092774,0|0,0:0|2:0,0:0:0:0:
323,296,80436,1,0,3:0:0:0:
354,369,80639,2,0,L|335:253,1,97.9999970092774,2|4,0:2|0:3,0:0:0:0:
84,160,81450,5,10,0:0:0:0:
140,2,81652,1,8,0:0:0:0:
161,20,81855,1,8,3:0:0:0:
101,59,82058,1,0,3:0:0:0:
199,113,82261,6,0,B|300:82|288:163|383:152,1,195.999994018555,4|0,0:0|0:0,0:0:0:0:
398,127,83477,2,0,P|374:132|332:147,1,48.9999985046387,0|0,2:0|3:0,0:0:0:0:
243,221,83882,5,2,0:2:0:0:
206,192,84085,1,0,3:0:0:0:
167,213,84288,1,0,3:0:0:0:
100,178,84693,2,0,L|73:294,1,97.9999970092774,8|0,0:0|2:0,0:0:0:0:
23,320,85301,1,0,0:0:0:0:
163,377,85504,5,4,3:0:0:0:
247,205,85909,1,0,0:0:0:0:
247,205,86112,1,0,0:0:0:0:
247,205,86315,1,2,0:2:0:0:
179,242,86720,5,0,2:0:0:0:
257,315,86923,1,0,3:0:0:0:
325,243,87125,2,0,P|345:234|394:193,1,48.9999985046387,2|0,3:2|2:0,0:0:0:0:
476,281,87531,2,0,P|463:261|437:175,1,97.9999970092774,4|8,2:3|0:0,0:0:0:0:
451,176,88342,1,2,2:0:0:0:
512,63,88544,6,0,L|543:68,1,24.4999992523194,8|8,0:0|0:0,0:0:0:0:
411,16,88747,6,0,B|276:-2|356:44|190:13,1,195.999994018555,6|0,0:2|0:0,0:0:0:0:
244,31,89963,2,0,L|183:44,1,48.9999985046387,0|0,2:0|3:0,0:0:0:0:
101,88,90369,5,8,3:0:0:0:
64,153,90571,1,0,3:0:0:0:
15,96,90774,1,2,2:0:0:0:
15,96,91180,5,8,0:0:0:0:
80,127,91382,1,0,2:0:0:0:
98,200,91585,1,0,0:0:0:0:
57,267,91788,1,2,0:2:0:0:
121,384,91990,5,4,3:1:0:0:
186,349,92396,1,0,0:0:0:0:
355,374,92801,1,8,0:0:0:0:
389,351,93207,2,0,L|319:345,1,48.9999985046387,0|0,2:0|3:0,0:0:0:0:
285,267,93612,5,2,0:2:0:0:
148,203,94017,1,8,3:1:0:0:
240,126,94423,5,10,0:0:0:0:
337,51,94625,1,8,0:0:0:0:
362,128,94828,1,2,3:2:0:0:
374,57,95031,1,2,3:0:0:0:
242,35,95234,6,0,P|217:32|138:18,1,97.9999970092774,6|8,0:0|0:0,0:0:0:0:
166,39,96044,1,8,0:0:0:0:
96,58,96247,1,8,3:0:0:0:
26,77,96450,1,0,0:0:0:0:
30,85,96855,1,14,0:0:0:0:
34,94,97261,5,8,0:0:0:0:
104,144,97463,1,2,0:3:0:0:
200,224,97666,5,8,0:0:0:0:
308,184,97869,1,8,0:0:0:0:
484,144,98071,5,2,2:0:0:0:
504,160,98173,1,2,2:0:0:0:
512,188,98274,1,2,2:0:0:0:
504,208,98375,1,2,2:0:0:0:
488,224,98477,6,0,L|395:210,1,70,4|0,0:0|2:0,0:0:0:0:
325,109,98882,2,0,L|237:95,1,70,2|0,0:2|2:0,0:0:0:0:
194,146,99288,2,0,P|163:160|93:90,1,140,2|0,0:3|2:0,0:0:0:0:
154,9,99896,5,0,3:0:0:0:
154,9,100098,1,4,3:2:0:0:
302,72,100504,1,0,0:0:0:0:
470,12,100909,1,10,0:0:0:0:
470,12,101315,6,0,L|539:27,1,70,0|0,2:0|2:0,0:0:0:0:
292,119,101720,2,0,B|355:113|343:144|457:127,1,140,2|0,0:0|2:0,0:0:0:0:
502,157,102328,2,0,B|439:163|451:132|337:149,1,140,2|0,3:2|3:0,0:0:0:0:
265,199,102936,5,0,0:0:0:0:
299,288,103139,1,0,3:0:0:0:
197,370,103342,2,0,P|199:354|222:280,1,70,2|0,0:2|2:0,0:0:0:0:
361,230,103747,2,0,P|369:247|386:320,1,70,4|0,0:3|2:0,0:0:0:0:
185,197,104152,2,0,B|188:139|231:154|242:64,2,140,10|0|4,0:0|0:0|0:0,0:0:0:0:
373,332,105369,5,0,2:0:0:0:
373,332,105571,1,0,2:0:0:0:
373,332,105774,2,0,L|516:354,1,140,2|0,0:2|0:0,0:0:0:0:
403,257,106382,5,0,3:0:0:0:
466,200,106585,2,0,P|474:215|483:293,1,70,2|0,0:2|2:0,0:0:0:0:
387,145,106990,2,0,P|401:137|480:128,1,70,2|0,2:0|3:0,0:0:0:0:
373,225,107396,2,0,P|344:230|295:134,1,140,10|0,0:0|2:0,0:0:0:0:
388,37,108004,5,0,3:0:0:0:
388,37,108207,1,4,3:0:0:0:
262,181,108612,1,2,1:2:0:0:
89,99,109017,2,0,L|19:129,1,70,2|0,0:3|2:0,0:0:0:0:
16,116,109423,2,0,L|100:134,1,70,2|0,0:3|3:0,0:0:0:0:
190,193,109828,5,4,0:0:0:0:
63,245,110031,1,10,0:0:0:0:
81,256,110538,5,8,3:0:0:0:
81,256,110639,1,10,0:0:0:0:
4,376,110842,1,8,0:0:0:0:
143,381,111044,5,2,0:2:0:0:
143,381,111450,2,0,P|143:356|180:235,1,140,4|0,0:0|2:0,0:0:0:0:
260,189,112058,1,0,3:0:0:0:
302,125,112261,2,0,P|286:118|224:103,1,70,0|0,3:0|2:0,0:0:0:0:
375,292,112666,2,0,P|391:299|453:314,1,70,0|0,0:0|3:0,0:0:0:0:
439,304,113071,2,0,P|420:301|300:326,1,140,2|0,0:2|2:0,0:0:0:0:
283,252,113680,1,2,0:3:0:0:
422,185,113882,2,0,B|379:135|379:135|306:166,1,140,10|0,0:0|2:0,0:0:0:0:
168,52,114490,5,8,0:0:0:0:
168,52,114592,1,8,0:0:0:0:
168,52,114693,2,0,L|309:79,1,140,4|0,0:2|2:0,0:0:0:0:
250,194,115301,1,0,3:0:0:0:
349,249,115504,5,10,3:0:0:0:
320,172,115707,1,2,0:2:0:0:
196,238,115909,5,8,0:0:0:0:
152,336,116112,1,8,0:0:0:0:
16,266,116315,6,0,L|-4:186,1,70,14|0,1:2|2:0,0:0:0:0:
250,316,116720,2,0,L|228:391,1,70,14|0,1:2|2:0,0:0:0:0:
374,167,117125,2,0,B|449:151|439:179|531:176,1,140,10|0,0:0|3:0,0:0:0:0:
388,284,117734,1,4,3:0:0:0:
266,136,117936,6,0,P|241:136|106:157,1,140,4|0,0:1|2:0,0:0:0:0:
53,95,118544,2,0,P|78:95|213:116,1,140,2|0,0:2|2:0,0:0:0:0:
142,174,119152,1,0,0:0:0:0:
212,288,119355,1,0,3:0:0:0:
88,352,119558,2,0,P|73:294|150:260,2,140,0|4|10,3:0|3:0|0:0,0:0:0:0:
454,254,120977,1,0,2:0:0:0:
512,340,121180,6,0,L|354:304,1,140,2|0,0:2|2:0,0:0:0:0:
266,256,121788,1,0,0:0:0:0:
333,198,121990,2,0,L|282:329,1,140,2|0,2:0|2:0,0:0:0:0:
266,256,122598,1,0,3:0:0:0:
123,264,122801,5,8,3:0:0:0:
134,368,123004,1,8,0:0:0:0:
104,336,123207,1,4,3:0:0:0:
262,263,123409,5,0,3:0:0:0:
271,268,123511,1,0,3:0:0:0:
280,272,123612,1,10,0:0:0:0:
382,344,123815,1,8,0:0:0:0:
455,227,124017,5,0,3:0:0:0:
363,273,124220,1,8,0:0:0:0:
485,370,124423,6,0,P|490:342|490:160,1,210.000008010865,4|0,0:0|2:0,0:0:0:0:
455,147,125639,1,0,3:0:0:0:
510,15,126044,2,0,P|475:7|430:58,1,105.000004005432,0|4,0:0|2:3,0:0:0:0:
375,99,126855,2,0,L|271:84,1,105.000004005432,10|0,0:0|2:0,0:0:0:0:
138,26,127666,5,0,3:0:0:0:
131,54,128071,1,0,0:0:0:0:
125,83,128477,1,2,2:2:0:0:
272,162,128882,6,0,L|289:227,1,52.5000020027161,0|0,3:0|2:0,0:0:0:0:
229,265,129288,1,2,0:2:0:0:
338,310,129693,1,4,3:0:0:0:
178,322,129896,5,0,3:0:0:0:
174,332,129997,1,0,3:0:0:0:
170,341,130098,1,10,0:0:0:0:
305,298,130301,1,8,0:0:0:0:
0,235,130909,5,14,2:0:0:0:
256,192,131011,12,2,134152,3:2:0:0:
32,130,143071,5,10,0:0:0:0:
166,168,143274,5,8,0:0:0:0:
259,139,143477,5,0,0:0:0:0:
325,171,143680,5,0,3:0:0:0:
325,171,143882,2,0,L|453:153,1,119.000002269745,4|0,0:0|2:0,0:0:0:0:
288,302,144693,2,0,P|243:303|217:235,1,119.000002269745,8|0,0:0|0:0,0:0:0:0:
121,298,145301,1,0,3:0:0:0:
133,223,145504,2,0,P|137:202|176:104,2,119.000002269745,0|0|8,3:0|2:0|0:0,0:0:0:0:
315,374,146720,5,0,0:0:0:0:
382,334,146923,1,0,0:0:0:0:
449,375,147125,1,0,3:0:0:0:
446,381,147531,1,2,0:2:0:0:
308,295,147936,2,0,L|184:324,1,119.000002269745,8|0,0:0|2:0,0:0:0:0:
396,180,148544,5,0,3:0:0:0:
464,240,148747,2,0,L|481:167,1,59.5000011348725,2|0,0:0|2:0,0:0:0:0:
313,101,149152,2,0,B|324:144|324:144|316:168|316:168|329:235,2,119.000002269745,4|10|0,3:0|0:0|2:0,0:0:0:0:
508,18,150369,6,0,P|477:29|376:40,1,119.000002269745,0|0,0:0|2:0,0:0:0:0:
307,0,150977,1,0,0:0:0:0:
313,4,151180,1,8,0:0:0:0:
236,251,151585,1,2,0:2:0:0:
331,294,151788,1,0,3:0:0:0:
264,360,151990,2,0,B|204:363|211:386|140:383,1,119.000002269745,0|0,3:0|0:0,0:0:0:0:
58,322,152598,6,0,P|29:311|-14:306,1,59.5000011348725,2|8,2:0|0:0,0:0:0:0:
1,307,153207,2,0,P|28:292|67:286,1,59.5000011348725,0|0,3:0|2:0,0:0:0:0:
188,325,153612,6,0,B|306:417|391:304|325:254,1,238.00000453949,2|8,0:2|0:0,0:0:0:0:
280,212,154828,1,0,2:0:0:0:
357,135,155031,1,0,3:0:0:0:
258,80,155234,2,0,P|256:92|236:154,1,59.5000011348725,2|0,3:2|0:0,0:0:0:0:
363,231,155639,2,0,B|422:207|411:235|495:201,2,119.000002269745,4|10|0,3:0|0:0|3:0,0:0:0:0:
234,322,156652,5,2,0:2:0:0:
230,326,156855,2,0,L|312:349,1,59.5000011348725,4|0,0:0|2:0,0:0:0:0:
168,264,157261,5,2,0:2:0:0:
227,178,157463,2,0,L|296:159,1,59.5000011348725,0|8,2:0|0:0,0:0:0:0:
185,113,157869,5,2,2:0:0:0:
88,56,158071,1,0,2:0:0:0:
80,57,158274,2,0,L|58:120,2,59.5000011348725,0|2|0,3:0|3:0|0:0,0:0:0:0:
137,0,158882,2,0,P|176:-11|227:56,1,119.000002269745,2|8,0:2|0:0,0:0:0:0:
454,242,159693,2,0,P|485:243|519:224,1,59.5000011348725,0|0,0:0|2:0,0:0:0:0:
457,148,160098,6,0,B|449:215|431:190|417:268,1,119.000002269745,0|0,3:0|0:0,0:0:0:0:
327,320,160707,1,0,0:0:0:0:
232,368,160909,6,0,B|212:315|212:315|272:271,1,119.000002269745,8|0,0:0|0:0,0:0:0:0:
329,178,161517,1,0,0:0:0:0:
264,115,161720,6,0,P|215:145|239:202,2,119.000002269745,0|4|10,0:0|0:3|0:0,0:0:0:0:
253,126,162734,2,0,P|196:148|128:152,1,119.000002269745,2|0,2:2|2:0,0:0:0:0:
35,48,163342,6,0,P|60:53|83:95,1,59.5000011348725,0|0,0:0|2:0,0:0:0:0:
191,52,163747,1,0,0:0:0:0:
90,85,163950,6,0,P|108:62|201:58,1,119.000002269745,2|0,0:2|2:0,0:0:0:0:
276,155,164558,2,0,P|303:196|371:158,1,119.000002269745,2|8,2:0|2:2,0:0:0:0:
465,111,165166,2,0,L|452:47,1,59.5000011348725,0|4,3:0|0:2,0:0:0:0:
440,43,165774,1,8,0:0:0:0:
428,380,166180,5,2,3:0:0:0:
430,384,166382,1,2,3:0:0:0:
336,327,166585,6,0,L|222:362,1,119.000002269745,2|0,0:2|2:0,0:0:0:0:
148,336,167193,1,0,3:0:0:0:
61,195,167396,2,0,B|90:196|90:196|129:222,1,59.5000011348725,8|0,0:0|2:0,0:0:0:0:
9,312,167801,2,0,B|-3:286|-3:286|0:245,1,59.5000011348725,2|0,3:0|3:0,0:0:0:0:
216,128,168207,2,0,P|212:142|193:255,1,119.000002269745,6|0,0:2|3:0,0:0:0:0:
308,373,168815,5,0,3:0:0:0:
304,358,168916,1,0,3:0:0:0:
299,338,169017,1,10,0:0:0:0:
464,269,169220,5,8,0:0:0:0:
350,226,169423,1,8,3:0:0:0:
426,199,169625,1,0,0:0:0:0:
375,330,169828,2,0,B|335:316|329:336|255:314,1,112,4|0,0:0|2:0,0:0:0:0:
0,176,170639,2,0,B|56:168|56:168|104:204,1,112,8|0,0:0|2:0,0:0:0:0:
148,277,171247,5,0,3:0:0:0:
203,231,171450,2,0,L|222:106,2,112,2|0|10,3:0|0:2|0:0,0:0:0:0:
391,365,172666,1,2,3:0:0:0:
391,365,172869,1,2,3:0:0:0:
498,264,173071,6,0,P|466:262|372:291,1,112,4|0,3:0|2:0,0:0:0:0:
276,214,173680,2,0,P|308:216|402:187,1,112,2|0,1:2|2:0,0:0:0:0:
307,291,174288,1,0,0:0:0:0:
190,374,174490,5,0,3:0:0:0:
190,374,174693,2,0,L|255:351,1,56,4|0,3:0|2:0,0:0:0:0:
194,255,175098,2,0,L|140:239,1,56,2|0,3:2|3:0,0:0:0:0:
19,329,175504,2,0,B|65:321|65:321|91:325|91:325|142:312,1,112,10|0,0:0|3:0,0:0:0:0:
469,294,176315,6,0,P|468:260|453:170,1,112,4|0,0:0|2:0,0:0:0:0:
400,128,177125,2,0,P|400:82|475:63,1,112,8|2,0:0|0:2,0:0:0:0:
480,166,177734,1,0,3:0:0:0:
394,228,177936,2,0,B|348:240|348:240|332:276|280:276,2,112,2|0|8,3:0|2:0|0:0,0:0:0:0:
422,236,179152,6,0,L|364:258,1,56,0|0,1:0|2:0,0:0:0:0:
251,150,179558,2,0,L|130:127,1,112,2|0,0:3|2:0,0:0:0:0:
64,204,180166,1,0,3:0:0:0:
172,175,180369,6,0,L|46:210,1,112,8|0,0:0|2:0,0:0:0:0:
177,277,180977,1,0,3:0:0:0:
73,380,181180,6,0,L|101:319,1,56,2|0,1:0|3:0,0:0:0:0:
285,150,181585,2,0,L|305:205,1,56,4|8,3:0|3:0,0:0:0:0:
278,221,181889,1,8,3:0:0:0:
264,229,181990,1,10,0:0:0:0:
385,149,182193,1,8,0:0:0:0:
458,275,182396,1,8,3:0:0:0:
461,280,182598,1,8,3:0:0:0:
379,231,182801,6,0,P|356:179|477:98,1,224,4|8,0:0|0:0,0:0:0:0:
483,114,184017,2,0,P|464:115|418:90,1,56,0|0,2:0|3:0,0:0:0:0:
333,23,184423,5,2,3:3:0:0:
294,33,184828,1,0,3:0:0:0:
229,9,185234,1,8,0:0:0:0:
204,28,185639,2,0,P|190:32|139:35,1,56,0|0,0:0|2:0,0:0:0:0:
0,98,186044,6,0,P|50:98|230:141,1,224,2|8,0:0|0:0,0:0:0:0:
352,245,187261,1,0,2:0:0:0:
321,177,187463,1,0,3:0:0:0:
256,215,187666,1,2,3:0:0:0:
256,215,187869,1,0,0:0:0:0:
291,281,188071,1,4,3:0:0:0:
222,320,188477,1,10,0:0:0:0:
178,253,188882,2,0,L|188:191,1,56,2|0,0:1|2:0,0:0:0:0:
405,89,189288,6,0,B|458:63|458:63|522:113,1,125.999996154785,4|4,0:0|0:3,0:0:0:0:
488,172,190098,2,0,L|361:191,1,125.999996154785,8|4,0:0|0:3,0:0:0:0:
310,140,190707,1,0,0:0:0:0:
211,234,190909,2,0,L|298:246,1,62.9999980773926,2|0,3:2|0:0,0:0:0:0:
273,244,191315,2,0,L|200:264,1,62.9999980773926,4|0,3:0|0:0,0:0:0:0:
14,236,191720,5,10,0:0:0:0:
133,298,191923,1,8,0:0:0:0:
126,224,192125,1,0,3:0:0:0:
0,331,192328,1,8,3:0:0:0:
0,331,192430,1,8,3:0:0:0:
0,331,192531,6,0,L|78:354,1,70,6|0,0:0|2:0,0:0:0:0:
312,217,192936,2,0,L|286:141,1,70,10|0,0:0|3:0,0:0:0:0:
218,124,193342,2,0,L|181:203,1,70,8|0,0:0|3:0,0:0:0:0:
330,292,193747,2,0,L|414:269,1,70,2|0,3:0|3:0,0:0:0:0:
488,176,194152,5,10,0:0:0:0:
382,136,194355,1,8,3:0:0:0:
285,212,194558,1,10,0:0:0:0:
227,270,194761,5,8,3:0:0:0:
227,270,194862,1,12,3:0:0:0:
227,270,194963,1,14,0:0:0:0:
60,336,195166,1,10,0:0:0:0:
0,198,195369,2,0,L|8:163,1,31.4999990386963,2|0,2:0|2:0,0:0:0:0:
69,114,195774,6,0,B|85:156|84:276,1,154.000004699707,6|0,0:0|0:0,0:0:0:0:
128,328,196382,1,0,3:0:0:0:
252,248,196585,2,0,P|261:218|272:161,1,77.0000023498536,8|0,0:0|2:0,0:0:0:0:
368,288,196990,1,8,2:0:0:0:
348,360,197193,1,0,3:0:0:0:
498,240,197396,2,0,P|448:240|356:96,1,231.000007049561,4|0,3:0|2:0,0:0:0:0:
475,222,198207,2,0,P|462:257|337:277,1,154.000004699707,10|0,0:0|2:0,0:0:0:0:
216,320,198815,5,2,0:0:0:0:
140,224,199017,2,0,L|114:320,1,77.0000023498536,4|0,0:2|0:0,0:0:0:0:
296,220,199423,2,0,L|280:136,1,77.0000023498536,0|0,2:0|3:0,0:0:0:0:
208,120,199828,1,10,0:0:0:0:
176,220,200031,1,0,3:0:0:0:
128,144,200234,5,2,0:3:0:0:
284,236,200436,1,2,3:0:0:0:
136,340,200639,2,0,P|104:348|2:284,2,154.000004699707,2|4|10,3:0|3:0|0:0,0:0:0:0:
432,185,201855,1,2,2:0:0:0:
432,185,201957,1,2,2:0:0:0:
432,185,202058,1,2,2:0:0:0:
432,185,202159,1,2,2:0:0:0:
432,185,202261,6,0,L|402:28,1,154.000004699707,4|0,0:0|2:0,0:0:0:0:
240,152,202869,1,0,0:0:0:0:
318,241,203071,2,0,B|334:205|334:205|330:150,1,77.0000023498536,10|0,0:0|2:0,0:0:0:0:
144,292,203477,2,0,B|152:377,1,77.0000023498536,2|0,0:0|3:0,0:0:0:0:
223,244,203882,6,0,B|164:237|152:276|42:245,1,154.000004699707,4|0,3:0|2:0,0:0:0:0:
232,328,204490,1,0,0:0:0:0:
308,384,204693,2,0,P|335:389|415:300,1,154.000004699707,10|0,0:0|2:0,0:0:0:0:
140,104,205504,6,0,P|135:139|106:199,1,77.0000023498536,4|0,0:2|2:0,0:0:0:0:
260,48,205909,2,0,L|337:28,1,77.0000023498536,2|0,0:0|3:0,0:0:0:0:
154,139,206315,2,0,B|112:132|112:132|58:142|58:142|-2:127,1,154.000004699707,10|2,0:0|0:2,0:0:0:0:
200,207,206923,1,0,3:0:0:0:
128,324,207125,5,8,3:0:0:0:
262,256,207328,1,10,0:0:0:0:
121,177,207531,2,0,L|94:264,1,77.0000023498536,4|0,0:2|2:0,0:0:0:0:
337,384,207936,5,14,0:0:0:0:
431,296,208139,5,10,0:0:0:0:
439,186,208342,5,8,0:0:0:0:
390,127,208544,5,8,3:0:0:0:
188,236,208747,6,0,P|215:240|346:220,1,154.000004699707,6|0,0:0|2:0,0:0:0:0:
304,156,209355,1,0,3:0:0:0:
512,80,209558,2,0,P|456:76|348:40,1,154.000004699707,14|0,0:0|3:0,0:0:0:0:
48,140,210369,2,0,P|74:82|172:72,1,154.000004699707,2|0,0:2|2:0,0:0:0:0:
176,176,210977,5,2,0:2:0:0:
176,176,211078,1,2,0:3:0:0:
176,176,211180,2,0,B|176:211|188:272|189:274,1,77.0000023498536,10|0,0:0|2:0,0:0:0:0:
200,328,211585,1,0,3:0:0:0:
346,273,211788,1,10,2:0:0:0:
296,208,211990,6,0,P|335:191|410:324,1,231.000007049561,2|0,0:0|0:0,0:0:0:0:
512,382,212801,1,10,0:0:0:0:
346,314,213004,5,2,0:2:0:0:
260,361,213207,1,0,3:0:0:0:
198,328,213409,1,0,3:0:0:0:
41,370,213612,5,14,0:2:0:0:
493,211,214017,5,6,0:0:0:0:
18,59,214423,5,14,0:0:0:0:
18,59,214828,1,2,2:3:0:0:
48,51,214930,1,2,2:3:0:0:
89,71,215031,1,2,2:3:0:0:
99,112,215132,1,2,2:3:0:0:
83,149,215234,6,0,L|-9:187,1,77.0000023498536,6|0,0:0|2:0,0:0:0:0:
151,0,215639,2,0,P|155:32|169:84,1,77.0000023498536,2|0,2:0|2:0,0:0:0:0:
322,129,216044,2,0,B|399:107|375:142|487:116,1,154.000004699707,10|0,0:0|3:0,0:0:0:0:
312,216,216652,5,2,3:0:0:0:
382,318,216855,2,0,P|364:311|292:308,1,77.0000023498536,4|0,3:0|2:0,0:0:0:0:
425,216,217261,2,0,P|465:212|515:199,1,77.0000023498536,0|0,3:0|2:0,0:0:0:0:
280,336,217666,2,0,P|241:341|206:238,1,154.000004699707,10|0,0:0|2:0,0:0:0:0:
269,111,218274,5,2,0:2:0:0:
142,181,218477,2,0,B|195:165|195:165|218:126|218:126|269:112,1,154.000004699707,2|0,3:1|2:0,0:0:0:0:
287,88,219288,2,0,L|203:114,1,77.0000023498536,10|0,0:0|2:0,0:0:0:0:
80,15,219693,2,0,L|157:31,1,77.0000023498536,2|0,2:0|3:0,0:0:0:0:
45,243,220098,5,4,0:2:0:0:
100,105,220301,1,8,0:0:0:0:
39,214,220504,1,8,0:0:0:0:
334,338,220808,5,8,3:0:0:0:
334,338,220909,1,14,0:0:0:0:
308,183,221112,1,8,0:0:0:0:
391,248,221315,1,8,0:0:0:0:
292,336,221517,1,8,3:0:0:0:
201,266,221720,2,0,P|199:243|237:164,1,105.000004005432,6|0,0:2|2:0,0:0:0:0:
415,9,222531,6,0,P|429:44|376:85,1,105.000004005432,10|0,0:0|3:0,0:0:0:0:
379,78,223139,1,0,0:0:0:0:
402,165,223342,2,0,P|381:165|302:127,2,105.000004005432,0|0|10,3:0|2:0|0:0,0:0:0:0:
402,165,224558,1,0,0:0:0:0:
468,359,224963,5,0,3:0:0:0:
392,248,225369,1,0,0:0:0:0:
272,335,225774,2,0,L|155:370,1,105.000004005432,8|0,0:0|2:0,0:0:0:0:
0,220,226585,5,10,3:0:0:0:
113,266,226788,1,8,0:0:0:0:
118,277,227193,5,0,0:0:0:0:
221,240,227396,1,10,2:1:0:0:
328,302,227598,5,8,2:1:0:0:
482,206,227801,5,8,0:0:0:0:
310,151,228004,1,8,0:0:0:0:
512,135,228207,6,0,P|498:147|392:206,1,132.999996448517,6|4,0:2|0:3,0:0:0:0:
196,356,229017,2,0,P|211:264|255:253,1,132.999996448517,10|4,0:0|0:3,0:0:0:0:
324,332,229625,1,0,0:0:0:0:
401,276,229828,2,0,L|416:353,1,66.4999982242585,0|0,3:0|2:0,0:0:0:0:
308,207,230234,2,0,L|320:134,1,66.4999982242585,4|0,3:0|2:0,0:0:0:0:
207,234,230639,2,0,B|132:228|152:252|72:240,1,132.999996448517,10|4,0:0|0:3,0:0:0:0:
148,88,231247,5,2,0:0:0:0:
212,48,231450,2,0,L|348:76,1,132.999996448517,4|4,3:2|0:3,0:0:0:0:
468,256,232261,2,0,B|412:220|412:220|343:232,1,132.999996448517,8|4,0:0|0:3,0:0:0:0:
264,340,232869,1,2,2:0:0:0:
340,376,233071,2,0,P|355:351|351:303,1,66.4999982242585,2|0,1:0|2:0,0:0:0:0:
207,189,233477,2,0,P|192:214|196:262,1,66.4999982242585,4|0,3:0|0:0,0:0:0:0:
0,366,233882,1,10,0:0:0:0:
116,313,234085,1,8,0:0:0:0:
168,380,234288,1,4,0:3:0:0:
236,356,234490,1,8,3:0:0:0:
394,218,234693,6,0,P|439:210|497:340,1,199.499994672775,4|0,0:2|2:0,0:0:0:0:
388,380,235504,2,0,L|312:360,1,66.4999982242585,12|0,0:0|2:0,0:0:0:0:
248,384,235909,1,4,0:3:0:0:
328,284,236112,1,0,3:0:0:0:
208,228,236315,2,0,B|76:268,1,132.999996448517,2|4,3:2|3:0,0:0:0:0:
60,52,237125,2,0,B|128:39|128:39|184:88,1,132.999996448517,14|4,0:0|0:3,0:0:0:0:
95,163,237734,5,2,3:0:0:0:
57,288,237936,2,0,P|74:260|94:148,1,132.999996448517,4|4,0:0|2:3,0:0:0:0:
81,157,238544,2,0,P|71:185|101:304,1,132.999996448517,2|0,2:2|2:0,0:0:0:0:
160,352,239152,6,0,L|243:335,1,66.4999982242585,4|0,0:3|3:0,0:0:0:0:
395,212,239558,2,0,L|468:234,1,66.4999982242585,0|0,3:0|0:0,0:0:0:0:
492,304,239963,1,4,3:0:0:0:
317,241,240166,1,8,0:0:0:0:
135,370,240369,1,14,0:0:0:0:
179,272,240571,1,8,3:0:0:0:
77,322,240774,5,4,3:0:0:0:
310,367,240977,5,4,0:0:0:0:
310,367,241180,2,0,B|286:296|318:317|289:233,1,132.999996448517,2|4,0:0|0:3,0:0:0:0:
512,49,241990,2,0,P|487:8|402:25,1,132.999996448517,8|4,0:0|0:3,0:0:0:0:
348,56,242598,5,0,3:2:0:0:
491,155,242801,2,0,P|524:130|507:45,1,132.999996448517,2|4,0:0|0:3,0:0:0:0:
412,188,243409,1,0,3:0:0:0:
512,296,243612,5,10,0:0:0:0:
341,236,243882,5,6,3:2:0:0:
168,328,244152,5,6,3:2:0:0:
11,242,244423,6,0,P|48:242|172:265,1,132.999996448517,6|4,0:0|0:3,0:0:0:0:
88,352,245031,1,0,3:0:0:0:
249,384,245234,2,0,L|361:363,1,66.4999982242585,8|0,0:0|2:0,0:0:0:0:
377,334,245639,1,6,0:3:0:0:
295,295,245842,1,0,3:0:0:0:
201,207,246044,5,2,0:0:0:0:
192,212,246247,1,2,1:2:0:0:
266,136,246450,5,4,3:0:0:0:
177,4,246652,5,2,0:0:0:0:
186,1,246855,2,0,L|199:71,1,66.4999982242585,10|0,0:0|2:0,0:0:0:0:
83,183,247261,1,8,3:0:0:0:
120,82,247463,1,8,0:0:0:0:
258,361,247666,5,4,0:0:0:0:
254,350,248071,5,2,3:0:0:0:
237,277,248274,5,2,3:0:0:0:
269,189,248477,5,10,3:0:0:0:
316,101,248680,5,8,0:0:0:0:
257,0,248882,5,12,0:0:0:0:
242,6,249288,1,4,0:2:0:0:
112,88,249592,5,8,3:0:0:0:
112,88,249693,1,12,0:0:0:0:
220,132,249896,1,2,3:0:0:0:
380,156,250098,5,8,0:0:0:0:
366,142,250200,5,8,0:0:0:0:
331,136,250301,5,8,0:0:0:0:
296,148,250402,5,8,0:0:0:0:
269,191,250504,5,0,0:0:0:0:
290,239,250605,5,0,0:0:0:0:
337,269,250707,5,10,0:3:0:0:
346,330,250808,5,10,0:3:0:0:
276,380,250909,6,0,B|232:368|192:368|192:368|184:372|184:372|140:376|92:356,1,175,6|4,3:1|2:3,0:0:0:0:
97,284,251517,1,0,3:0:0:0:
326,227,251720,2,0,B|362:198|362:198|417:210,1,90.9999958343508,14|0,0:0|0:0,0:0:0:0:
507,358,252125,5,6,3:0:0:0:
384,284,252328,1,2,0:2:0:0:
485,163,252531,2,0,L|506:266,1,80.5000015354157,0|0,3:0|2:0,0:0:0:0:
285,377,252936,2,0,L|302:291,1,80.5000015354157,4|0,3:0|2:0,0:0:0:0:
58,177,253342,1,10,0:0:0:0:
47,178,253747,1,4,0:3:0:0:
109,307,253950,5,2,0:0:0:0:
205,224,254152,2,0,B|165:200|111:194|111:194,1,80.5000015354157,2|0,0:2|2:0,0:0:0:0:
261,358,254558,2,0,B|301:382|355:388|355:388,1,80.5000015354157,4|0,3:0|3:0,0:0:0:0:
498,231,254963,1,8,0:0:0:0:
366,281,255166,5,2,0:0:0:0:
453,326,255369,1,4,3:0:0:0:
407,216,255571,1,0,3:2:0:0:
225,259,255774,5,4,0:2:0:0:
90,302,255977,1,8,0:0:0:0:
0,228,256180,1,4,3:0:0:0:
103,199,256382,1,8,3:0:0:0:
277,81,256585,2,0,B|278:41|263:-5|263:-5,1,80.5000015354157,10|0,0:0|0:0,0:0:0:0:
155,24,256990,2,0,B|154:64|169:110|169:110,1,80.5000015354157,6|0,3:0|3:0,0:0:0:0:
346,227,257396,6,0,B|428:216|416:248|512:224,1,161.000003070831,4|4,0:0|0:3,0:0:0:0:
324,340,258004,1,2,0:2:0:0:
236,267,258207,2,0,B|194:272|155:292|155:292,1,80.5000015354157,10|0,0:0|2:0,0:0:0:0:
50,383,258612,2,0,B|92:378|131:358|131:358,1,80.5000015354157,6|0,3:0|3:0,0:0:0:0:
381,244,259017,2,0,B|407:277|420:318|420:318,1,80.5000015354157,4|0,0:2|2:0,0:0:0:0:
182,180,259423,2,0,B|187:138|207:99|207:99,1,80.5000015354157,4|0,3:0|3:0,0:0:0:0:
287,215,259828,2,0,B|292:275|215:319|162:273,1,161.000003070831,10|4,0:0|0:3,0:0:0:0:
29,169,260436,5,0,3:0:0:0:
29,169,260538,1,0,3:0:0:0:
29,169,260639,2,0,L|127:142,1,80.5000015354157,4|0,0:0|2:0,0:0:0:0:
210,0,261044,2,0,L|228:82,1,80.5000015354157,6|0,3:0|3:0,0:0:0:0:
494,260,261450,2,0,L|386:232,1,80.5000015354157,10|0,0:0|2:0,0:0:0:0:
330,74,261855,2,0,L|303:171,1,80.5000015354157,6|0,3:0|3:0,0:0:0:0:
220,250,262261,5,10,3:1:0:0:
371,312,262463,2,0,B|384:347|384:347|356:396,2,80.5000015354157,0|2|0,3:2|0:2|0:0,0:0:0:0:
223,179,263071,5,14,0:0:0:0:
34,231,263274,2,0,B|21:272|21:272|41:331,1,80.5000015354157,2|0,0:2|0:0,0:0:0:0:
322,177,263680,5,4,0:2:0:0:
322,177,263882,2,0,B|317:132|281:97|281:97,1,80.5000015354157,6|0,0:0|0:0,0:0:0:0:
130,262,264288,2,0,B|135:307|171:342|171:342,1,80.5000015354157,6|0,3:0|3:0,0:0:0:0:
207,154,264693,2,0,B|156:125|85:147|63:213,1,161.000003070831,14|4,0:0|0:3,0:0:0:0:
219,257,265301,1,8,3:0:0:0:
313,307,265504,6,0,B|378:291|393:353|472:324,1,161.000003070831,2|4,0:2|0:3,0:0:0:0:
370,230,266112,1,0,0:0:0:0:
411,53,266315,5,14,0:0:0:0:
512,115,266517,1,2,3:2:0:0:
441,211,266720,1,8,0:0:0:0:
341,146,266923,1,8,0:0:0:0:
279,0,267125,6,0,B|192:-20|121:43|121:43,1,161.000003070831,4|4,0:0|3:0,0:0:0:0:
0,124,267734,1,2,3:0:0:0:
97,160,267936,1,10,0:0:0:0:
196,38,268139,1,2,0:2:0:0:
292,72,268342,1,6,0:3:0:0:
346,228,268544,1,0,3:0:0:0:
479,190,268747,6,0,L|447:73,1,94.5000003604889,6|8,0:0|0:0,0:0:0:0:
297,157,269152,2,0,L|193:187,1,80.5000015354157,14|0,0:2|3:0,0:0:0:0:
37,81,269558,6,0,B|21:45|33:2|89:-10,1,94.5000003604889,14|0,0:0|0:0,0:0:0:0:
279,243,269963,6,0,B|280:278|247:317|182:299,1,101.500003097534,14|8,0:0|0:2,0:0:0:0:
248,17,270369,6,0,B|302:-12|367:16|371:80,1,161.000003070831,4|4,0:0|0:3,0:0:0:0:
233,170,270977,1,8,3:0:0:0:
126,370,271180,2,0,B|96:292|137:206|137:206,1,161.000003070831,10|4,0:0|0:3,0:0:0:0:
293,282,271788,1,2,0:2:0:0:
310,355,271990,1,4,1:2:0:0:
219,291,272193,1,2,3:0:0:0:
309,212,272396,1,4,3:0:0:0:
404,277,272598,1,2,1:2:0:0:
142,371,272801,6,0,B|81:398|18:330|72:268,1,161.000003070831,12|4,0:0|0:3,0:0:0:0:
112,228,273409,1,0,3:0:0:0:
52,116,273612,2,0,L|21:202,1,80.5000015354157,0|0,3:0|1:0,0:0:0:0:
220,28,274017,1,2,0:2:0:0:
120,72,274220,1,0,3:0:0:0:
209,133,274423,2,0,L|287:159,1,80.5000015354157,8|0,0:0|1:0,0:0:0:0:
404,260,274828,1,2,0:2:0:0:
348,344,275031,1,0,3:0:0:0:
426,180,275234,5,4,3:0:0:0:
328,88,275436,1,8,0:0:0:0:
228,132,275639,1,2,3:0:0:0:
256,222,275842,5,0,3:0:0:0:
264,233,275943,1,0,3:0:0:0:
271,245,276044,1,14,0:0:0:0:
129,352,276247,1,10,0:0:0:0:
12,218,276450,1,8,0:0:0:0:
157,116,276652,1,8,3:0:0:0:
273,259,276855,6,0,P|252:252|166:246,1,105.000004005432,4|0,3:2|2:0,0:0:0:0:
329,145,277666,2,0,P|365:134|393:66,1,105.000004005432,8|0,0:0|3:0,0:0:0:0:
374,63,278274,1,0,0:0:0:0:
407,159,278477,2,0,P|427:178|522:184,2,105.000004005432,0|0|8,3:0|2:0|0:0,0:0:0:0:
225,40,279693,5,2,2:0:0:0:
206,31,279794,1,2,2:0:0:0:
180,39,279896,1,2,2:0:0:0:
158,34,279997,1,2,2:0:0:0:
158,34,280098,2,0,L|41:60,1,105.000004005432,0|0,3:0|2:0,0:0:0:0:
265,150,280909,2,0,L|313:271,1,105.000004005432,8|0,0:0|0:0,0:0:0:0:
380,365,281720,5,2,0:3:0:0:
156,297,282125,1,2,2:2:0:0:
223,256,282328,1,8,0:0:0:0:
190,366,282531,1,10,0:0:0:0:
78,308,282734,1,0,3:0:0:0:
128,179,282936,5,4,3:0:0:0:
134,177,283139,1,4,3:0:0:0:
78,64,283342,6,0,P|69:82|48:187,1,105.000004005432,4|0,0:0|2:0,0:0:0:0:
434,320,284152,2,0,P|443:302|464:197,1,105.000004005432,8|0,0:0|2:0,0:0:0:0:
374,138,284761,1,0,3:0:0:0:
400,47,284963,2,0,P|400:68|419:167,1,105.000004005432,0|0,0:0|3:0,0:0:0:0:
112,337,285774,2,0,P|112:316|93:217,1,105.000004005432,10|0,0:0|2:0,0:0:0:0:
160,98,286382,5,0,3:0:0:0:
144,92,286484,1,0,3:0:0:0:
157,90,286585,2,0,B|250:46|280:152|367:112,1,210.000008010865,12|8,0:2|0:0,0:0:0:0:
512,272,287801,1,2,3:0:0:0:
428,228,288004,1,0,3:0:0:0:
494,184,288207,2,0,L|513:246,1,52.5000020027161,2|0,0:2|2:0,0:0:0:0:
416,360,288612,2,0,L|432:293,1,52.5000020027161,0|0,3:0|2:0,0:0:0:0:
256,207,289017,1,10,0:0:0:0:
145,251,289220,1,8,0:0:0:0:
212,286,289423,1,0,3:0:0:0:
212,286,289625,1,0,0:0:0:0:
155,129,289828,6,0,P|140:127|36:151,1,105.000004005432,4|0,0:2|2:0,0:0:0:0:
218,213,290639,1,8,0:0:0:0:
322,166,291044,1,0,3:0:0:0:
440,231,291450,2,0,P|482:208|478:105,1,157.500006008148,2|0,3:0|2:0,0:0:0:0:
474,102,292261,2,0,P|467:124|520:184,1,105.000004005432,8|0,0:0|2:0,0:0:0:0:
392,12,293071,6,0,P|331:15|268:24,1,105.000004005432,2|0,0:0|3:0,0:0:0:0:
212,32,293680,1,8,3:0:0:0:
212,32,293882,1,8,0:0:0:0:
256,136,294288,1,0,0:0:0:0:
160,312,294693,6,0,B|102:371|1:324|12:248,2,210.000008010865,4|0|0,0:2|3:0|2:0,0:0:0:0:
284,212,303408,5,8,3:0:0:0:
332,116,303611,1,0,0:0:0:0:
356,184,303814,1,0,3:0:0:0:
260,140,304017,1,8,3:0:0:0:
260,140,304219,1,0,0:0:0:0:
152,172,304422,6,0,B|93:186|41:152,1,112,4|0,0:0|2:0,0:0:0:0:
119,30,305233,1,2,2:0:0:0:
211,106,305638,2,0,L|223:156,2,28,0|2|0,0:0|2:0|0:0,0:0:0:0:
273,58,306044,2,0,P|316:43|363:103,1,112,2|0,0:0|2:0,0:0:0:0:
506,146,306854,2,0,P|480:157|443:183,1,56,10|0,0:0|2:0,0:0:0:0:
490,294,307260,2,0,P|465:283|427:257,1,56,2|0,0:0|3:0,0:0:0:0:
512,222,307665,6,0,B|413:176|402:308|287:255,1,224,2|2,3:0|2:0,0:0:0:0:
192,184,308881,1,0,0:0:0:0:
151,180,309084,1,0,3:0:0:0:
120,204,309287,1,2,3:2:0:0:
21,264,309692,1,0,2:0:0:0:
131,344,310098,2,0,L|244:377,1,112,8|0,0:0|2:0,0:0:0:0:
366,322,310706,5,0,3:0:0:0:
366,322,310807,1,0,3:0:0:0:
366,322,310908,1,4,3:2:0:0:
479,235,311314,1,2,2:0:0:0:
352,140,311719,2,0,B|307:151|311:171|243:181,1,112,10|0,0:0|0:0,0:0:0:0:
220,88,312327,5,2,0:0:0:0:
286,25,312530,2,0,P|298:38|317:82,1,56,0|0,3:0|2:0,0:0:0:0:
158,168,312936,2,0,P|152:187|111:241,1,84,8|0,0:0|2:0,0:0:0:0:
96,238,313341,5,8,0:0:0:0:
206,235,313544,5,8,0:0:0:0:
262,293,313746,5,0,3:0:0:0:
265,368,313949,5,0,3:0:0:0:
260,372,314152,1,10,3:2:0:0:
256,192,314370,12,4,315900,2:0:0:0:
256,192,316040,12,2,320769,2:0:0:0:
