osu file format v14

[General]
AudioFilename: audio.mp3
AudioLeadIn: 0
PreviewTime: 55465
Countdown: 0
SampleSet: Soft
StackLeniency: 0.7
Mode: 0
LetterboxInBreaks: 0
WidescreenStoryboard: 1

[Editor]
Bookmarks: 16340,90340
DistanceSpacing: 0.5
BeatDivisor: 4
GridSize: 8
TimelineZoom: 1

[Metadata]
Title:After Rain
TitleUnicode:After Rain
Artist:Aimer
ArtistUnicode:Aimer
Creator:gary00737
Version:leo16834's Hard
Source:
Tags:leo16834 Kyle_Y After Dark japanese J_pop jpop
BeatmapID:1966606
BeatmapSetID:933926

[Difficulty]
HPDrainRate:4
CircleSize:3.3
OverallDifficulty:6
ApproachRate:7
SliderMultiplier:1.4
SliderTickRate:1

[Events]
//Background and Video events
Video,76,"720.mp4"
0,0,"22o.jpg",0,0
//Break Periods
//Storyboard Layer 0 (Background)
//Storyboard Layer 1 (Fail)
//Storyboard Layer 2 (Pass)
//Storyboard Layer 3 (Foreground)
//Storyboard Sound Samples

[TimingPoints]
335,500,4,2,1,70,1,0
56085,-83.3333333333333,4,2,1,80,0,1
88335,-1000,4,2,1,60,0,0

[Colours]
Combo1 : 150,150,150
Combo2 : 255,106,106
Combo3 : 189,189,189
Combo4 : 217,0,0

[HitObjects]
453,105,16335,6,0,L|367:121,1,70,4|0,3:1|0:2,0:0:0:0:
325,61,16835,1,2,1:2:0:0:
298,139,17085,2,0,L|302:295,1,140,0|2,3:2|0:2,0:0:0:0:
255,349,17835,1,2,1:2:0:0:
92,303,18085,6,0,P|165:261|237:295,1,140,0|0,3:2|3:2,0:0:0:0:
170,352,18835,1,2,1:2:0:0:
92,303,19085,2,0,L|12:297,2,70,0|0|2,3:2|0:0|1:2,0:0:0:0:
141,233,19835,2,0,L|220:235,1,70,2|2,1:2|1:2,0:0:0:0:
155,148,20335,6,0,L|59:142,1,70,4|0,3:1|0:2,0:0:0:0:
29,76,20835,1,2,1:2:0:0:
115,46,21085,2,0,B|195:17|167:98|246:57,1,140,0|2,3:2|3:2,0:0:0:0:
315,9,21835,1,2,1:2:0:0:
446,90,22085,6,0,P|352:95|320:133,1,140,0|0,3:2|3:2,0:0:0:0:
409,244,22835,2,0,P|415:195|401:168,1,70,2|0,1:2|3:2,0:0:0:0:
321,214,23335,2,0,L|243:208,2,70,0|2|2,0:0|1:2|1:2,0:0:0:0:
352,295,24085,1,2,1:2:0:0:
259,295,24335,6,0,P|175:299|112:337,1,140,4|2,3:1|1:2,0:0:0:0:
54,369,25085,2,0,B|81:311|81:311|66:229,1,140,0|2,3:2|0:2,0:0:0:0:
4,175,25835,1,2,1:2:0:0:
95,147,26085,6,0,P|129:137|206:195,1,140,2|0,3:2|3:2,0:0:0:0:
204,279,26835,2,0,L|298:267,1,70,0|2,1:2|3:2,0:0:0:0:
361,251,27335,2,0,L|347:339,1,70,2|0,0:2|3:2,0:0:0:0:
425,369,27835,1,2,1:2:0:0:
434,358,28335,6,0,L|455:210,1,140,6|2,3:2|1:2,0:0:0:0:
484,127,29085,2,0,P|417:125|363:194,1,140,2|2,3:2|3:2,0:0:0:0:
357,254,29835,1,2,1:2:0:0:
258,314,30085,6,0,B|218:296|218:296|124:314,1,140,2|2,3:2|3:2,0:0:0:0:
41,272,30835,2,0,P|30:331|35:351,1,70,0|0,1:2|3:2,0:0:0:0:
122,234,31335,2,0,L|112:158,1,70,2|0,0:2|3:2,0:0:0:0:
27,185,31835,1,2,1:2:0:0:
4,100,32085,1,0,3:2:0:0:
38,18,32335,6,0,L|114:37,1,70,4|0,3:1|0:2,0:0:0:0:
245,4,32835,1,2,1:2:0:0:
194,76,33085,2,0,P|235:92|328:42,1,140,0|2,3:2|0:2,0:0:0:0:
245,4,33835,1,2,1:2:0:0:
245,4,34085,6,0,L|398:18,1,140,2|0,3:2|3:2,0:0:0:0:
457,80,34835,2,0,P|481:26|485:0,1,70,2|2,1:2|3:2,0:0:0:0:
374,97,35335,2,0,L|380:191,1,70,2|0,0:2|3:2,0:0:0:0:
470,201,35835,1,2,1:2:0:0:
473,216,36335,6,0,P|432:204|335:263,1,140,6|2,3:2|1:2,0:0:0:0:
439,366,37085,2,0,L|423:287,1,70,2|0,3:2|0:0,0:0:0:0:
338,332,37585,1,2,3:2:0:0:
260,271,37835,1,2,1:2:0:0:
243,365,38085,1,2,3:2:0:0:
228,352,38585,6,0,L|153:335,1,70,2|2,3:2|1:2,0:0:0:0:
73,298,39085,2,0,L|-6:311,2,70,0|0|0,3:2|0:2|1:2,0:0:0:0:
137,236,39835,1,0,1:2:0:0:
61,180,40085,2,0,L|57:135,1,35,0|0,1:2|1:2,0:0:0:0:
51,111,40335,6,0,P|76:66|161:74,1,140,4|2,1:1|1:2,0:0:0:0:
203,159,41085,1,2,0:2:0:0:
266,89,41335,2,0,L|257:19,1,70,2|2,3:2|3:2,0:0:0:0:
203,159,41835,1,0,1:2:0:0:
355,113,42085,6,0,L|336:266,1,140,2|0,3:2|3:2,0:0:0:0:
250,278,42835,1,0,1:2:0:0:
257,289,43335,2,0,L|177:279,1,70,2|0,3:2|3:2,0:0:0:0:
84,220,43835,2,0,P|95:257|104:300,1,70,2|0,1:2|0:2,0:0:0:0:
19,155,44335,6,0,P|75:128|161:180,1,140,4|2,3:2|1:2,0:0:0:0:
181,245,45085,2,0,P|220:211|233:122,1,140,2|2,0:2|3:2,0:0:0:0:
167,65,45835,1,2,1:2:0:0:
7,156,46085,6,0,B|54:147|54:147|106:160|106:160|165:149,1,140,2|2,3:2|3:2,0:0:0:0:
38,237,46835,2,0,P|32:288|30:313,1,70,2|0,1:2|0:2,0:0:0:0:
113,357,47335,2,0,P|119:306|121:281,1,70,0|0,3:2|3:2,0:0:0:0:
191,216,47835,2,0,P|226:213|276:242,1,70,0|0,1:2|1:2,0:0:0:0:
348,362,48335,6,0,L|349:282,1,70,4|2,1:1|0:2,0:0:0:0:
436,262,48835,1,2,1:2:0:0:
380,184,49085,2,0,P|309:183|256:227,1,140,2|2,0:2|3:2,0:0:0:0:
189,157,49835,1,2,1:2:0:0:
162,274,50085,6,0,L|8:246,1,140,2|0,3:2|3:2,0:0:0:0:
14,86,50835,2,0,P|8:126|9:182,1,70,0|0,1:2|0:0,0:0:0:0:
114,78,51335,2,0,L|103:-17,1,70,2|0,3:2|3:2,0:0:0:0:
210,64,51835,1,2,1:2:0:0:
322,11,52085,1,0,1:2:0:0:
322,11,52210,1,0,1:2:0:0:
322,11,52335,6,0,B|386:5|386:5|483:33,1,140,6|2,1:2|1:2,0:0:0:0:
412,145,53085,1,0,0:2:0:0:
319,152,53335,2,0,B|255:158|255:158|158:130,1,140,0|2,3:2|1:2,0:0:0:0:
129,264,54085,1,6,3:2:0:0:
143,271,54585,5,2,1:2:0:0:
257,335,54835,1,2,1:2:0:0:
253,207,55085,1,2,1:2:0:0:
263,224,55585,6,0,L|255:154,1,70,0|0,0:0|0:0,0:0:0:0:
200,43,56085,6,0,B|246:78|297:71|297:71|352:25,1,167.999994873047,4|2,1:1|0:2,0:0:0:0:
434,77,56835,1,2,1:2:0:0:
361,140,57085,1,2,0:2:0:0:
288,197,57335,2,0,L|297:313,1,83.9999974365235,2|0,3:2|3:2,0:0:0:0:
202,302,57835,1,2,1:2:0:0:
139,173,58085,6,0,B|166:117|166:117|284:96,1,167.999994873047,2|2,0:2|3:2,0:0:0:0:
218,25,58835,1,0,1:2:0:0:
130,34,59085,2,0,L|46:44,1,83.9999974365235,2|0,3:2|0:0,0:0:0:0:
2,123,59585,2,0,L|15:213,1,83.9999974365235,2|2,3:2|1:2,0:0:0:0:
0,337,60085,6,0,B|26:294|26:294|143:277,1,167.999994873047,4|2,3:1|3:2,0:0:0:0:
219,361,60835,2,0,L|232:261,1,83.9999974365235,2|2,1:2|0:2,0:0:0:0:
130,248,61335,2,0,L|143:148,1,83.9999974365235,2|0,3:2|3:2,0:0:0:0:
190,75,61835,1,2,1:2:0:0:
236,190,62085,6,0,P|269:224|356:154,1,167.999994873047,2|2,0:2|3:2,0:0:0:0:
294,26,62835,2,0,L|281:117,1,83.9999974365235,2|2,1:2|3:2,0:0:0:0:
236,190,63335,1,0,0:0:0:0:
165,261,63585,2,0,L|66:271,1,83.9999974365235,2|2,3:2|1:2,0:0:0:0:
243,324,64085,6,0,P|326:286|395:307,1,167.999994873047,4|2,3:1|3:2,0:0:0:0:
484,217,64835,2,0,L|396:205,1,83.9999974365235,2|2,1:2|0:2,0:0:0:0:
306,199,65335,2,0,L|327:112,1,83.9999974365235,2|0,3:2|3:2,0:0:0:0:
265,47,65835,1,0,1:2:0:0:
208,123,66085,6,0,P|132:127|77:204,1,167.999994873047,2|2,0:2|3:2,0:0:0:0:
176,218,66835,1,2,1:2:0:0:
236,292,67085,2,0,P|265:249|264:200,1,83.9999974365235,2|0,3:2|0:2,0:0:0:0:
208,123,67585,2,0,L|309:119,1,83.9999974365235,2|2,3:2|1:2,0:0:0:0:
360,26,68085,6,0,P|429:32|484:120,1,167.999994873047,2|2,0:2|0:2,0:0:0:0:
436,195,68835,2,0,B|357:160|357:237|276:189,1,167.999994873047,2|0,1:2|3:2,0:0:0:0:
198,133,69585,1,2,3:2:0:0:
123,193,69835,1,2,1:2:0:0:
23,120,70085,6,0,B|69:99|69:99|131:122|122:200,1,167.999994873047,4|0,1:1|1:2,0:0:0:0:
43,244,70835,1,2,1:2:0:0:
72,341,71085,2,0,P|153:306|226:363,1,167.999994873047,6|2,3:2|3:2,0:0:0:0:
306,369,71835,1,2,3:2:0:0:
274,249,72085,6,0,L|260:74,1,167.999994873047,4|2,3:1|3:2,0:0:0:0:
186,18,72835,1,2,1:2:0:0:
168,122,73085,1,2,0:2:0:0:
88,55,73335,2,0,L|-9:65,1,83.9999974365235,2|0,3:2|3:2,0:0:0:0:
0,164,73835,1,2,1:2:0:0:
82,230,74085,6,0,B|44:274|57:344|57:344|114:388,1,167.999994873047,2|2,0:2|3:2,0:0:0:0:
187,329,74835,1,0,1:2:0:0:
292,327,75085,2,0,P|299:280|281:237,1,83.9999974365235,2|0,3:2|0:0,0:0:0:0:
186,162,75585,2,0,L|296:149,1,83.9999974365235,2|2,3:2|1:2,0:0:0:0:
383,108,76085,6,0,P|415:134|377:259,1,167.999994873047,4|2,3:1|3:2,0:0:0:0:
230,263,76835,2,0,P|277:274|330:298,1,83.9999974365235,2|0,1:2|0:0,0:0:0:0:
411,354,77335,2,0,P|336:332|248:366,1,167.999994873047,2|2,3:2|1:2,0:0:0:0:
106,304,78085,6,0,B|135:271|135:271|126:121,1,167.999994873047,2|2,0:2|3:2,0:0:0:0:
11,74,78835,2,0,P|24:127|19:190,1,83.9999974365235,2|2,1:2|3:2,0:0:0:0:
0,253,79335,1,0,0:0:0:0:
106,304,79585,1,2,3:2:0:0:
214,258,79835,1,2,1:2:0:0:
199,380,80085,6,0,L|377:355,1,167.999994873047,4|2,3:1|3:2,0:0:0:0:
436,293,80835,2,0,P|460:338|459:387,1,83.9999974365235,2|2,1:2|0:2,0:0:0:0:
348,273,81335,2,0,P|351:222|379:181,1,83.9999974365235,2|0,3:2|3:2,0:0:0:0:
441,141,81835,1,2,1:2:0:0:
323,93,82085,6,0,B|272:67|205:105|205:105|262:134,1,167.999994873047,2|2,0:2|3:2,0:0:0:0:
318,206,82835,1,2,1:2:0:0:
240,264,83085,2,0,L|141:244,1,83.9999974365235,2|0,3:2|0:0,0:0:0:0:
136,158,83585,1,0,3:2:0:0:
115,65,83835,1,0,1:2:0:0:
45,188,84085,6,0,L|27:365,1,167.999994873047,4|2,3:1|3:2,0:0:0:0:
126,295,84835,2,0,L|225:312,1,83.9999974365235,2|2,1:2|0:2,0:0:0:0:
315,249,85335,1,2,3:2:0:0:
316,371,85585,1,2,1:2:0:0:
208,309,85835,1,0,1:2:0:0:
416,305,86085,6,0,L|437:118,1,167.999994873047,6|2,1:2|1:2,0:0:0:0:
363,69,86835,1,0,3:2:0:0:
267,29,87085,2,0,P|256:82|284:127,1,83.9999974365235,6|0,1:2|0:0,0:0:0:0:
319,213,87585,1,6,1:2:0:0:
256,192,88335,12,0,90085,0:1:0:0:
