osu file format v14

[General]
AudioFilename: audio.mp3
AudioLeadIn: 0
PreviewTime: 55465
Countdown: 0
SampleSet: Soft
StackLeniency: 0.7
Mode: 0
LetterboxInBreaks: 0
WidescreenStoryboard: 0

[Editor]
Bookmarks: 16340,90340
DistanceSpacing: 0.5
BeatDivisor: 4
GridSize: 8
TimelineZoom: 1

[Metadata]
Title:After Rain
TitleUnicode:After Rain
Artist:Aimer
ArtistUnicode:Aimer
Creator:gary00737
Version:Song of The Rain
Source:
Tags:leo16834 Kyle_Y After Dark japanese J_pop jpop
BeatmapID:1949714
BeatmapSetID:933926

[Difficulty]
HPDrainRate:5
CircleSize:3.5
OverallDifficulty:7.8
ApproachRate:8
SliderMultiplier:1.5
SliderTickRate:1

[Events]
//Background and Video events
Video,76,"720.mp4"
0,0,"22o.jpg",0,0
//Break Periods
//Storyboard Layer 0 (Background)
//Storyboard Layer 1 (Fail)
//Storyboard Layer 2 (Pass)
//Storyboard Layer 3 (Foreground)
//Storyboard Sound Samples

[TimingPoints]
335,500,4,2,1,70,1,0
56085,-83.3333333333333,4,2,1,80,0,1
88335,-1000,4,2,1,60,0,0

[Colours]
Combo1 : 150,150,150
Combo2 : 255,106,106
Combo3 : 189,189,189
Combo4 : 217,0,0

[HitObjects]
216,262,15585,5,2,1:2:0:0:
287,302,15835,1,2,1:2:0:0:
217,344,16085,1,2,1:2:0:0:
286,220,16335,6,0,P|316:189|359:178,1,75,4|0,3:1|0:2,0:2:0:0:
469,254,16835,1,2,1:2:0:0:
469,254,17085,2,0,B|454:300|389:300|389:300|357:260,1,150,0|2,3:2|0:2,0:2:0:0:
260,126,17835,1,2,1:2:0:0:
124,191,18085,6,0,P|186:203|252:137,1,150,0|0,3:2|3:2,0:2:0:0:
161,44,18835,2,0,L|170:118,1,75,2|0,1:2|3:2,0:2:0:0:
206,369,19585,1,2,1:2:0:0:
221,272,19835,1,2,1:2:0:0:
297,333,20085,1,2,1:2:0:0:
130,308,20335,6,0,P|85:298|29:291,1,75,4|0,3:1|0:2,0:2:0:0:
221,272,20835,1,2,1:2:0:0:
221,272,21085,2,0,P|272:319|356:306,1,150,0|2,3:2|3:2,0:2:0:0:
409,230,21835,2,0,L|418:156,1,75,2|0,1:2|3:2,0:2:0:0:
235,25,22585,6,0,L|244:99,1,75,0|2,3:2|1:2,0:2:0:0:
133,219,23085,2,0,B|221:173|221:173|251:188|279:201,1,150,0|2,3:2|1:2,0:2:0:0:
149,114,23835,1,2,1:2:0:0:
223,266,24085,1,2,1:2:0:0:
318,126,24335,6,0,P|368:117|416:105,1,75,4|0,3:1|0:2,0:2:0:0:
482,33,24835,1,2,1:2:0:0:
437,235,25085,2,0,B|400:202|400:202|379:143|413:88,1,150,0|2,3:2|0:2,0:2:0:0:
494,26,25835,1,2,1:2:0:0:
307,117,26085,6,0,B|226:108|262:166|146:152,1,150,2|0,3:2|3:2,0:2:0:0:
74,90,26835,1,0,1:2:0:0:
199,0,27085,1,2,3:2:0:0:
199,0,27335,2,0,L|191:80,1,75,2|0,0:2|3:2,0:2:0:0:
287,268,27835,2,0,L|294:193,1,75,2|0,1:2|0:2,0:2:0:0:
244,359,28335,6,0,P|298:300|386:321,1,150,6|2,3:2|1:2,0:2:0:0:
508,249,29085,2,0,P|429:231|404:145,1,150,2|2,3:2|3:2,0:2:0:0:
263,72,29835,1,2,1:2:0:0:
269,206,30085,6,0,P|306:144|281:76,1,150,2|2,3:2|3:2,0:2:0:0:
162,18,30835,1,0,1:2:0:0:
40,116,31085,1,0,3:2:0:0:
173,13,31335,2,0,P|159:83|157:114,1,75,2|0,0:2|3:2,0:2:0:0:
50,126,31835,2,0,P|64:196|66:227,1,75,2|0,1:2|3:2,0:2:0:0:
188,342,32335,6,0,P|193:304|202:268,1,75,4|0,3:1|0:2,0:2:0:0:
320,214,32835,1,2,1:2:0:0:
474,207,33085,2,0,B|392:189|420:246|313:220,1,150,0|2,3:2|0:2,0:2:0:0:
250,133,33835,1,2,1:2:0:0:
386,1,34085,6,0,P|377:52|360:164,1,150,2|0,3:2|3:2,0:2:0:0:
248,215,34835,2,0,P|200:209|151:204,1,75,2|2,1:2|3:2,0:2:0:0:
91,349,35335,2,0,P|108:307|97:260,1,75,2|0,0:2|3:2,0:2:0:0:
44,74,35835,2,0,P|28:107|29:144,1,75,2|0,1:2|0:2,0:2:0:0:
173,206,36335,6,0,P|210:142|193:63,1,150,6|2,3:2|1:2,0:2:0:0:
108,123,37085,1,2,3:2:0:0:
421,74,37585,1,2,3:2:0:0:
337,37,37835,1,2,1:2:0:0:
348,128,38085,6,0,L|356:202,1,75,2|0,3:2|0:2,0:2:0:0:
373,359,38585,1,2,3:2:0:0:
410,275,38835,1,2,1:2:0:0:
319,286,39085,2,0,L|244:294,1,75,0|0,3:2|0:2,0:2:0:0:
87,311,39585,1,0,1:2:0:0:
171,348,39835,1,0,1:2:0:0:
160,257,40085,1,0,1:2:0:0:
160,257,40210,1,0,1:2:0:0:
160,257,40335,6,0,L|151:182,1,75,4|0,1:1|0:2,0:2:0:0:
87,23,40835,1,2,1:2:0:0:
119,102,41085,1,2,0:2:0:0:
204,114,41335,2,0,L|279:105,1,75,2|2,3:2|3:2,0:2:0:0:
172,35,41835,1,0,1:2:0:0:
34,90,42085,6,0,L|43:165,1,75,2|0,3:2|0:2,0:2:0:0:
53,255,42585,1,0,3:2:0:0:
201,193,42835,2,0,L|126:202,1,75,0|0,1:2|0:2,0:2:0:0:
284,229,43335,1,2,3:2:0:0:
274,139,43585,1,0,3:2:0:0:
191,103,43835,2,0,L|116:112,1,75,2|0,1:2|0:2,0:2:0:0:
63,300,44335,6,0,L|211:282,1,150,4|2,3:2|1:2,0:2:0:0:
345,241,45085,1,2,0:2:0:0:
345,241,45335,2,0,P|337:286|330:340,1,75,0|2,3:2|3:2,0:2:0:0:
261,208,45835,1,2,1:2:0:0:
418,95,46085,6,0,B|397:141|340:152|340:152|291:120,1,150,2|2,3:2|3:2,0:2:0:0:
162,40,46835,2,0,P|171:93|174:120,1,75,2|0,1:2|0:2,0:2:0:0:
199,211,47335,1,0,3:2:0:0:
199,211,47585,1,0,3:2:0:0:
36,200,47835,1,0,1:2:0:0:
36,200,48085,1,0,1:2:0:0:
173,114,48335,5,4,1:1:0:0:
114,265,48585,1,2,0:2:0:0:
73,105,48835,1,2,1:2:0:0:
199,211,49085,2,0,L|294:200,1,75,2|0,0:2|3:2,0:2:0:0:
374,73,49585,1,2,3:2:0:0:
259,87,49835,1,2,1:2:0:0:
388,188,50085,6,0,L|483:177,1,75,2|0,3:2|0:2,0:2:0:0:
343,294,50585,2,0,L|354:389,1,75,0|0,3:2|1:2,0:2:0:0:
169,90,51335,2,0,L|160:15,1,75,2|0,3:2|3:2,0:2:0:0:
124,196,51835,2,0,L|49:204,1,75,2|0,1:2|1:2,0:2:0:0:
12,206,52210,1,0,1:2:0:0:
12,206,52335,6,0,L|21:280,1,75,6|0,1:2|0:2,0:2:0:0:
38,384,52835,1,2,1:2:0:0:
193,327,53085,2,0,P|157:319|119:317,1,75,0|0,0:2|3:2,0:2:0:0:
288,228,53585,1,0,3:2:0:0:
383,129,53835,1,2,1:2:0:0:
288,228,54085,6,0,P|251:235|213:238,1,75,6|0,3:2|0:2,0:2:0:0:
154,29,54585,1,2,1:2:0:0:
383,129,54835,1,2,1:2:0:0:
124,196,55085,1,2,1:2:0:0:
268,106,56085,6,0,P|375:86|454:73,1,179.999994506836,4|2,1:1|0:2,0:2:0:0:
500,230,56835,1,2,1:2:0:0:
382,168,57085,1,2,0:2:0:0:
310,290,57335,2,0,L|400:280,1,89.9999972534181,2|0,3:2|3:2,0:2:0:0:
274,186,57835,1,2,1:2:0:0:
93,223,58085,6,0,P|64:270|63:317,1,89.9999972534181,2|0,0:2|3:2,0:2:0:0:
124,136,58585,2,0,P|68:134|27:157,1,89.9999972534181,2|0,3:2|1:2,0:2:0:0:
214,119,59085,2,0,P|168:43|65:21,1,179.999994506836,2|2,3:2|3:2,0:2:0:0:
23,163,59835,1,2,1:2:0:0:
152,294,60085,6,0,P|235:285|346:275,1,179.999994506836,4|2,3:1|3:2,0:2:0:0:
512,258,60835,1,2,1:2:0:0:
376,378,61085,1,2,0:2:0:0:
416,201,61335,2,0,P|430:145|451:88,1,89.9999972534181,2|0,3:2|3:2,0:2:0:0:
512,13,61835,1,2,1:2:0:0:
346,123,62085,6,0,P|292:113|253:105,1,89.9999972534181,2|0,0:2|3:2,0:2:0:0:
138,29,62585,1,2,3:2:0:0:
29,119,62835,1,2,1:2:0:0:
145,313,63085,2,0,P|154:199|88:161,1,179.999994506836,2|2,3:2|3:2,0:2:0:0:
81,251,63835,1,2,1:2:0:0:
289,269,64085,6,0,B|316:205|394:204|394:204|449:253,1,179.999994506836,4|2,3:1|3:2,0:2:0:0:
512,313,64835,1,2,1:2:0:0:
376,296,65085,1,2,0:2:0:0:
474,161,65335,2,0,L|480:62,1,89.9999972534181,2|0,3:2|3:2,0:2:0:0:
306,31,65835,1,0,1:2:0:0:
306,31,66085,6,0,L|311:120,1,89.9999972534181,2|0,0:2|3:2,0:2:0:0:
176,303,66585,2,0,L|170:213,1,89.9999972534181,2|2,3:2|1:2,0:2:0:0:
377,232,67085,2,0,L|287:237,1,89.9999972534181,2|0,3:2|0:2,0:2:0:0:
105,102,67585,2,0,L|194:96,1,89.9999972534181,2|2,3:2|1:2,0:2:0:0:
453,258,68085,6,0,B|414:306|414:306|296:313,1,179.999994506836,2|2,0:2|0:2,0:2:0:0:
50,249,68835,2,0,P|129:191|224:228,1,179.999994506836,2|0,1:2|3:2,0:2:0:0:
137,381,69585,2,0,L|143:291,1,89.9999972534181,2|2,3:2|1:2,0:2:0:0:
144,14,70085,6,0,B|170:68|247:74|247:74|310:24,1,179.999994506836,4|0,1:1|1:2,0:2:0:0:
131,153,70835,1,2,1:2:0:0:
462,182,71085,2,0,B|436:128|359:122|359:122|296:172,1,179.999994506836,6|2,3:2|3:2,0:2:0:0:
284,187,71710,1,2,3:2:0:0:
269,229,71835,1,2,3:2:0:0:
273,274,71960,1,2,3:2:0:0:
295,313,72085,6,0,P|226:255|127:281,1,179.999994506836,4|2,3:1|3:2,0:2:0:0:
47,373,72835,1,2,1:2:0:0:
199,359,73085,1,2,0:2:0:0:
50,198,73335,2,0,L|60:288,1,89.9999972534181,2|0,3:2|3:2,0:2:0:0:
159,158,73835,1,2,1:2:0:0:
363,238,74085,6,0,P|450:230|494:228,1,89.9999972534181,2|0,0:2|3:2,0:2:0:0:
291,176,74585,2,0,P|356:118|391:90,1,89.9999972534181,2|0,3:2|1:2,0:2:0:0:
196,168,75085,2,0,P|222:49|239:-10,1,179.999994506836,2|2,3:2|3:2,0:2:0:0:
370,115,75835,1,2,1:2:0:0:
230,261,76085,6,0,B|130:241|161:314|42:288,1,179.999994506836,4|2,3:1|3:2,0:2:0:0:
2,118,76835,2,0,P|85:128|93:211,2,179.999994506836,2|2|2,1:2|3:2|1:2,0:2:0:0:
191,171,78085,6,0,P|236:182|290:184,1,89.9999972534181,2|0,0:2|3:2,0:2:0:0:
441,106,78585,1,2,3:2:0:0:
457,12,78835,1,2,1:2:0:0:
373,172,79085,2,0,P|361:278|355:363,1,179.999994506836,2|2,3:2|3:2,0:2:0:0:
458,261,79835,1,2,1:2:0:0:
279,184,80085,6,0,B|215:172|215:172|166:208|180:282,1,179.999994506836,4|2,3:1|3:2,0:2:0:0:
280,383,80835,1,2,1:2:0:0:
119,349,81085,1,2,0:2:0:0:
289,266,81335,2,0,P|377:252|408:251,1,89.9999972534181,2|0,3:2|3:2,0:2:0:0:
440,130,81835,1,2,1:2:0:0:
440,130,82085,6,0,P|383:60|367:34,1,89.9999972534181,2|0,0:2|3:2,0:2:0:0:
214,151,82585,2,0,P|232:110|247:68,1,89.9999972534181,2|2,3:2|1:2,0:2:0:0:
424,243,83085,2,0,P|331:223|244:287,1,179.999994506836,2|0,3:2|3:2,0:2:0:0:
223,379,83835,1,0,1:2:0:0:
19,254,84085,6,0,B|122:233|87:321|208:299,1,179.999994506836,4|2,3:1|3:2,0:2:0:0:
187,131,84835,2,0,P|173:190|169:227,1,89.9999972534181,2|2,1:2|0:2,0:2:0:0:
299,339,85335,1,2,3:2:0:0:
328,176,85585,1,2,1:2:0:0:
223,379,85835,1,0,1:2:0:0:
187,131,86085,1,6,1:2:0:0:
187,131,86585,5,2,1:2:0:0:
260,262,86835,1,0,3:2:0:0:
407,95,87085,1,6,1:2:0:0:
407,95,87585,1,6,1:2:0:0:
407,95,88335,6,0,P|399:117|391:146,1,52.5,4|0,0:1|0:2,0:2:0:0:
