osu file format v14

[General]
AudioFilename: audio.mp3
AudioLeadIn: 0
PreviewTime: 55465
Countdown: 0
SampleSet: Soft
StackLeniency: 0.7
Mode: 0
LetterboxInBreaks: 0
WidescreenStoryboard: 1

[Editor]
Bookmarks: 16340,24340,40340,56090,64090,72090
DistanceSpacing: 0.87
BeatDivisor: 4
GridSize: 16
TimelineZoom: 1

[Metadata]
Title:After Rain
TitleUnicode:After Rain
Artist:Aimer
ArtistUnicode:Aimer
Creator:gary00737
Version:Ky's Normal
Source:
Tags:leo16834 Kyle_Y After Dark japanese J_pop jpop
BeatmapID:1955016
BeatmapSetID:933926

[Difficulty]
HPDrainRate:3
CircleSize:3
OverallDifficulty:4
ApproachRate:5
SliderMultiplier:1
SliderTickRate:1

[Events]
//Background and Video events
Video,76,"720.mp4"
0,0,"22o.jpg",0,0
//Break Periods
//Storyboard Layer 0 (Background)
//Storyboard Layer 1 (Fail)
//Storyboard Layer 2 (Pass)
//Storyboard Layer 3 (Foreground)
//Storyboard Sound Samples

[TimingPoints]
335,500,4,2,1,70,1,0
56085,-86.9565217391304,4,2,1,80,0,1
71585,-86.9565217391304,4,2,1,80,0,0
72085,-86.9565217391304,4,2,1,80,0,1
88335,-100,4,2,1,60,0,0

[Colours]
Combo1 : 150,150,150
Combo2 : 255,106,106
Combo3 : 189,189,189
Combo4 : 217,0,0

[HitObjects]
145,163,15585,6,0,L|154:112,2,50,2|2|2,1:2|1:2|1:2,0:0:0:0:
143,211,16335,5,4,3:1:0:0:
143,211,16585,2,0,L|245:193,1,100,0|0,0:2|3:2,0:0:0:0:
304,129,17585,2,0,L|353:120,1,50,2|2,0:2|1:2,0:0:0:0:
397,112,18085,2,0,L|379:10,2,100,0|0|0,3:2|3:2|3:2,0:0:0:0:
463,172,19585,2,0,L|514:163,2,50,2|2|2,1:2|1:2|1:2,0:0:0:0:
434,207,20335,5,4,3:1:0:0:
434,207,20585,2,0,L|332:225,1,100,0|0,0:2|3:2,0:0:0:0:
297,305,21585,2,0,L|247:296,1,50,2|2,3:2|1:2,0:0:0:0:
204,288,22085,2,0,L|222:186,2,100,0|0|0,3:2|3:2|3:2,0:0:0:0:
127,335,23585,2,0,L|118:386,2,50,2|2|2,1:2|1:2|1:2,0:0:0:0:
115,296,24335,5,4,3:1:0:0:
115,296,24585,2,0,L|13:314,1,100,0|0,0:2|3:2,0:0:0:0:
3,224,25585,2,0,L|52:215,1,50,2|2,0:2|1:2,0:0:0:0:
96,207,26085,2,0,B|84:132|84:132|96:58,1,150,2|0,3:2|1:2,0:0:0:0:
185,48,27335,2,0,L|287:66,1,100,2|2,0:2|1:2,0:0:0:0:
346,129,28335,5,6,3:2:0:0:
346,129,28585,2,0,L|328:231,1,100,0|2,0:0|3:2,0:0:0:0:
244,260,29585,2,0,L|252:309,1,50,2|2,3:2|1:2,0:0:0:0:
280,344,30085,2,0,B|355:332|355:332|428:344,1,150,2|0,3:2|1:2,0:0:0:0:
503,294,31335,1,2,0:2:0:0:
433,236,31835,2,0,L|360:225,1,50,2|0,1:2|3:2,0:0:0:0:
343,223,32335,5,4,3:1:0:0:
343,223,32585,2,0,L|361:121,1,100,0|0,0:2|3:2,0:0:0:0:
445,95,33585,2,0,L|436:46,1,50,2|2,0:2|1:2,0:0:0:0:
392,32,34085,2,0,B|317:20|317:20|243:32,1,150,2|2,3:2|1:2,0:0:0:0:
218,118,35335,2,0,L|119:100,1,100,2|2,0:2|1:2,0:0:0:0:
31,119,36335,6,0,L|48:217,1,100,6|2,3:2|1:2,0:0:0:0:
57,261,37085,1,2,3:2:0:0:
144,283,37585,2,0,L|153:332,1,50,2|2,3:2|1:2,0:0:0:0:
160,376,38085,2,0,B|234:364|234:364|309:376,1,150,2|2,3:2|1:2,0:0:0:0:
353,377,39085,1,0,3:2:0:0:
424,322,39585,2,0,L|473:331,2,50,0|0|0,1:2|1:2|1:2,0:0:0:0:
390,291,40335,5,4,1:1:0:0:
425,208,40835,2,0,L|407:109,1,100,2|2,1:2|3:2,0:0:0:0:
395,65,41585,1,2,3:2:0:0:
313,103,42085,2,0,B|240:116|240:116|227:42,1,150,2|0,3:2|1:2,0:0:0:0:
142,8,43335,2,0,L|43:26,1,100,2|2,3:2|1:2,0:0:0:0:
11,109,44335,6,0,L|110:127,1,100,4|2,3:2|1:2,0:0:0:0:
153,133,45085,1,2,0:2:0:0:
181,218,45585,2,0,L|172:267,1,50,2|2,3:2|1:2,0:0:0:0:
126,267,46085,2,0,B|53:254|53:254|40:328,1,150,2|2,3:2|1:2,0:0:0:0:
125,357,47335,1,0,3:2:0:0:
212,337,47835,2,0,L|261:346,1,50,0|0,1:2|1:2,0:0:0:0:
305,352,48335,6,0,L|287:253,1,100,4|2,1:1|1:2,0:0:0:0:
274,210,49085,1,2,0:2:0:0:
339,148,49585,2,0,L|388:157,1,50,2|2,3:2|1:2,0:0:0:0:
432,163,50085,2,0,L|414:64,1,100,2|0,3:2|3:2,0:0:0:0:
401,21,50835,1,0,1:2:0:0:
312,39,51335,2,0,L|213:57,1,100,2|2,3:2|1:2,0:0:0:0:
179,85,52085,1,0,1:2:0:0:
179,85,52335,6,0,L|80:67,1,100,6|2,1:2|1:2,0:0:0:0:
50,151,53335,2,0,L|148:169,1,100,0|2,3:2|1:2,0:0:0:0:
186,193,54085,1,6,3:2:0:0:
273,171,54585,2,0,L|264:122,2,50,2|2|2,1:2|1:2|1:2,0:0:0:0:
305,375,56085,6,0,L|417:354,1,115.000002193451,4|2,1:1|0:2,0:0:0:0:
456,321,56835,2,0,L|512:310,2,57.5000010967255,2|2|2,1:2|0:2|3:2,0:0:0:0:
395,241,57835,2,0,L|405:184,1,57.5000010967255,2|2,1:2|0:2,0:0:0:0:
418,136,58335,2,0,L|305:115,1,115.000002193451,0|0,3:2|1:2,0:0:0:0:
256,127,59085,1,2,3:2:0:0:
187,54,59585,2,0,L|130:43,1,57.5000010967255,2|2,3:2|1:2,0:0:0:0:
88,70,60085,6,0,L|108:182,1,115.000002193451,4|2,3:1|3:2,0:0:0:0:
74,220,60835,2,0,L|17:230,2,57.5000010967255,2|2|2,1:2|0:2|3:2,0:0:0:0:
136,298,61835,2,0,L|146:354,1,57.5000010967255,2|2,1:2|0:2,0:0:0:0:
190,377,62335,2,0,L|302:356,1,115.000002193451,0|2,3:2|1:2,0:0:0:0:
339,321,63085,2,0,L|451:342,1,115.000002193451,2|2,3:2|3:2,0:0:0:0:
503,359,63835,1,2,1:2:0:0:
503,359,64085,6,0,L|482:246,1,115.000002193451,4|2,3:1|3:2,0:0:0:0:
473,196,64835,1,2,1:2:0:0:
440,101,65335,2,0,L|327:121,1,115.000002193451,2|0,3:2|1:2,0:0:0:0:
279,126,66085,1,2,0:2:0:0:
279,126,66335,2,0,L|166:105,1,115.000002193451,0|2,3:2|1:2,0:0:0:0:
120,84,67085,1,2,3:2:0:0:
37,140,67585,1,2,3:2:0:0:
101,216,68085,6,0,L|121:328,1,115.000002193451,2|2,0:2|0:2,0:0:0:0:
142,374,68835,2,0,L|254:353,1,115.000002193451,2|0,1:2|3:2,0:0:0:0:
304,342,69585,1,2,3:2:0:0:
399,311,70085,2,0,L|379:198,1,115.000002193451,4|0,1:1|1:2,0:0:0:0:
368,154,70835,1,2,1:2:0:0:
368,154,71085,1,6,3:2:0:0:
451,98,71585,2,0,L|441:41,1,57.5000010967255,2|2,3:2|3:2,0:0:0:0:
394,23,72085,6,0,L|281:44,1,115.000002193451,4|2,3:1|3:2,0:0:0:0:
233,60,72835,2,0,L|243:3,2,57.5000010967255,2|2|2,1:2|0:2|3:2,0:0:0:0:
160,128,73835,2,0,L|104:118,1,57.5000010967255,2|2,1:2|0:2,0:0:0:0:
66,152,74335,2,0,L|87:264,1,115.000002193451,0|0,3:2|1:2,0:0:0:0:
98,313,75085,2,0,L|210:292,1,115.000002193451,2|2,3:2|3:2,0:0:0:0:
260,283,75835,1,2,1:2:0:0:
260,283,76085,6,0,L|240:169,1,115.000002193451,4|2,3:1|3:2,0:0:0:0:
238,119,76835,1,2,1:2:0:0:
337,126,77335,2,0,L|450:146,1,115.000002193451,2|2,3:2|1:2,0:0:0:0:
501,168,78085,1,2,0:2:0:0:
501,168,78335,2,0,L|481:281,1,115.000002193451,0|2,3:2|1:2,0:0:0:0:
473,326,79085,1,2,3:2:0:0:
376,351,79585,2,0,L|319:340,1,57.5000010967255,2|2,3:2|1:2,0:0:0:0:
279,310,80085,6,0,L|167:331,1,115.000002193451,4|2,3:1|3:2,0:0:0:0:
125,316,80835,1,2,1:2:0:0:
125,316,81085,2,0,L|68:327,1,57.5000010967255,2|2,0:2|3:2,0:0:0:0:
22,237,81835,2,0,L|78:226,1,57.5000010967255,2|2,1:2|0:2,0:0:0:0:
127,215,82335,2,0,L|106:103,1,115.000002193451,0|2,3:2|1:2,0:0:0:0:
123,55,83085,2,0,L|235:34,1,115.000002193451,2|0,3:2|3:2,3:0:0:0:
281,54,83835,1,0,1:2:0:0:
281,54,84085,6,0,L|394:33,1,115.000002193451,4|2,3:1|3:2,0:0:0:0:
443,26,84835,2,0,L|423:139,1,115.000002193451,2|2,1:2|3:2,0:0:0:0:
411,188,85585,1,2,1:2:0:0:
354,270,86085,2,0,L|242:250,1,115.000002193451,6|2,1:2|1:2,0:0:0:0:
196,238,86835,1,0,3:2:0:0:
196,238,87085,1,6,1:2:0:0:
127,165,87585,1,6,1:2:0:0:
255,90,88335,6,0,B|353:72|353:72|254:54|254:54|181:69|181:69|108:55,1,350,4|0,0:1|0:2,0:0:0:0:
