osu file format v14

[General]
AudioFilename: audio.ogg
AudioLeadIn: 0
PreviewTime: 55585
Countdown: 0
SampleSet: Normal
StackLeniency: 0.7
Mode: 3
LetterboxInBreaks: 0
SpecialStyle: 0
WidescreenStoryboard: 1

[Editor]
DistanceSpacing: 0.5
BeatDivisor: 4
GridSize: 8
TimelineZoom: 1

[Metadata]
Title:After Rain (Cut Ver.)
TitleUnicode:After Rain (Cut Ver.)
Artist:Aimer
ArtistUnicode:Aimer
Creator:Paran
Version:Normal
Source:
Tags:FerdiXIA- after dark Aimerrhythm Kenji Tamai 玉井健二 釣俊輔 Komoda Shunsuke Tsuri japanese jpop pop DFCL-2046 Emi Fujimoto 藤本恵実
BeatmapID:3753775
BeatmapSetID:1764374

[Difficulty]
HPDrainRate:7.5
CircleSize:4
OverallDifficulty:7.5
ApproachRate:5
SliderMultiplier:1.4
SliderTickRate:1

[Events]
//Background and Video events
0,0,"After Rain.jpg",0,0
//Break Periods
//Storyboard Layer 0 (Background)
//Storyboard Layer 1 (Fail)
//Storyboard Layer 2 (Pass)
//Storyboard Layer 3 (Foreground)
//Storyboard Layer 4 (Overlay)
//Storyboard Sound Samples
Sample,71585,0,"normal-hitwhistle.wav",70

[TimingPoints]
335,500,4,1,1,70,1,0
56085,-100,4,1,1,70,0,1
88335,-100,4,1,1,70,0,0

[HitObjects]
64,192,335,128,0,585:0:0:0:0:
448,192,585,128,0,835:0:0:0:0:
320,192,1085,128,0,1585:0:0:0:0:
64,192,1585,128,0,1835:0:0:0:0:
448,192,2085,128,0,2335:0:0:0:0:
320,192,2585,128,0,2835:0:0:0:0:
192,192,3085,128,0,3335:0:0:0:0:
64,192,3585,128,0,3835:0:0:0:0:
320,192,3835,128,0,4085:0:0:0:0:
192,192,4085,128,0,4335:0:0:0:0:
448,192,4335,128,0,4585:0:0:0:0:
64,192,4585,128,0,4835:0:0:0:0:
192,192,5085,128,0,5585:0:0:0:0:
448,192,5585,128,0,5835:0:0:0:0:
64,192,6085,128,0,6335:0:0:0:0:
192,192,6585,128,0,6835:0:0:0:0:
320,192,7085,128,0,7335:0:0:0:0:
448,192,7585,128,0,7835:0:0:0:0:
192,192,7835,128,0,8085:0:0:0:0:
320,192,8085,128,0,8335:0:0:0:0:
64,192,8335,128,0,8585:0:0:0:0:
448,192,8585,128,0,8835:0:0:0:0:
320,192,9085,128,0,9585:0:0:0:0:
64,192,9585,128,0,9835:0:0:0:0:
448,192,10085,128,0,10335:0:0:0:0:
320,192,10585,128,0,10835:0:0:0:0:
192,192,11085,128,0,11335:0:0:0:0:
64,192,11585,128,0,11835:0:0:0:0:
320,192,11835,128,0,12085:0:0:0:0:
192,192,12085,128,0,12335:0:0:0:0:
448,192,12335,128,0,12585:0:0:0:0:
64,192,12585,128,0,12835:0:0:0:0:
192,192,13085,128,0,13585:0:0:0:0:
448,192,13585,128,0,13835:0:0:0:0:
64,192,14085,128,0,14335:0:0:0:0:
192,192,14585,128,0,14835:0:0:0:0:
320,192,15085,128,0,15335:0:0:0:0:
64,192,15585,1,0,0:0:0:0:
448,192,15585,1,8,0:0:0:0:
64,192,15835,1,0,0:0:0:0:
448,192,15835,1,8,0:0:0:0:
64,192,16085,1,0,0:0:0:0:
448,192,16085,1,8,0:0:0:0:
448,192,16335,1,4,0:0:0:0:
192,192,16335,1,0,0:0:0:0:
64,192,16335,1,2,0:0:0:0:
320,192,16585,128,0,16835:0:0:0:0:
448,192,16835,1,8,0:0:0:0:
64,192,16835,1,0,0:0:0:0:
320,192,17085,1,2,0:0:0:0:
192,192,17085,128,0,17585:0:0:0:0:
448,192,17585,128,0,17835:0:0:0:0:
320,192,17835,1,8,0:0:0:0:
64,192,17835,1,0,0:0:0:0:
448,192,18085,1,2,0:0:0:0:
64,192,18085,128,0,18335:0:0:0:0:
192,192,18585,128,0,18835:0:0:0:0:
320,192,18585,1,2,0:0:0:0:
448,192,18835,1,0,0:0:0:0:
64,192,18835,1,8,0:0:0:0:
320,192,19085,128,0,19335:0:0:0:0:
192,192,19085,1,2,0:0:0:0:
448,192,19585,128,0,19835:0:0:0:0:
64,192,19585,1,2,0:0:0:0:
320,192,19835,1,8,0:0:0:0:
192,192,19835,128,0,20085:0:0:0:0:
448,192,20085,128,0,20335:0:0:0:0:
64,192,20335,1,2,0:0:0:0:
320,192,20335,1,0,0:0:0:0:
192,192,20585,128,0,20835:0:0:0:0:
64,192,20835,1,0,0:0:0:0:
448,192,20835,1,8,0:0:0:0:
192,192,21085,1,2,0:0:0:0:
320,192,21085,128,0,21585:0:0:0:0:
64,192,21585,128,2,21835:0:0:0:0:
192,192,21835,1,8,0:0:0:0:
448,192,21835,1,0,0:0:0:0:
64,192,22085,1,2,0:0:0:0:
448,192,22085,128,0,22335:0:0:0:0:
320,192,22585,128,0,22835:0:0:0:0:
192,192,22585,1,2,0:0:0:0:
64,192,22835,1,0,0:0:0:0:
448,192,22835,1,8,0:0:0:0:
192,192,23085,128,0,23335:0:0:0:0:
320,192,23085,1,2,0:0:0:0:
64,192,23585,1,0,0:0:0:0:
448,192,23585,1,8,0:0:0:0:
64,192,23835,1,0,0:0:0:0:
448,192,23835,1,8,0:0:0:0:
64,192,24085,1,0,0:0:0:0:
448,192,24085,1,8,0:0:0:0:
64,192,24335,1,2,0:0:0:0:
448,192,24335,1,4,0:0:0:0:
320,192,24335,1,0,0:0:0:0:
192,192,24585,128,0,24835:0:0:0:0:
64,192,24835,1,0,0:0:0:0:
320,192,24835,1,8,0:0:0:0:
448,192,25085,128,0,25335:0:0:0:0:
192,192,25085,1,2,0:0:0:0:
320,192,25335,128,0,25585:0:0:0:0:
192,192,25585,128,0,25835:0:0:0:0:
64,192,25835,1,8,0:0:0:0:
448,192,25835,1,0,0:0:0:0:
448,192,26085,128,0,26835:0:0:0:0:
320,192,26085,1,2,0:0:0:0:
192,192,26585,1,2,0:0:0:0:
320,192,26835,1,8,0:0:0:0:
64,192,26835,1,0,0:0:0:0:
64,192,27085,128,0,27585:0:0:0:0:
192,192,27085,1,2,0:0:0:0:
448,192,27585,1,2,0:0:0:0:
320,192,27585,128,0,27835:0:0:0:0:
192,192,27835,128,0,28085:0:0:0:0:
64,192,27835,1,8,0:0:0:0:
448,192,28335,1,2,0:0:0:0:
64,192,28335,1,0,0:0:0:0:
320,192,28585,128,0,28835:0:0:0:0:
192,192,28835,1,8,0:0:0:0:
448,192,28835,1,0,0:0:0:0:
64,192,29085,128,0,29335:0:0:0:0:
320,192,29085,1,2,0:0:0:0:
192,192,29335,128,0,29585:0:0:0:0:
320,192,29585,128,2,29835:0:0:0:0:
64,192,29835,1,0,0:0:0:0:
448,192,29835,1,8,0:0:0:0:
64,192,30085,128,0,30835:0:0:0:0:
192,192,30085,1,2,0:0:0:0:
320,192,30585,1,2,0:0:0:0:
192,192,30835,1,8,0:0:0:0:
448,192,30835,1,0,0:0:0:0:
448,192,31085,128,0,31585:0:0:0:0:
320,192,31085,1,2,0:0:0:0:
64,192,31585,1,0,0:0:0:0:
192,192,31585,1,2,0:0:0:0:
448,192,31835,1,8,0:0:0:0:
64,192,31835,1,0,0:0:0:0:
448,192,32085,1,8,0:0:0:0:
64,192,32085,1,0,0:0:0:0:
448,192,32335,1,0,0:0:0:0:
320,192,32335,1,2,0:0:0:0:
192,192,32585,128,0,32835:0:0:0:0:
64,192,32835,1,8,0:0:0:0:
320,192,32835,1,0,0:0:0:0:
448,192,33085,128,0,33335:0:0:0:0:
192,192,33085,1,2,0:0:0:0:
320,192,33335,128,0,33585:0:0:0:0:
192,192,33585,128,0,33835:0:0:0:0:
448,192,33835,1,8,0:0:0:0:
64,192,33835,1,0,0:0:0:0:
448,192,34085,128,0,34835:0:0:0:0:
320,192,34085,1,2,0:0:0:0:
192,192,34585,1,2,0:0:0:0:
320,192,34835,1,8,0:0:0:0:
64,192,34835,1,0,0:0:0:0:
64,192,35085,128,0,35585:0:0:0:0:
192,192,35085,1,2,0:0:0:0:
320,192,35585,128,0,35835:0:0:0:0:
448,192,35585,1,2,0:0:0:0:
192,192,35835,128,0,36085:0:0:0:0:
64,192,35835,1,8,0:0:0:0:
448,192,36335,1,2,0:0:0:0:
64,192,36335,1,0,0:0:0:0:
320,192,36585,128,0,36835:0:0:0:0:
448,192,36835,1,0,0:0:0:0:
192,192,36835,1,8,0:0:0:0:
64,192,37085,128,0,37335:0:0:0:0:
320,192,37085,1,2,0:0:0:0:
192,192,37335,128,0,37585:0:0:0:0:
320,192,37585,128,2,37835:0:0:0:0:
64,192,37835,1,0,0:0:0:0:
448,192,37835,1,8,0:0:0:0:
64,192,38085,128,0,38835:0:0:0:0:
192,192,38085,1,2,0:0:0:0:
320,192,38585,1,2,0:0:0:0:
192,192,38835,1,8,0:0:0:0:
448,192,38835,1,0,0:0:0:0:
448,192,39085,128,0,39585:0:0:0:0:
320,192,39085,1,2,0:0:0:0:
64,192,39585,1,0,0:0:0:0:
192,192,39585,1,8,0:0:0:0:
192,192,39835,1,8,0:0:0:0:
64,192,39835,1,0,0:0:0:0:
448,192,40085,1,0,0:0:0:0:
320,192,40085,1,0,0:0:0:70:drum roll.wav
192,192,40210,1,0,0:0:0:70:drum roll.wav
448,192,40335,1,4,0:0:0:0:
64,192,40335,1,2,0:0:0:0:
192,192,40585,128,0,40835:0:0:0:0:
320,192,40835,1,8,0:0:0:0:
448,192,40835,1,0,0:0:0:0:
64,192,41085,128,0,41585:0:0:0:0:
192,192,41335,1,2,0:0:0:0:
320,192,41585,128,0,41835:0:0:0:0:
448,192,41585,1,2,0:0:0:0:
192,192,41835,1,8,0:0:0:0:
64,192,41835,1,0,0:0:0:0:
320,192,42085,1,2,0:0:0:0:
448,192,42085,128,0,42335:0:0:0:0:
64,192,42335,1,0,0:0:0:0:
448,192,42585,128,0,42835:0:0:0:0:
320,192,42585,1,2,0:0:0:0:
192,192,42835,1,0,0:0:0:0:
64,192,42835,1,8,0:0:0:0:
320,192,43335,1,2,0:0:0:0:
448,192,43335,1,0,0:0:0:0:
448,192,43585,1,0,0:0:0:0:
320,192,43585,1,2,0:0:0:0:
64,192,43835,1,0,0:0:0:0:
192,192,43835,1,8,0:0:0:0:
320,192,44085,1,0,0:0:0:0:
64,192,44335,1,2,0:0:0:0:
448,192,44335,128,0,44585:0:0:0:0:
320,192,44585,128,0,44835:0:0:0:0:
64,192,44835,1,0,0:0:0:0:
192,192,44835,1,8,0:0:0:0:
448,192,45085,128,0,45585:0:0:0:0:
320,192,45335,1,2,0:0:0:0:
64,192,45585,1,2,0:0:0:0:
192,192,45585,128,0,45835:0:0:0:0:
320,192,45835,1,8,0:0:0:0:
448,192,45835,1,0,0:0:0:0:
64,192,46085,1,2,0:0:0:0:
192,192,46085,1,0,0:0:0:0:
320,192,46335,1,0,0:0:0:0:
64,192,46585,1,0,0:0:0:0:
192,192,46585,1,2,0:0:0:0:
320,192,46835,1,0,0:0:0:0:
448,192,46835,1,8,0:0:0:0:
64,192,47085,1,0,0:0:0:0:
192,192,47335,1,0,0:0:0:0:
320,192,47335,1,2,0:0:0:0:
320,192,47585,1,2,0:0:0:0:
192,192,47585,1,0,0:0:0:0:
448,192,47835,1,0,0:0:0:0:
64,192,47835,1,8,0:0:0:0:
64,192,48085,1,8,0:0:0:0:
448,192,48085,1,0,0:0:0:0:
64,192,48335,1,4,0:0:0:0:
192,192,48335,1,0,0:0:0:0:
448,192,48335,1,2,0:0:0:0:
320,192,48585,128,0,48835:0:0:0:0:
192,192,48835,1,8,0:0:0:0:
64,192,48835,1,0,0:0:0:0:
448,192,49085,128,0,49585:0:0:0:0:
320,192,49335,1,2,0:0:0:0:
192,192,49585,128,0,49835:0:0:0:0:
64,192,49585,1,2,0:0:0:0:
320,192,49835,1,8,0:0:0:0:
448,192,49835,1,0,0:0:0:0:
192,192,50085,1,2,0:0:0:0:
64,192,50085,128,0,50335:0:0:0:0:
448,192,50335,1,0,0:0:0:0:
64,192,50585,128,0,50835:0:0:0:0:
192,192,50585,1,2,0:0:0:0:
320,192,50835,1,0,0:0:0:0:
448,192,50835,1,8,0:0:0:0:
192,192,51335,1,2,0:0:0:0:
64,192,51335,1,0,0:0:0:0:
192,192,51585,1,2,0:0:0:0:
64,192,51585,1,0,0:0:0:0:
448,192,51835,1,0,0:0:0:0:
320,192,51835,1,8,0:0:0:0:
192,192,52085,1,0,0:0:0:70:drum roll.wav
64,192,52085,1,0,0:0:0:0:
320,192,52210,1,0,0:0:0:70:drum roll.wav
448,192,52335,1,4,0:0:0:0:
64,192,52335,1,2,0:0:0:0:
192,192,52585,1,0,0:0:0:0:
320,192,52835,1,8,0:0:0:0:
448,192,52835,1,0,0:0:0:0:
64,192,53085,1,0,0:0:0:0:
192,192,53335,1,2,0:0:0:0:
320,192,53335,1,0,0:0:0:0:
192,192,53585,1,0,0:0:0:0:
320,192,53585,1,2,0:0:0:0:
64,192,53835,1,0,0:0:0:0:
448,192,53835,1,8,0:0:0:0:
448,192,54085,1,0,0:0:0:0:
192,192,54085,1,4,0:0:0:0:
64,192,54085,1,2,0:0:0:0:
448,192,54585,1,8,0:0:0:0:
64,192,54585,1,0,0:0:0:0:
448,192,54835,1,8,0:0:0:0:
64,192,54835,1,0,0:0:0:0:
448,192,55085,1,0,0:0:0:0:
320,192,55085,1,8,0:0:0:0:
64,192,55085,1,0,0:0:0:0:
64,192,56085,1,2,0:0:0:0:
448,192,56085,1,4,0:0:0:0:
192,192,56085,1,0,0:0:0:0:
320,192,56585,1,0,0:0:0:0:
448,192,56835,1,0,0:0:0:0:
64,192,56835,1,8,0:0:0:0:
192,192,57085,1,0,0:0:0:0:
64,192,57335,1,0,0:0:0:0:
320,192,57335,1,2,0:0:0:0:
192,192,57585,1,2,0:0:0:0:
448,192,57585,1,0,0:0:0:0:
448,192,57835,1,8,0:0:0:0:
64,192,57835,1,0,0:0:0:0:
320,192,58085,1,0,0:0:0:0:
448,192,58335,1,0,0:0:0:0:
192,192,58335,1,2,0:0:0:0:
64,192,58585,1,2,0:0:0:0:
320,192,58585,1,0,0:0:0:0:
448,192,58835,1,8,0:0:0:0:
64,192,58835,1,0,0:0:0:0:
192,192,59085,1,2,0:0:0:0:
320,192,59085,1,0,0:0:0:0:
448,192,59335,1,0,0:0:0:0:
192,192,59585,1,2,0:0:0:0:
64,192,59585,1,0,0:0:0:0:
448,192,59835,1,8,0:0:0:0:
320,192,59835,1,0,0:0:0:0:
64,192,60085,1,0,0:0:0:0:
192,192,60085,1,2,0:0:0:0:
320,192,60335,1,0,0:0:0:0:
64,192,60585,1,0,0:0:0:0:
448,192,60585,1,2,0:0:0:0:
320,192,60835,1,0,0:0:0:0:
192,192,60835,1,8,0:0:0:0:
64,192,61085,1,0,0:0:0:0:
192,192,61335,1,2,0:0:0:0:
448,192,61335,1,0,0:0:0:0:
320,192,61585,1,2,0:0:0:0:
64,192,61585,1,0,0:0:0:0:
448,192,61835,1,0,0:0:0:0:
64,192,61835,1,8,0:0:0:0:
192,192,62085,1,0,0:0:0:0:
320,192,62335,1,2,0:0:0:0:
64,192,62335,1,0,0:0:0:0:
448,192,62585,1,0,0:0:0:0:
192,192,62585,1,2,0:0:0:0:
64,192,62835,1,8,0:0:0:0:
448,192,62835,1,0,0:0:0:0:
320,192,63085,1,2,0:0:0:0:
192,192,63085,1,0,0:0:0:0:
448,192,63585,128,0,63835:0:0:0:0:
192,192,63585,1,2,0:0:0:0:
320,192,63835,128,0,64085:0:0:0:0:
64,192,63835,1,8,0:0:0:0:
192,192,64085,128,4,64335:0:0:0:0:
448,192,64085,1,2,0:0:0:0:
64,192,64585,128,0,64835:0:0:0:0:
448,192,64585,1,2,0:0:0:0:
320,192,64835,128,0,65085:0:0:0:0:
192,192,64835,1,8,0:0:0:0:
448,192,65085,128,0,65335:0:0:0:0:
192,192,65335,128,0,65835:0:0:0:0:
64,192,65335,1,2,0:0:0:0:
320,192,65585,1,2,0:0:0:0:
448,192,65835,1,0,0:0:0:0:
64,192,65835,1,8,0:0:0:0:
320,192,66085,128,0,66335:0:0:0:0:
192,192,66335,1,2,0:0:0:0:
64,192,66335,1,0,0:0:0:0:
192,192,66585,128,0,66835:0:0:0:0:
64,192,66585,1,2,0:0:0:0:
320,192,66835,1,0,0:0:0:0:
448,192,66835,1,8,0:0:0:0:
192,192,67085,1,2,0:0:0:0:
64,192,67085,128,0,67585:0:0:0:0:
448,192,67585,128,0,67835:0:0:0:0:
320,192,67585,1,2,0:0:0:0:
192,192,67835,1,8,0:0:0:0:
64,192,67835,1,0,0:0:0:0:
320,192,68085,1,0,0:0:0:0:
64,192,68335,1,2,0:0:0:0:
448,192,68335,1,0,0:0:0:0:
192,192,68585,1,0,0:0:0:0:
448,192,68835,1,0,0:0:0:0:
320,192,68835,1,8,0:0:0:0:
320,192,69335,1,0,0:0:0:0:
192,192,69335,1,2,0:0:0:0:
192,192,69585,1,2,0:0:0:0:
320,192,69585,1,0,0:0:0:0:
64,192,69835,1,8,0:0:0:0:
448,192,69835,1,0,0:0:0:0:
448,192,70085,1,4,0:0:0:0:
64,192,70085,1,2,0:0:0:0:
192,192,70085,128,0,71085:0:0:0:0:
320,192,70585,1,8,0:0:0:0:
320,192,70835,1,8,0:0:0:0:
64,192,71085,1,2,0:0:0:0:
448,192,71085,128,4,71335:0:0:0:0:
64,192,71585,1,0,0:0:0:70:drum roll.wav
192,192,71710,1,0,0:0:0:70:drum roll.wav
320,192,71835,1,0,0:0:0:70:drum roll.wav
448,192,71960,1,0,0:0:0:70:drum roll.wav
64,192,72085,1,2,0:0:0:0:
192,192,72085,1,4,0:0:0:0:
192,192,72585,1,0,0:0:0:0:
320,192,72585,1,2,0:0:0:0:
64,192,72835,1,0,0:0:0:0:
448,192,72835,1,8,0:0:0:0:
320,192,73085,1,0,0:0:0:0:
192,192,73335,1,0,0:0:0:0:
448,192,73335,1,2,0:0:0:0:
320,192,73585,1,2,0:0:0:0:
64,192,73585,1,0,0:0:0:0:
64,192,73835,1,0,0:0:0:0:
448,192,73835,1,8,0:0:0:0:
192,192,74085,1,0,0:0:0:0:
64,192,74335,1,0,0:0:0:0:
320,192,74335,1,2,0:0:0:0:
448,192,74585,1,2,0:0:0:0:
192,192,74585,1,0,0:0:0:0:
64,192,74835,1,8,0:0:0:0:
448,192,74835,1,0,0:0:0:0:
192,192,75085,1,2,0:0:0:0:
320,192,75085,1,0,0:0:0:0:
64,192,75335,1,0,0:0:0:0:
320,192,75585,1,2,0:0:0:0:
448,192,75585,1,0,0:0:0:0:
64,192,75835,1,0,0:0:0:0:
192,192,75835,1,8,0:0:0:0:
448,192,76085,1,2,0:0:0:0:
320,192,76085,1,0,0:0:0:0:
192,192,76335,1,0,0:0:0:0:
64,192,76585,1,0,0:0:0:0:
448,192,76585,1,2,0:0:0:0:
320,192,76835,1,0,0:0:0:0:
192,192,76835,1,8,0:0:0:0:
448,192,77085,1,0,0:0:0:0:
320,192,77335,1,2,0:0:0:0:
64,192,77335,1,0,0:0:0:0:
448,192,77585,1,2,0:0:0:0:
192,192,77585,1,0,0:0:0:0:
64,192,77835,1,8,0:0:0:0:
448,192,77835,1,0,0:0:0:0:
320,192,78085,1,0,0:0:0:0:
192,192,78335,1,2,0:0:0:0:
448,192,78335,1,0,0:0:0:0:
64,192,78585,1,0,0:0:0:0:
320,192,78585,1,2,0:0:0:0:
448,192,78835,1,0,0:0:0:0:
64,192,78835,1,8,0:0:0:0:
320,192,79085,1,0,0:0:0:0:
192,192,79085,1,2,0:0:0:0:
64,192,79585,128,0,79835:0:0:0:0:
320,192,79585,1,2,0:0:0:0:
192,192,79835,128,0,80085:0:0:0:0:
448,192,79835,1,8,0:0:0:0:
320,192,80085,128,2,80335:0:0:0:0:
64,192,80085,1,4,0:0:0:0:
448,192,80585,128,0,80835:0:0:0:0:
64,192,80585,1,2,0:0:0:0:
192,192,80835,128,0,81085:0:0:0:0:
320,192,80835,1,8,0:0:0:0:
64,192,81085,128,0,81335:0:0:0:0:
320,192,81335,128,0,81835:0:0:0:0:
448,192,81335,1,2,0:0:0:0:
192,192,81585,1,2,0:0:0:0:
64,192,81835,1,8,0:0:0:0:
448,192,81835,1,0,0:0:0:0:
192,192,82085,128,0,82335:0:0:0:0:
320,192,82335,1,0,0:0:0:0:
448,192,82335,1,2,0:0:0:0:
320,192,82585,128,0,82835:0:0:0:0:
448,192,82585,1,2,0:0:0:0:
192,192,82835,1,0,0:0:0:0:
64,192,82835,1,8,0:0:0:0:
320,192,83085,1,2,0:0:0:0:
448,192,83085,128,0,83585:0:0:0:0:
64,192,83585,128,0,83835:0:0:0:0:
192,192,83585,1,2,0:0:0:0:
320,192,83835,1,8,0:0:0:0:
448,192,83835,1,0,0:0:0:0:
448,192,84085,1,4,0:0:0:0:
64,192,84085,1,2,0:0:0:0:
192,192,84085,1,0,0:0:0:0:
320,192,84585,1,2,0:0:0:0:
448,192,84585,1,0,0:0:0:0:
64,192,84835,1,8,0:0:0:0:
192,192,84835,1,0,0:0:0:0:
192,192,85335,1,0,0:0:0:0:
320,192,85335,1,2,0:0:0:0:
448,192,85585,1,0,0:0:0:0:
64,192,85585,1,8,0:0:0:0:
448,192,85835,1,0,0:0:0:0:
64,192,85835,1,8,0:0:0:0:
64,192,86085,1,2,0:0:0:0:
448,192,86085,1,4,0:0:0:0:
320,192,86085,128,0,87085:0:0:0:0:
192,192,86585,1,8,0:0:0:0:
192,192,86835,1,8,0:0:0:0:
448,192,87085,1,2,0:0:0:0:
64,192,87085,128,0,87335:0:0:0:0:
192,192,87335,1,0,0:0:0:0:
320,192,87585,1,4,0:0:0:0:
64,192,87585,1,2,0:0:0:0:
448,192,87585,128,0,88085:0:0:0:0:
64,192,88335,1,2,0:0:0:0:
192,192,88335,1,0,0:0:0:0:
448,192,88335,1,4,0:0:0:0:
