osu file format v14

[General]
AudioFilename: audio.mp3
AudioLeadIn: 0
PreviewTime: 60626
Countdown: 0
SampleSet: Soft
StackLeniency: 0.7
Mode: 0
LetterboxInBreaks: 0
WidescreenStoryboard: 0

[Editor]
Bookmarks: 15395,90972,92933,153856,164933,230472
DistanceSpacing: 1.2
BeatDivisor: 4
GridSize: 4
TimelineZoom: 1

[Metadata]
Title:I will show you
TitleUnicode:보여줄게
Artist:Ailee
ArtistUnicode:에일리
Creator:Nekomata
Version:Insane
Source:
Tags:kpop invitation ymc loen
BeatmapID:1987796
BeatmapSetID:951901

[Difficulty]
HPDrainRate:6
CircleSize:4
OverallDifficulty:6
ApproachRate:8
SliderMultiplier:1.2
SliderTickRate:1

[Events]
//Background and Video events
0,0,"bg.jpg",0,0
//Break Periods
//Storyboard Layer 0 (Background)
//Storyboard Layer 1 (Fail)
//Storyboard Layer 2 (Pass)
//Storyboard Layer 3 (Foreground)
//Storyboard Sound Samples

[TimingPoints]
626,461.538461538462,4,2,0,65,1,0
15395,-133.333333333333,4,2,0,25,0,0
44933,-90.9090909090909,4,2,0,65,0,0
61549,-83.3333333333333,4,2,0,65,0,1
91087,-90.9090909090909,4,2,0,65,0,0
124318,-83.3333333333333,4,2,0,65,0,1
152010,-100,4,2,0,65,0,0
164933,-90.9090909090909,4,2,0,65,0,0
174164,-83.3333333333333,4,2,0,65,0,1
203702,-83.3333333333333,4,2,0,65,0,0
211087,-90.9090909090909,4,2,0,65,0,0

[HitObjects]
100,135,15395,6,0,P|123:126|146:124,1,45.0000017166138
227,206,15856,2,0,P|204:203|183:194,1,45.0000017166138
246,295,16318,2,0,P|286:276|314:183,1,135.000005149841
259,126,17241,5,0,0:0:0:0:
391,150,17702,1,0,0:0:0:0:
179,227,18164,1,0,0:0:0:0:
179,227,19087,6,0,L|172:182,1,45.0000017166138
284,219,19549,2,0,L|277:264,1,45.0000017166138
245,138,20010,2,0,P|302:131|366:180,1,135.000005149841
392,259,20933,5,0,0:0:0:0:
439,132,21395,1,0,0:0:0:0:
266,276,21856,1,0,0:0:0:0:
266,276,22779,6,0,L|223:293,1,45.0000017166138
161,241,23241,2,0,L|113:232,1,45.0000017166138
102,153,23702,2,0,L|39:87,1,90.0000034332276
78,16,24395,1,0,0:0:0:0:
78,16,24626,6,0,P|99:25|124:30,1,45.0000017166138
200,14,25087,1,0,0:0:0:0:
158,99,25318,2,0,P|205:111|290:105,1,135.000005149841
441,316,26472,6,0,P|400:295|313:283,1,135.000005149841
112,361,27395,2,0,P|177:339|244:345,1,135.000005149841
321,364,28318,6,0,P|362:339|387:303,1,90.0000034332276
397,225,29010,1,0,0:0:0:0:
364,151,29241,1,0,0:0:0:0:
323,256,29472,1,0,0:0:0:0:
397,225,29702,2,0,P|422:217|443:217,1,45.0000017166138
323,256,30164,6,0,P|298:264|277:264,1,45.0000017166138
208,225,30626,1,0,0:0:0:0:
211,306,30856,1,0,0:0:0:0:
131,208,31087,2,0,P|136:180|168:128,1,90.0000034332276
241,76,31779,1,0,0:0:0:0:
241,76,32010,6,0,P|258:88|280:97,1,45.0000017166138
393,131,32472,2,0,P|376:143|354:152,1,45.0000017166138
278,201,32933,1,0,0:0:0:0:
278,201,33395,2,0,L|319:228,1,45.0000017166138
260,285,33856,5,0,0:0:0:0:
199,231,34087,1,0,0:0:0:0:
260,285,34318,1,0,0:0:0:0:
128,259,34549,2,0,P|106:227|92:131,1,135.000005149841
135,55,35472,1,0,0:0:0:0:
141,58,35587,1,0,0:0:0:0:
146,62,35702,6,0,P|167:66|191:68,1,45.0000017166138
349,106,36164,2,0,P|328:110|304:112,1,45.0000017166138
185,222,36626,2,0,P|199:196|203:177,1,45.0000017166138
295,267,37087,2,0,P|281:293|277:312,1,45.0000017166138
356,353,37549,5,0,0:0:0:0:
429,301,37779,1,0,0:0:0:0:
450,214,38010,1,0,0:0:0:0:
430,125,38241,2,0,P|403:102|306:76,1,135.000005149841
201,304,39395,5,0,0:0:0:0:
123,259,39626,1,0,0:0:0:0:
84,178,39856,1,0,0:0:0:0:
89,88,40087,2,0,P|111:66|206:32,1,135.000005149841
299,130,41241,6,0,P|326:149|363:161,2,67.5000025749207
419,93,42164,2,0,P|448:152|429:221,1,135.000005149841
342,284,43087,6,0,P|308:268|166:268,1,180.000006866455
82,162,44472,2,0,L|61:212,1,45.0000017166138
188,156,44933,6,0,P|217:140|253:133,1,66.0000020141602
347,143,45395,1,0,0:0:0:0:
322,239,45626,1,0,0:0:0:0:
419,255,45856,2,0,P|448:236|486:146,1,132.00000402832
322,239,46549,1,0,0:0:0:0:
322,239,46779,6,0,P|327:273|337:307,1,66.0000020141602
248,178,47241,2,0,P|240:216|198:301,1,132.00000402832
199,299,48164,1,0,0:0:0:0:
105,265,48395,1,0,0:0:0:0:
100,256,48510,1,0,0:0:0:0:
97,246,48626,6,0,P|91:211|94:180,1,66.0000020141602
204,58,49087,2,0,P|210:93|207:124,1,66.0000020141602
185,220,49549,1,0,0:0:0:0:
93,180,49779,1,0,0:0:0:0:
185,220,50010,1,0,0:0:0:0:
282,201,50241,1,0,0:0:0:0:
211,312,50472,6,0,P|173:338|88:351,2,132.00000402832
322,148,51856,1,0,0:0:0:0:
350,242,52087,1,0,0:0:0:0:
350,242,52318,6,0,P|384:225|404:201,1,66.0000020141602
441,44,52779,2,0,P|407:61|387:85,1,66.0000020141602
402,204,53241,2,0,P|407:258|379:330,1,132.00000402832
289,371,53933,1,0,0:0:0:0:
289,371,54164,6,0,P|253:348|230:343,1,66.0000020141602
104,302,54626,2,0,P|156:264|221:246,1,132.00000402832
413,292,55549,1,0,0:0:0:0:
331,347,55779,1,0,0:0:0:0:
322,351,55895,1,0,0:0:0:0:
313,355,56010,6,0,L|216:339,2,99.0000030212403
367,249,56933,2,0,L|464:233,2,99.0000030212403
255,192,57856,5,0,0:0:0:0:
255,159,59933,5,0,0:0:0:0:
255,159,60164,5,0,0:0:0:0:
276,166,60279,1,0,0:0:0:0:
292,182,60395,1,0,0:0:0:0:
302,202,60510,1,0,0:0:0:0:
305,224,60626,5,0,0:0:0:0:
286,251,60741,1,0,0:0:0:0:
256,265,60856,1,0,0:0:0:0:
222,263,60972,1,0,0:0:0:0:
194,245,61087,6,0,L|171:210,1,33.0000010070801
182,138,61318,2,0,L|195:106,1,33.0000010070801
258,56,61549,6,0,P|307:58|362:80,1,107.999996704102
386,105,62010,2,0,P|423:93|455:92,1,71.9999978027344
336,203,62472,2,0,P|287:203|227:221,1,107.999996704102
200,238,62933,2,0,P|161:223|129:222,1,71.9999978027344
50,294,63395,6,0,P|23:240|44:157,1,143.999995605469
131,68,64087,1,0,0:0:0:0:
243,134,64318,1,0,0:0:0:0:
313,25,64549,1,0,0:0:0:0:
243,134,64779,1,0,0:0:0:0:
131,68,65010,1,0,0:0:0:0:
241,254,65241,6,0,P|286:264|351:258,1,107.999996704102
381,249,65702,2,0,P|408:272|443:285,1,71.9999978027344
225,346,66164,2,0,P|171:353|119:347,1,107.999996704102
85,331,66626,2,0,P|82:298|66:262,1,71.9999978027344
34,158,67087,6,0,P|73:173|175:178,1,143.999995605469
280,103,67779,1,0,0:0:0:0:
181,18,68010,1,0,0:0:0:0:
280,103,68241,1,0,0:0:0:0:
384,26,68472,1,0,0:0:0:0:
397,66,68587,1,0,0:0:0:0:
403,108,68702,1,0,0:0:0:0:
402,151,68818,1,0,0:0:0:0:
394,193,68933,6,0,P|371:225|346:247,1,71.9999978027344
203,262,69395,2,0,P|226:294|251:316,1,71.9999978027344
250,150,69856,2,0,P|202:142|142:155,1,107.999996704102
105,173,70318,2,0,P|75:149|56:121,1,71.9999978027344
99,22,70779,5,0,0:0:0:0:
105,173,71010,1,0,0:0:0:0:
226,82,71241,1,0,0:0:0:0:
280,223,71472,1,0,0:0:0:0:
391,121,71702,2,0,P|419:149|440:219,1,107.999996704102
437,256,72164,2,0,P|399:267|367:289,1,71.9999978027344
273,369,72626,6,0,P|236:366|197:351,1,71.9999978027344
134,301,72972,2,0,P|160:278|195:267,1,71.9999978027344
264,203,73318,2,0,P|190:185|139:142,1,143.999995605469
79,52,74010,2,0,P|114:49|149:36,1,71.9999978027344
278,18,74472,5,0,0:0:0:0:
353,95,74702,1,0,0:0:0:0:
332,201,74933,1,0,0:0:0:0:
461,132,75164,5,0,0:0:0:0:
409,267,75395,1,0,0:0:0:0:
265,287,75626,1,0,0:0:0:0:
332,201,75856,5,0,0:0:0:0:
289,210,75972,1,0,0:0:0:0:
246,206,76087,1,0,0:0:0:0:
207,187,76202,1,0,0:0:0:0:
178,153,76318,6,0,P|165:112|178:44,1,107.999996704102
200,14,76779,2,0,P|226:35|262:48,1,71.9999978027344
424,34,77241,2,0,P|432:80|414:144,1,107.999996704102
391,173,77702,2,0,P|355:162|321:161,1,71.9999978027344
171,264,78164,6,0,P|201:303|286:343,1,143.999995605469
366,313,78856,1,0,0:0:0:0:
411,138,79087,1,0,0:0:0:0:
471,308,79318,1,0,0:0:0:0:
324,204,79549,1,0,0:0:0:0:
503,196,79779,1,0,0:0:0:0:
366,313,80010,6,0,P|328:321|258:315,1,107.999996704102
229,283,80472,2,0,P|187:263|158:259,1,71.9999978027344
27,348,80933,2,0,P|8:304|3:230,1,107.999996704102
21,206,81395,2,0,P|60:215|91:214,1,71.9999978027344
221,117,81856,6,0,P|246:161|248:254,1,143.999995605469
209,330,82549,1,0,0:0:0:0:
344,201,82779,1,0,0:0:0:0:
209,330,83010,1,0,0:0:0:0:
92,184,83241,1,0,0:0:0:0:
88,141,83356,1,0,0:0:0:0:
97,98,83472,1,0,0:0:0:0:
121,62,83587,1,0,0:0:0:0:
155,36,83702,6,0,P|191:26|228:26,1,71.9999978027344
371,145,84164,2,0,P|335:135|298:135,1,71.9999978027344
146,242,84626,2,0,P|181:234|254:239,1,107.999996704102
291,257,85087,1,0,0:0:0:0:
128,350,85318,1,0,0:0:0:0:
291,257,85549,5,0,0:0:0:0:
128,350,85779,1,0,0:0:0:0:
38,185,86010,1,0,0:0:0:0:
201,93,86241,1,0,0:0:0:0:
291,257,86472,2,0,P|325:280|393:298,1,107.999996704102
428,280,86933,2,0,P|419:244|420:208,1,71.9999978027344
480,94,87395,6,0,P|446:79|412:71,1,71.9999978027344
350,123,87741,2,0,P|317:126|275:124,1,71.9999978027344
211,78,88087,2,0,L|196:120,1,35.9999989013672
173,189,88318,2,0,P|134:159|131:69,1,143.999995605469
187,5,89010,1,0,0:0:0:0:
283,166,89241,5,0,0:0:0:0:
390,181,89472,1,0,0:0:0:0:
474,114,89702,1,0,0:0:0:0:
319,254,89933,5,0,0:0:0:0:
179,220,90164,1,0,0:0:0:0:
135,83,90395,1,0,0:0:0:0:
319,254,90626,5,0,0:0:0:0:
298,291,90741,1,0,0:0:0:0:
266,320,90856,1,0,0:0:0:0:
226,338,90972,1,0,0:0:0:0:
