osu file format v14

[General]
AudioFilename: audio.mp3
AudioLeadIn: 0
PreviewTime: -1
Countdown: 1
SampleSet: None
StackLeniency: 0.7
Mode: 0
LetterboxInBreaks: 0
WidescreenStoryboard: 0

[Editor]
DistanceSpacing: 1
BeatDivisor: 4
GridSize: 4
TimelineZoom: 1

[Metadata]
Title:I will Show You (Instramental)
TitleUnicode:I will Show You (Instramental)
Artist:Ailee
ArtistUnicode:Ailee
Creator:Nitronic Techno
Version:Insane
Source:
Tags:I will Show You Ailee Kpop KPOP kpop K-POP k-pop Korean Pop Instramental Karaoke
BeatmapID:1347909
BeatmapSetID:635212

[Difficulty]
HPDrainRate:7.2
CircleSize:4.1
OverallDifficulty:7
ApproachRate:8.7
SliderMultiplier:1.9
SliderTickRate:1

[Events]
//Background and Video events
0,0,"maxresdefault.jpg",0,0
//Break Periods
2,153717,163949
//Storyboard Layer 0 (Background)
//Storyboard Layer 1 (Fail)
//Storyboard Layer 2 (Pass)
//Storyboard Layer 3 (Foreground)
//Storyboard Sound Samples

[TimingPoints]
288,923.076923076923,4,2,0,40,1,0
15057,-100,4,2,0,40,0,0
22441,-142.857142857143,4,2,0,40,0,0
29826,-100,4,2,0,50,0,0
37211,-125,4,2,0,50,0,0
44134,-105.263157894737,4,2,0,55,0,0
44595,-90.9090909090909,4,2,0,65,0,0
59364,461.538461538462,4,1,0,65,1,0
61210,-83.3333333333333,4,1,0,65,0,1
90748,-83.3333333333333,4,1,0,65,0,0
92594,-90.9090909090909,4,1,0,70,0,0
107364,-86.9565217391304,4,1,0,70,0,0
122133,-200,4,1,0,70,0,0
123517,-100,4,1,0,70,0,0
123979,-83.3333333333333,4,1,0,70,0,1
153517,-100,4,1,0,30,0,0
171979,-83.3333333333333,4,1,0,70,0,0
173825,-76.9230769230769,4,1,0,80,0,1
203364,-100,4,1,0,80,0,0

[HitObjects]
70,61,15057,5,2,0:0:0:0:
172,120,15288,2,0,L|184:183,1,47.5
250,247,15749,1,0,0:0:0:0:
350,309,15980,2,0,P|410:317|478:248,1,142.5,2|0,0:0|0:0,0:0:0:0:
437,202,16903,1,2,0:0:0:0:
270,191,17134,1,0,0:0:0:0:
424,130,17364,1,0,0:0:0:0:
88,254,17826,1,2,0:0:0:0:
199,295,18749,6,0,L|193:233,1,47.5,2|0,0:0|0:0,0:0:0:0:
261,94,19211,2,0,L|281:169,1,47.5
436,171,19672,2,0,P|408:240|330:245,1,142.5,2|0,0:0|0:0,0:0:0:0:
198,325,20595,1,2,0:0:0:0:
256,169,20826,1,0,0:0:0:0:
312,325,21057,1,0,0:0:0:0:
151,245,21518,1,2,0:0:0:0:
361,139,21980,1,0,0:0:0:0:
145,52,22441,5,2,0:0:0:0:
66,193,22672,1,0,0:0:0:0:
145,332,22903,1,0,0:0:0:0:
221,192,23134,1,0,0:0:0:0:
336,191,23364,2,0,P|399:160|401:153,1,66.4999979705811,2|0,0:0|0:0,0:0:0:0:
403,99,24057,1,0,0:0:0:0:
403,99,24288,5,2,0:0:0:0:
255,57,24518,1,0,0:0:0:0:
109,99,24749,1,0,0:0:0:0:
257,141,24979,1,0,0:0:0:0:
256,222,25211,2,0,P|241:263|254:297,1,66.4999979705811,2|0,0:0|0:0,0:0:0:0:
471,342,26134,6,0,P|443:285|435:276,1,66.4999979705811,2|0,0:0|0:0,0:0:0:0:
354,206,26826,1,0,0:0:0:0:
354,206,27057,2,0,P|311:236|247:234,1,99.7499969558717,2|0,0:0|0:0,0:0:0:0:
148,242,27980,2,0,L|123:258,2,16.6249994926453,2|0|0,0:0|0:0|0:0,0:0:0:0:
280,50,28672,6,0,L|266:102,1,33.2499989852906,2|2,0:0|0:0,0:0:0:0:
175,149,29134,2,0,L|199:95,1,33.2499989852906,2|2,0:0|0:0,0:0:0:0:
503,280,29826,6,0,L|450:280,1,47.5,2|0,0:0|0:0,0:0:0:0:
288,281,30288,2,0,L|347:281,1,47.5
396,192,30749,1,8,0:0:0:0:
255,101,30980,1,0,0:0:0:0:
116,192,31211,1,0,0:0:0:0:
257,278,31441,1,0,0:0:0:0:
343,136,31672,6,0,P|346:199|325:262,1,95,2|0,0:0|0:0,0:0:0:0:
169,136,32595,2,0,P|166:199|187:262,1,95,8|0,0:0|0:0,0:0:0:0:
254,191,33288,1,0,0:0:0:0:
256,63,33518,6,0,L|299:114,1,47.5,2|0,0:0|0:0,0:0:0:0:
348,172,33980,2,0,L|308:209,1,47.5
243,268,34441,2,0,P|189:246|171:195,1,95,8|0,0:0|0:0,0:0:0:0:
144,124,35134,1,0,0:0:0:0:
57,162,35364,2,0,L|41:235,2,47.5,2|0|0,0:0|0:0|0:0,0:0:0:0:
60,147,35941,1,0,0:0:0:0:
68,115,36057,1,0,0:0:0:0:
151,69,36288,2,0,P|210:62|251:78,1,95,8|0,0:0|0:0,0:0:0:0:
393,91,37211,5,2,0:0:0:0:
307,192,37441,1,0,0:0:0:0:
205,192,37672,1,0,0:0:0:0:
119,293,37902,1,0,0:0:0:0:
30,192,38134,2,0,P|39:151|29:107,1,76,8|0,0:0|0:0,0:0:0:0:
119,91,39057,5,2,0:0:0:0:
205,192,39287,1,0,0:0:0:0:
307,192,39518,1,0,0:0:0:0:
393,293,39748,1,0,0:0:0:0:
481,192,39980,2,0,P|476:153|408:119,1,114,8|0,0:0|0:0,0:0:0:0:
299,53,40903,6,0,P|254:51|232:65,2,57,2|0|0,0:0|0:0|0:0,0:0:0:0:
371,82,41826,1,8,0:0:0:0:
342,152,42057,1,0,0:0:0:0:
274,187,42288,2,0,L|231:201,1,38
169,231,42749,2,0,L|155:254,2,19,2|0|0,0:0|0:0|0:0,0:0:0:0:
376,325,43672,2,8,P|409:296|408:265,1,76
354,194,44364,1,8,0:0:0:0:
297,105,44595,6,0,L|238:94,1,52.2500015945435,4|0,0:0|0:0,0:0:0:0:
157,153,45057,2,0,L|225:170,1,52.2500015945435,2|0,0:0|0:0,0:0:0:0:
286,234,45518,2,0,P|225:249|165:241,1,104.500003189087,8|0,0:0|0:0,0:0:0:0:
90,293,46211,1,2,0:0:0:0:
90,293,46441,2,0,P|144:313|201:314,1,104.500003189087,2|2,0:0|0:0,0:0:0:0:
291,288,47134,1,0,0:0:0:0:
291,288,47364,2,0,P|348:262|414:275,1,104.500003189087,8|0,0:0|0:0,0:0:0:0:
321,345,48057,1,2,0:0:0:0:
321,345,48172,1,2,0:0:0:0:
321,345,48288,6,0,L|251:311,1,52.2500015945435,2|0,0:0|0:0,0:0:0:0:
222,230,48749,2,0,L|282:263,1,52.2500015945435,2|0,0:0|0:0,0:0:0:0:
244,152,49211,2,0,L|247:215,1,52.2500015945435,8|0,0:0|0:0,0:0:0:0:
303,116,49672,2,0,L|277:169,1,52.2500015945435,0|2,0:0|0:0,0:0:0:0:
358,93,50134,2,0,P|303:66|231:72,1,104.500003189087,2|2,0:0|0:0,0:0:0:0:
54,97,51057,1,8,0:0:0:0:
115,181,51288,1,0,0:0:0:0:
244,192,51518,1,0,0:0:0:0:
374,104,51749,1,2,0:0:0:0:
287,44,51980,6,0,L|223:50,1,52.2500015945435,2|0,0:0|0:0,0:0:0:0:
162,123,52441,2,0,L|235:117,1,52.2500015945435,2|0,0:0|0:0,0:0:0:0:
301,176,52903,1,8,0:0:0:0:
375,249,53134,2,0,L|374:183,1,52.2500015945435
294,264,53595,1,2,0:0:0:0:
199,309,53826,2,0,L|148:338,2,52.2500015945435,2|0|2,0:0|0:0|0:0,0:0:0:0:
195,204,54518,1,0,0:0:0:0:
114,137,54749,2,0,P|161:100|221:90,1,104.500003189087,8|0,0:0|0:0,0:0:0:0:
306,72,55441,1,2,0:0:0:0:
306,72,55557,1,2,0:0:0:0:
306,72,55672,6,0,P|312:110|346:144,2,78.3750023918153,8|0|0,0:0|0:0|0:0,0:0:0:0:
218,129,56595,2,0,P|207:190|223:247,1,104.500003189087,8|0,0:0|0:0,0:0:0:0:
308,279,57288,1,0,0:0:0:0:
410,263,57518,2,0,L|442:215,1,52.2500015945435,8|0,0:0|0:0,0:0:0:0:
457,197,57864,1,0,0:0:0:0:
477,165,57980,1,8,0:0:0:0:
256,36,59594,5,4,0:0:0:0:
173,83,59825,1,8,0:0:0:0:
149,123,59940,1,0,0:0:0:0:
149,170,60056,1,8,0:0:0:0:
162,215,60171,1,0,0:0:0:0:
134,254,60287,5,8,0:0:0:0:
181,251,60402,1,0,0:0:0:0:
228,253,60517,1,8,0:0:0:0:
274,263,60633,1,0,0:0:0:0:
307,296,60748,5,8,0:0:0:0:
349,190,60979,1,8,0:0:0:0:
255,89,61210,6,0,P|183:80|97:148,1,170.999994781494,4|0,0:0|0:0,0:0:0:0:
89,164,61671,2,2,P|52:232|0:268,1,113.999996520996
131,295,62133,2,0,P|194:286|292:223,1,170.999994781494,8|0,0:0|0:0,0:0:0:0:
305,212,62537,1,0,0:0:0:0:
326,200,62594,2,2,P|346:137|340:77,1,113.999996520996
252,18,63056,6,0,P|242:92|256:147,1,113.999996520996,8|0,0:0|0:0,0:0:0:0:
441,212,63517,2,2,P|454:148|441:75,1,113.999996520996
349,157,63979,1,8,0:0:0:0:
318,204,64094,1,0,0:0:0:0:
270,236,64210,1,0,0:0:0:0:
213,242,64325,1,0,0:0:0:0:
157,231,64440,2,2,P|98:199|67:149,1,113.999996520996
153,80,64902,6,0,P|228:101|340:68,1,170.999994781494,8|0,0:0|0:0,0:0:0:0:
344,68,65364,2,2,P|372:129|373:190,1,113.999996520996
316,273,65825,2,0,P|232:303|123:280,1,170.999994781494,8|0,0:0|0:0,0:0:0:0:
122,281,66287,2,2,P|131:216|154:162,1,113.999996520996
262,185,66748,6,0,P|322:199|425:134,1,170.999994781494,8|0,0:0|0:0,0:0:0:0:
422,123,67210,1,2,0:0:0:0:
332,52,67440,1,2,0:0:0:0:
180,52,67671,1,8,0:0:0:0:
90,123,67901,1,0,0:0:0:0:
90,237,68133,6,2,L|149:290,1,56.9999982604981
216,257,68364,2,2,L|155:203,1,56.9999982604981
205,140,68594,6,0,P|251:176|286:234,1,113.999996520996,4|0,0:0|0:0,0:0:0:0:
264,335,69056,1,8,0:0:0:0:
374,307,69287,1,0,0:0:0:0:
421,203,69517,6,0,P|388:142|337:117,1,113.999996520996,2|0,0:0|0:0,0:0:0:0:
340,93,69864,2,0,P|279:79|224:95,1,113.999996520996,2|0,0:0|0:0,0:0:0:0:
203,79,70210,2,0,P|159:130|147:187,1,113.999996520996,2|8,0:0|0:0,0:0:0:0:
225,254,70671,5,0,0:0:0:0:
89,102,70902,1,8,0:0:0:0:
172,329,71133,1,0,0:0:0:0:
206,137,71364,2,0,P|284:143|321:174,1,113.999996520996,2|0,0:0|0:0,0:0:0:0:
343,159,71710,2,0,P|376:218|387:284,1,113.999996520996,2|0,0:0|0:0,0:0:0:0:
411,284,72056,1,2,0:0:0:0:
311,339,72287,6,2,P|228:343|170:328,1,113.999996520996
167,342,72633,2,2,P|93:330|45:272,1,113.999996520996
44,286,72979,2,2,L|35:218,1,56.9999982604981
39,201,73210,2,2,P|74:141|66:78,1,113.999996520996
186,85,73671,2,0,P|209:149|277:179,1,113.999996520996
340,44,74133,6,0,L|354:74,1,28.4999991302491,8|0,0:0|0:0,0:0:0:0:
405,137,74364,1,8,0:0:0:0:
464,40,74594,1,8,0:0:0:0:
347,225,74825,1,8,0:0:0:0:
255,293,75056,5,8,0:0:0:0:
202,315,75171,1,0,0:0:0:0:
146,329,75287,1,8,0:0:0:0:
89,327,75402,1,0,0:0:0:0:
38,301,75517,5,8,0:0:0:0:
46,244,75633,1,8,0:0:0:0:
73,194,75748,1,8,0:0:0:0:
104,146,75864,1,8,0:0:0:0:
132,96,75979,6,0,P|207:71|275:85,1,113.999996520996,4|0,0:0|0:0,0:0:0:0:
268,59,76325,2,2,P|305:107|305:241,1,170.999994781494
276,240,76787,1,0,0:0:0:0:
248,273,76902,2,0,P|293:315|416:294,1,170.999994781494,8|0,0:0|0:0,0:0:0:0:
418,286,77306,1,0,0:0:0:0:
434,259,77364,2,2,P|429:200|440:136,1,113.999996520996
340,85,77825,6,0,P|276:61|165:86,1,170.999994781494,8|0,0:0|0:0,0:0:0:0:
151,91,78287,2,2,P|95:103|29:87,1,113.999996520996
119,173,78748,1,8,0:0:0:0:
170,197,78864,1,0,0:0:0:0:
226,198,78979,1,0,0:0:0:0:
281,187,79094,1,0,0:0:0:0:
326,151,79210,2,2,P|398:144|434:183,1,113.999996520996
349,252,79671,6,0,P|294:278|185:236,1,170.999994781494,8|0,0:0|0:0,0:0:0:0:
170,238,80133,2,2,P|109:279|45:260,1,113.999996520996
46,256,80479,1,0,0:0:0:0:
37,220,80594,2,0,P|48:169|96:100,1,113.999996520996,8|0,0:0|0:0,0:0:0:0:
111,99,80940,1,0,0:0:0:0:
148,84,81056,2,2,P|203:70|270:94,1,113.999996520996
392,67,81517,6,0,P|416:127|389:234,1,170.999994781494,8|0,0:0|0:0,0:0:0:0:
366,238,81979,2,2,P|306:267|251:239,1,113.999996520996
236,235,82325,1,0,0:0:0:0:
194,219,82440,2,0,L|135:169,2,56.9999982604981,8|0|0,0:0|0:0|0:0,0:0:0:0:
148,324,82902,6,2,L|148:254,1,56.9999982604981
218,217,83133,2,2,L|218:288,1,56.9999982604981
284,327,83364,6,0,P|302:263|304:195,1,113.999996520996,4|0,0:0|0:0,0:0:0:0:
392,289,83825,1,8,0:0:0:0:
215,142,84056,1,0,0:0:0:0:
78,69,84287,2,2,P|145:53|207:67,1,113.999996520996,2|0,0:0|0:0,0:0:0:0:
216,60,84633,2,2,P|281:51|339:67,1,113.999996520996,2|0,0:0|0:0,0:0:0:0:
358,63,84979,2,0,P|420:52|478:66,2,113.999996520996,2|8|0,0:0|0:0|0:0,0:0:0:0:
415,123,85671,5,8,0:0:0:0:
203,176,85902,1,0,0:0:0:0:
146,103,86133,2,0,P|211:94|269:110,1,113.999996520996,2|0,0:0|0:0,0:0:0:0:
274,130,86479,2,0,P|319:184|368:219,1,113.999996520996,2|0,0:0|0:0,0:0:0:0:
382,220,86825,1,2,0:0:0:0:
328,320,87056,6,0,P|267:329|212:320,1,113.999996520996,8|0,0:0|0:0,0:0:0:0:
186,323,87402,2,0,P|114:333|69:315,1,113.999996520996,8|0,0:0|0:0,0:0:0:0:
51,298,87748,1,8,0:0:0:0:
36,262,87864,1,8,0:0:0:0:
29,217,87979,2,0,L|26:142,2,56.9999982604981,8|0|0,0:0|0:0|0:0,0:0:0:0:
98,126,88440,2,2,P|137:183|160:238,1,113.999996520996
223,131,88902,5,4,0:0:0:0:
324,78,89133,1,2,0:0:0:0:
362,66,89248,1,2,0:0:0:0:
397,80,89364,1,2,0:0:0:0:
433,187,89594,1,8,0:0:0:0:
414,241,89710,1,0,0:0:0:0:
368,274,89825,1,8,0:0:0:0:
316,296,89940,1,0,0:0:0:0:
258,301,90056,1,8,0:0:0:0:
201,299,90171,1,0,0:0:0:0:
146,281,90287,6,8,L|93:237,1,56.9999982604981
132,164,90517,2,8,L|187:210,1,56.9999982604981
252,162,90748,5,4,0:0:0:0:
434,244,92594,6,0,P|365:269|314:274,1,104.500003189087,10|0,0:0|0:0,0:0:0:0:
292,278,92940,1,0,0:0:0:0:
250,284,93056,2,0,P|188:296|131:275,1,104.500003189087,8|2,0:0|0:0,0:0:0:0:
183,209,93517,2,0,P|258:182|390:169,1,209.000006378174,8|10,0:0|0:0,0:0:0:0:
332,104,94210,1,0,0:0:0:0:
332,104,94325,1,0,0:0:0:0:
332,104,94440,6,0,P|256:83|204:89,1,104.500003189087,10|0,0:0|0:0,0:0:0:0:
189,90,94787,1,0,0:0:0:0:
189,90,94902,1,8,0:0:0:0:
117,167,95133,2,0,P|177:180|245:165,1,104.500003189087,2|8,0:0|0:0,0:0:0:0:
291,250,95594,2,0,P|209:272|153:263,1,104.500003189087,0|10,0:0|0:0,0:0:0:0:
86,286,96056,1,0,0:0:0:0:
86,286,96171,1,0,0:0:0:0:
88,314,96287,6,0,P|148:321|219:309,1,104.500003189087,10|0,0:0|0:0,0:0:0:0:
222,336,96633,1,0,0:0:0:0:
222,336,96748,1,8,0:0:0:0:
324,315,96979,2,0,P|344:262|326:204,1,104.500003189087,2|8,0:0|0:0,0:0:0:0:
438,218,97440,2,0,P|448:277|430:336,1,104.500003189087,0|10,0:0|0:0,0:0:0:0:
400,339,97787,1,0,0:0:0:0:
359,349,97902,1,0,0:0:0:0:
317,343,98017,1,0,0:0:0:0:
279,323,98133,6,0,P|268:264|290:204,1,104.500003189087,10|0,0:0|0:0,0:0:0:0:
308,191,98479,1,0,0:0:0:0:
339,163,98594,2,0,P|356:107|343:52,1,104.500003189087,8|2,0:0|0:0,0:0:0:0:
248,28,99056,2,0,P|239:86|259:148,1,104.500003189087,8|0,0:0|0:0,0:0:0:0:
148,157,99517,6,0,L|122:218,1,52.2500015945435,10|2,0:0|0:0,0:0:0:0:
168,272,99748,2,2,L|197:211,1,52.2500015945435
267,206,99979,6,0,P|245:263|220:307,1,104.500003189087,8|0,0:3|0:0,0:0:0:0:
327,300,100440,1,8,0:0:0:0:
152,184,100671,1,2,0:0:0:0:
242,132,100902,2,0,P|305:118|416:217,1,209.000006378174,8|10,0:0|0:0,0:0:0:0:
315,240,101594,2,0,L|315:313,1,52.2500015945435
240,266,101825,6,0,P|251:197|239:144,1,104.500003189087,10|0,0:0|0:0,0:0:0:0:
211,138,102171,1,0,0:0:0:0:
180,109,102287,1,8,0:0:0:0:
39,177,102517,1,2,0:0:0:0:
135,300,102748,2,0,P|196:319|255:301,2,104.500003189087,8|0|10,0:0|0:0|0:0,0:0:0:0:
191,153,103440,2,0,L|191:84,1,52.2500015945435
255,55,103671,6,0,P|276:110|260:210,1,156.750004783631,8|0,0:0|0:0,0:0:0:0:
243,226,104133,2,0,P|306:247|362:232,1,104.500003189087,8|2,0:0|0:0,0:0:0:0:
416,167,104594,2,0,P|352:152|311:162,1,104.500003189087,8|0,0:0|0:0,0:0:0:0:
201,283,105056,2,0,P|262:300|332:276,1,104.500003189087,10|0,0:0|0:0,0:0:0:0:
337,284,105402,1,0,0:0:0:0:
373,282,105517,6,0,L|416:239,1,52.2500015945435,10|0,0:0|0:0,0:0:0:0:
389,168,105748,2,0,L|342:213,1,52.2500015945435
273,192,105979,2,0,P|315:152|338:101,1,104.500003189087,8|2,0:0|0:0,0:0:0:0:
232,128,106440,2,0,P|197:194|196:254,1,104.500003189087,8|0,0:0|0:0,0:0:0:0:
297,205,106902,1,10,0:0:0:0:
116,98,107133,1,0,0:0:0:0:
141,252,107364,5,4,0:0:0:0:
236,293,107594,1,0,0:0:0:0:
330,247,107825,1,8,0:0:0:0:
419,301,108056,1,0,0:0:0:0:
259,165,108287,2,2,L|209:223,1,54.6250010418892,10|2,0:0|0:0,0:0:0:0:
149,183,108517,2,0,L|178:152,4,27.3125005209446,2|0|2|0|10,0:0|0:0|0:0|0:0|0:0,0:0:0:0:
122,81,108979,1,0,0:0:0:0:
122,81,109094,1,0,0:0:0:0:
122,81,109210,6,2,L|187:81,1,54.6250010418892,10|2,0:0|0:0,0:0:0:0:
234,118,109440,2,0,L|279:119,4,27.3125005209446,2|0|2|0|10,0:0|0:0|0:0|0:0|0:0,0:0:0:0:
158,190,109902,1,0,0:0:0:0:
113,284,110133,1,10,0:0:0:0:
161,301,110248,1,2,0:0:0:0:
212,311,110364,2,0,L|259:311,4,27.3125005209446,2|0|2|0|10,0:0|0:0|0:0|0:0|0:0,0:0:0:0:
311,355,110825,1,8,0:0:0:0:
311,355,110940,1,0,0:0:0:0:
311,355,111056,6,0,P|352:304|369:252,1,109.250002083778,8|0,0:0|0:0,0:0:0:0:
366,208,111402,2,2,L|366:176,2,27.3125005209446,2|2|10,0:0|0:0|0:0,0:0:0:0:
256,222,111748,1,0,0:0:0:0:
149,247,111979,2,0,P|87:259|42:237,1,109.250002083778,8|0,0:0|0:0,0:0:0:0:
15,195,112325,2,2,L|2:153,2,27.3125005209446
117,138,112671,1,0,0:0:0:0:
117,138,112787,1,0,0:0:0:0:
117,138,112902,6,0,P|189:146|233:128,1,109.250002083778,8|0,0:0|0:0,0:0:0:0:
274,114,113248,2,2,L|309:114,2,27.3125005209446,2|2|10,0:0|0:0|0:0,0:0:0:0:
336,193,113594,1,0,0:0:0:0:
255,267,113825,2,2,L|211:313,1,54.6250010418892,10|2,0:0|0:0,0:0:0:0:
295,333,114056,2,0,L|322:306,4,27.3125005209446,2|0|2|0|10,0:0|0:0|0:0|0:0|0:0,0:0:0:0:
156,244,114517,1,0,0:0:0:0:
256,114,114748,5,8,0:0:0:0:
358,150,114979,2,0,L|393:158,4,27.3125005209446,2|0|2|0|10,0:0|0:0|0:0|0:0|0:0,0:0:0:0:
254,183,115440,2,0,P|197:217|151:214,1,109.250002083778,0|10,0:0|0:0,0:0:0:0:
125,231,115787,1,2,0:0:0:0:
110,271,115902,2,0,L|137:302,4,27.3125005209446,2|0|2|0|10,0:0|0:0|0:0|0:0|0:0,0:0:0:0:
212,310,116364,1,0,0:0:0:0:
212,310,116479,1,0,0:0:0:0:
212,310,116594,6,2,L|260:262,1,54.6250010418892,10|2,0:0|0:0,0:0:0:0:
322,288,116825,2,0,L|295:318,4,27.3125005209446,2|0|2|0|10,0:0|0:0|0:0|0:0|0:0,0:0:0:0:
422,332,117287,2,0,P|444:278|426:209,1,109.250002083778,0|10,0:0|0:0,0:0:0:0:
423,198,117633,1,2,0:0:0:0:
399,174,117748,2,0,L|373:152,4,27.3125005209446,2|0|2|0|10,0:0|0:0|0:0|0:0|0:0,0:0:0:0:
290,158,118210,1,8,0:0:0:0:
290,158,118325,1,0,0:0:0:0:
290,158,118440,6,0,P|242:217|178:232,1,109.250002083778,8|2,0:0|0:0,0:0:0:0:
179,232,118787,1,2,0:0:0:0:
139,231,118902,2,0,P|69:203|37:154,1,109.250002083778,10|0,0:0|0:0,0:0:0:0:
90,76,119364,2,0,P|137:114|161:172,1,109.250002083778,8|0,0:0|0:0,0:0:0:0:
267,150,119825,2,0,P|274:93|319:52,1,109.250002083778,8|0,0:0|0:0,0:0:0:0:
418,64,120287,5,8,0:0:0:0:
429,94,120402,1,0,0:0:0:0:
442,123,120517,1,0,0:0:0:0:
399,223,120748,1,8,0:0:0:0:
305,166,120979,1,0,0:0:0:0:
243,256,121210,1,0,0:0:0:0:
147,203,121440,1,8,0:0:0:0:
147,203,121556,1,0,0:0:0:0:
147,203,121671,6,8,L|123:268,1,54.6250010418892
191,298,121902,2,8,L|168:366,1,54.6250010418892
237,382,122133,6,2,B|266:305|320:284|320:284|359:267|384:188,1,237.5
324,123,123517,1,0,0:0:0:0:
395,60,123748,1,0,0:0:0:0:
257,89,123979,6,0,P|329:80|415:148,1,170.999994781494,4|0,0:0|0:0,0:0:0:0:
423,164,124440,2,2,P|460:232|512:268,1,113.999996520996
381,295,124902,2,0,P|318:286|220:223,1,170.999994781494,8|0,0:0|0:0,0:0:0:0:
207,212,125306,1,0,0:0:0:0:
186,200,125363,2,2,P|166:137|172:77,1,113.999996520996
260,18,125825,6,0,P|270:92|256:147,1,113.999996520996,8|0,0:0|0:0,0:0:0:0:
71,212,126286,2,2,P|58:148|71:75,1,113.999996520996
163,157,126748,1,8,0:0:0:0:
194,204,126863,1,0,0:0:0:0:
242,236,126979,1,0,0:0:0:0:
299,242,127094,1,0,0:0:0:0:
355,231,127209,2,2,P|414:199|445:149,1,113.999996520996
359,80,127671,6,0,P|284:101|172:68,1,170.999994781494,8|0,0:0|0:0,0:0:0:0:
168,68,128133,2,2,P|140:129|139:190,1,113.999996520996
196,273,128594,2,0,P|280:303|389:280,1,170.999994781494,8|0,0:0|0:0,0:0:0:0:
390,281,129056,2,2,P|381:216|358:162,1,113.999996520996
250,185,129517,6,0,P|190:199|87:134,1,170.999994781494,8|0,0:0|0:0,0:0:0:0:
90,123,129979,1,2,0:0:0:0:
180,52,130209,1,2,0:0:0:0:
332,52,130440,1,8,0:0:0:0:
422,123,130670,1,0,0:0:0:0:
422,237,130902,6,2,L|363:290,1,56.9999982604981
296,257,131133,2,2,L|357:203,1,56.9999982604981
307,140,131363,6,0,P|261:176|226:234,1,113.999996520996,4|0,0:0|0:0,0:0:0:0:
248,335,131825,1,8,0:0:0:0:
138,307,132056,1,0,0:0:0:0:
91,203,132286,6,0,P|124:142|175:117,1,113.999996520996,2|0,0:0|0:0,0:0:0:0:
172,93,132633,2,0,P|233:79|288:95,1,113.999996520996,2|0,0:0|0:0,0:0:0:0:
309,79,132979,2,0,P|353:130|365:187,1,113.999996520996,2|8,0:0|0:0,0:0:0:0:
287,254,133440,5,0,0:0:0:0:
423,102,133671,1,8,0:0:0:0:
340,329,133902,1,0,0:0:0:0:
306,137,134133,2,0,P|228:143|191:174,1,113.999996520996,2|0,0:0|0:0,0:0:0:0:
169,159,134479,2,0,P|136:218|125:284,1,113.999996520996,2|0,0:0|0:0,0:0:0:0:
101,284,134825,1,2,0:0:0:0:
201,339,135056,6,2,P|284:343|342:328,1,113.999996520996
345,342,135402,2,2,P|419:330|467:272,1,113.999996520996
468,286,135748,2,2,L|477:218,1,56.9999982604981
473,201,135979,2,2,P|438:141|446:78,1,113.999996520996
326,85,136440,2,0,P|303:149|235:179,1,113.999996520996
172,44,136902,6,0,L|158:74,1,28.4999991302491,8|0,0:0|0:0,0:0:0:0:
107,137,137133,1,8,0:0:0:0:
48,40,137363,1,8,0:0:0:0:
165,225,137594,1,8,0:0:0:0:
257,293,137825,5,8,0:0:0:0:
310,315,137940,1,0,0:0:0:0:
366,329,138056,1,8,0:0:0:0:
423,327,138171,1,0,0:0:0:0:
474,301,138286,5,8,0:0:0:0:
466,244,138402,1,8,0:0:0:0:
439,194,138517,1,8,0:0:0:0:
408,146,138633,1,8,0:0:0:0:
380,96,138748,6,0,P|305:71|237:85,1,113.999996520996,4|0,0:0|0:0,0:0:0:0:
244,59,139094,2,2,P|207:107|207:241,1,170.999994781494
236,240,139556,1,0,0:0:0:0:
264,273,139671,2,0,P|219:315|96:294,1,170.999994781494,8|0,0:0|0:0,0:0:0:0:
94,286,140075,1,0,0:0:0:0:
78,259,140133,2,2,P|83:200|72:136,1,113.999996520996
172,85,140594,6,0,P|236:61|347:86,1,170.999994781494,8|0,0:0|0:0,0:0:0:0:
361,91,141056,2,2,P|417:103|483:87,1,113.999996520996
393,173,141517,1,8,0:0:0:0:
342,197,141633,1,0,0:0:0:0:
286,198,141748,1,0,0:0:0:0:
231,187,141863,1,0,0:0:0:0:
186,151,141979,2,2,P|114:144|78:183,1,113.999996520996
163,252,142440,6,0,P|218:278|327:236,1,170.999994781494,8|0,0:0|0:0,0:0:0:0:
342,238,142902,2,2,P|403:279|467:260,1,113.999996520996
466,256,143248,1,0,0:0:0:0:
475,220,143363,2,0,P|464:169|416:100,1,113.999996520996,8|0,0:0|0:0,0:0:0:0:
401,99,143709,1,0,0:0:0:0:
364,84,143825,2,2,P|309:70|242:94,1,113.999996520996
120,67,144286,6,0,P|96:127|123:234,1,170.999994781494,8|0,0:0|0:0,0:0:0:0:
146,238,144748,2,2,P|206:267|261:239,1,113.999996520996
276,235,145094,1,0,0:0:0:0:
318,219,145209,2,0,L|377:169,2,56.9999982604981,8|0|0,0:0|0:0|0:0,0:0:0:0:
364,324,145671,6,2,L|364:254,1,56.9999982604981
294,217,145902,2,2,L|294:288,1,56.9999982604981
228,327,146133,6,0,P|210:263|208:195,1,113.999996520996,4|0,0:0|0:0,0:0:0:0:
120,289,146594,1,8,0:0:0:0:
297,142,146825,1,0,0:0:0:0:
434,69,147056,2,2,P|367:53|305:67,1,113.999996520996,2|0,0:0|0:0,0:0:0:0:
296,60,147402,2,2,P|231:51|173:67,1,113.999996520996,2|0,0:0|0:0,0:0:0:0:
154,63,147748,2,0,P|92:52|34:66,2,113.999996520996,2|8|0,0:0|0:0|0:0,0:0:0:0:
97,123,148440,5,8,0:0:0:0:
309,176,148671,1,0,0:0:0:0:
366,103,148902,2,0,P|301:94|243:110,1,113.999996520996,2|0,0:0|0:0,0:0:0:0:
238,130,149248,2,0,P|193:184|144:219,1,113.999996520996,2|0,0:0|0:0,0:0:0:0:
130,220,149594,1,2,0:0:0:0:
184,320,149825,6,0,P|245:329|300:320,1,113.999996520996,8|0,0:0|0:0,0:0:0:0:
326,323,150171,2,0,P|398:333|443:315,1,113.999996520996,8|0,0:0|0:0,0:0:0:0:
461,298,150517,1,8,0:0:0:0:
476,262,150633,1,8,0:0:0:0:
483,217,150748,2,0,L|486:142,2,56.9999982604981,8|0|0,0:0|0:0|0:0,0:0:0:0:
414,126,151209,2,2,P|375:183|352:238,1,113.999996520996
289,131,151671,5,4,0:0:0:0:
188,78,151902,1,2,0:0:0:0:
150,66,152017,1,2,0:0:0:0:
115,80,152133,1,2,0:0:0:0:
79,187,152363,1,8,0:0:0:0:
98,241,152479,5,0,0:0:0:0:
144,274,152594,1,8,0:0:0:0:
196,296,152709,1,0,0:0:0:0:
254,301,152825,1,8,0:0:0:0:
311,299,152940,1,0,0:0:0:0:
353,288,153056,2,0,P|378:210|270:160,1,170.999994781494,2|2,0:0|0:0,0:0:0:0:
281,154,153517,5,4,0:0:0:0:
256,192,164594,12,4,170133,0:0:0:0:
179,62,171979,5,8,0:0:0:0:
129,164,172210,1,8,0:0:0:0:
236,126,172440,1,8,0:0:0:0:
291,111,172556,1,8,0:0:0:0:
347,110,172671,1,8,0:0:0:0:
401,126,172787,1,8,0:0:0:0:
436,170,172902,5,2,0:0:0:0:
392,206,173017,1,2,0:0:0:0:
359,253,173133,1,2,0:0:0:0:
331,302,173248,1,2,0:0:0:0:
315,357,173364,5,8,0:0:0:0:
211,252,173594,1,8,0:0:0:0:
328,142,173825,6,0,P|257:117|141:143,1,185.249991519928,4|0,0:0|0:0,0:0:0:0:
110,151,174287,2,2,P|103:225|129:282,1,123.499994346619
195,312,174748,2,0,P|220:247|203:111,1,185.249991519928,8|0,0:0|0:0,0:0:0:0:
214,111,175152,1,0,0:0:0:0:
235,105,175210,2,2,P|286:107|382:77,1,123.499994346619
446,174,175671,6,0,P|430:247|362:345,1,185.249991519928,8|0,0:0|0:0,0:0:0:0:
340,351,176133,2,2,P|258:365|198:344,1,123.499994346619
133,283,176594,5,8,0:0:0:0:
133,105,176825,1,0,0:0:0:0:
364,105,177056,1,2,0:0:0:0:
364,283,177287,1,2,0:0:0:0:
204,266,177517,6,0,P|145:214|200:116,1,185.249991519928,8|0,0:0|0:0,0:0:0:0:
220,112,177979,2,2,P|303:136|337:115,1,123.499994346619
447,78,178440,2,0,P|441:163|401:261,1,185.249991519928,8|0,0:0|0:0,0:0:0:0:
386,268,178844,1,0,0:0:0:0:
364,272,178902,2,2,P|311:284|241:258,1,123.499994346619
96,319,179364,6,0,P|138:246|120:132,1,185.249991519928,8|0,0:0|0:0,0:0:0:0:
107,111,179825,2,2,P|171:119|223:91,1,123.499994346619
367,61,180287,5,8,0:0:0:0:
417,173,180517,1,0,0:0:0:0:
301,89,180748,6,2,L|326:146,1,61.7499971733095
276,210,180979,2,2,L|246:141,1,61.7499971733095
173,144,181210,6,0,P|203:216|190:270,1,123.499994346619,8|0,0:0|0:0,0:0:0:0:
115,353,181671,2,0,P|96:280|121:215,1,123.499994346619,8|0,0:0|0:0,0:0:0:0:
141,183,182017,1,0,0:0:0:0:
183,138,182133,2,0,P|216:78|206:12,1,123.499994346619,2|0,0:0|0:0,0:0:0:0:
174,31,182479,2,0,P|240:66|317:49,1,123.499994346619,2|0,0:0|0:0,0:0:0:0:
296,24,182825,2,0,P|285:106|327:176,1,123.499994346619,2|8,0:0|0:0,0:0:0:0:
374,85,183287,5,8,0:0:0:0:
151,131,183517,1,8,0:0:0:0:
355,188,183748,1,8,0:0:0:0:
161,248,183979,6,0,P|88:270|22:240,1,123.499994346619,2|0,0:0|0:0,0:0:0:0:
24,237,184325,2,0,P|6:174|20:115,1,123.499994346619,2|0,0:0|0:0,0:0:0:0:
38,88,184671,1,2,0:0:0:0:
186,46,184902,6,2,P|224:104|288:145,1,123.499994346619
288,145,185248,2,2,P|332:203|352:277,1,123.499994346619
354,276,185594,2,2,L|332:343,1,61.7499971733095
307,351,185825,2,2,L|243:371,2,61.7499971733095
227,255,186287,6,8,L|305:187,1,61.7499971733095
264,134,186517,2,8,L|209:181,1,61.7499971733095
143,139,186748,5,2,0:0:0:0:
143,139,186864,1,2,0:0:0:0:
143,139,186979,2,0,P|185:98|254:64,1,123.499994346619,2|0,0:0|0:0,0:0:0:0:
365,65,187440,2,2,L|365:138,1,61.7499971733095
293,164,187671,6,0,L|293:97,1,61.7499971733095,10|8,0:0|0:0,0:0:0:0:
214,121,187902,2,8,L|214:203,1,61.7499971733095
147,228,188133,5,8,0:0:0:0:
179,264,188248,1,8,0:0:0:0:
225,281,188364,1,8,0:0:0:0:
274,281,188479,1,8,0:0:0:0:
323,279,188594,6,0,P|383:239|411:129,1,185.249991519928,4|0,0:0|0:0,0:0:0:0:
396,111,189056,2,0,L|308:70,2,61.7499971733095,2|0|2,0:0|0:0|0:0,0:0:0:0:
276,144,189517,2,0,P|206:108|100:124,1,185.249991519928,8|0,0:0|0:0,0:0:0:0:
82,144,189921,1,0,0:0:0:0:
70,172,189979,2,2,P|72:248|112:310,1,123.499994346619
205,340,190440,6,0,P|225:260|211:147,1,185.249991519928,8|0,0:0|0:0,0:0:0:0:
218,119,190902,2,2,P|296:138|345:127,1,123.499994346619
422,40,191364,1,8,0:0:0:0:
311,229,191594,1,0,0:0:0:0:
253,20,191825,1,2,0:0:0:0:
453,211,192056,1,2,0:0:0:0:
286,120,192287,6,0,P|205:92|110:130,1,185.249991519928,8|0,0:0|0:0,0:0:0:0:
87,160,192748,2,2,P|79:227|89:296,1,123.499994346619
209,293,193210,2,0,P|289:308|406:287,1,185.249991519928,8|0,0:0|0:0,0:0:0:0:
419,281,193614,1,0,0:0:0:0:
436,255,193671,2,2,P|456:195|443:134,1,123.499994346619
335,77,194133,6,0,P|251:68|155:108,1,185.249991519928,8|0,0:0|0:0,0:0:0:0:
126,128,194594,2,2,P|98:212|106:278,1,123.499994346619
187,333,195056,2,0,P|219:267|212:210,1,123.499994346619,8|0,0:0|0:0,0:0:0:0:
318,151,195517,2,2,L|298:217,1,61.7499971733095
353,270,195748,2,2,L|380:195,1,61.7499971733095
450,186,195979,6,0,P|442:269|406:340,1,123.499994346619,8|0,0:0|0:0,0:0:0:0:
314,254,196440,1,8,0:0:0:0:
460,123,196671,1,0,0:0:0:0:
367,41,196902,6,0,P|367:114|341:167,1,123.499994346619,2|0,0:0|0:0,0:0:0:0:
312,159,197248,2,0,P|276:235|271:294,1,123.499994346619,2|0,0:0|0:0,0:0:0:0:
291,309,197594,2,0,P|203:353|149:344,1,123.499994346619,2|8,0:0|0:0,0:0:0:0:
13,269,198056,1,8,0:0:0:0:
289,228,198287,5,8,0:0:0:0:
12,124,198517,1,8,0:0:0:0:
309,126,198748,6,0,P|362:166|432:188,1,123.499994346619,2|0,0:0|0:0,0:0:0:0:
443,215,199094,2,2,P|365:254|259:244,1,185.249991519928
127,322,199671,6,0,P|194:347|261:345,1,123.499994346619,8|2,0:0|0:0,0:0:0:0:
291,350,200017,2,8,P|337:295|355:231,1,123.499994346619
354,214,200364,2,2,L|354:150,1,61.7499971733095
352,118,200594,2,2,P|273:68|161:94,1,185.249991519928
159,99,201056,1,2,0:0:0:0:
101,338,201517,6,0,L|35:347,1,61.7499971733095,8|0,0:0|0:0,0:0:0:0:
174,306,201748,2,0,L|242:335,1,61.7499971733095,8|0,0:0|0:0,0:0:0:0:
120,256,201979,2,0,L|95:191,1,61.7499971733095,8|0,0:0|0:0,0:0:0:0:
197,256,202210,2,0,L|266:253,1,61.7499971733095,8|0,0:0|0:0,0:0:0:0:
186,164,202440,6,8,L|127:217,1,61.7499971733095
260,184,202671,2,8,L|333:208,1,61.7499971733095
243,109,202902,2,8,L|242:33,1,61.7499971733095
332,91,203133,2,8,L|334:167,1,61.7499971733095
397,32,203364,5,4,0:0:0:0:
