osu file format v14

[General]
AudioFilename: audio.mp3
AudioLeadIn: 0
PreviewTime: 1128
Countdown: 0
SampleSet: Soft
StackLeniency: 0.7
Mode: 0
LetterboxInBreaks: 0
WidescreenStoryboard: 0

[Editor]
DistanceSpacing: 0.9
BeatDivisor: 2
GridSize: 4
TimelineZoom: 2.3

[Metadata]
Title:Hitomi no Naka no Meikyuu (tv size)
TitleUnicode:瞳の中の迷宮 (tv size)
Artist:Aiko Kayo
ArtistUnicode:嘉陽愛子
Creator:Lily Bread
Version:Easy
Source:ヤミと帽子と本の旅人
Tags:百合 Yami to Boushi to Hon no Tabibito
BeatmapID:1051980
BeatmapSetID:487556

[Difficulty]
HPDrainRate:1
CircleSize:3
OverallDifficulty:1
ApproachRate:3
SliderMultiplier:0.9
SliderTickRate:1

[Events]
//Background and Video events
0,0,"116512865635f4ea6fo2.jpg",0,0
//Break Periods
//Storyboard Layer 0 (Background)
//Storyboard Layer 1 (Fail)
//Storyboard Layer 2 (Pass)
//Storyboard Layer 3 (Foreground)
//Storyboard Sound Samples

[TimingPoints]
1431,465.116279069767,4,2,1,50,1,0
16314,-100,4,2,1,50,0,0
31198,-100,4,2,1,50,0,0
47942,-100,4,2,1,50,0,0
48058,-100,4,2,1,10,0,0
49803,-100,4,2,1,70,0,1
77710,-100,4,2,1,50,0,0
77826,-100,4,2,1,10,0,0
79570,-100,4,2,1,60,0,0
85617,-100,4,2,1,50,0,0
86082,-100,4,2,1,40,0,0
86547,-100,4,2,1,30,0,0
87012,-100,4,2,1,20,0,0
87477,-100,4,2,1,10,0,0
87942,-100,4,2,1,5,0,0

[Colours]
Combo1 : 109,78,192
Combo2 : 194,172,232
Combo3 : 186,234,254
Combo4 : 26,140,255

[HitObjects]
72,140,16314,6,0,P|144:96|236:116,1,180,6|0,0:0|0:0,0:0:0:0:
256,192,17710,1,8,0:0:0:0:
278,269,18175,2,0,P|364:288|440:244,1,180,2|0,0:0|0:0,0:0:0:0:
456,164,19570,2,0,L|444:72,1,90,8|2,0:0|0:0,0:0:0:0:
368,44,20500,6,0,P|292:40|184:68,1,180,8|8,0:0|0:0,0:0:0:0:
136,124,21896,2,0,L|116:224,1,90,2|8,0:0|0:0,0:0:0:0:
148,288,22826,2,0,P|221:308|332:306,1,180,2|6,0:0|0:0,0:0:0:0:
372,240,24221,6,0,L|384:128,1,90,8|0,0:0|0:0,0:0:0:0:
384,68,25152,1,8,0:0:0:0:
312,104,25617,2,0,L|116:112,1,180,2|0,0:0|0:0,0:0:0:0:
60,148,27012,1,8,0:0:0:0:
103,215,27477,6,0,P|121:256|157:283,1,90,2|8,0:0|0:0,0:0:0:0:
228,244,28407,2,0,P|271:233|313:245,1,90,0|8,0:0|0:0,0:0:0:0:
384,284,29337,2,0,P|419:257|437:216,1,90,2|8,0:0|0:0,0:0:0:0:
444,136,30268,2,0,P|372:88|259:117,1,180,2|4,0:0|0:0,0:0:0:0:
232,164,31663,5,10,0:0:0:0:
212,244,32128,2,0,P|161:212|150:173,1,90,2|8,0:0|0:0,0:0:0:0:
100,124,33058,2,0,P|72:164|80:216,1,90,2|10,0:0|0:0,0:0:0:0:
108,276,33989,2,0,L|128:368,1,90,2|8,0:0|0:0,0:0:0:0:
208,352,34919,6,0,P|256:344|312:356,1,90,2|10,0:0|0:0,0:0:0:0:
376,360,35849,1,2,0:0:0:0:
436,304,36314,1,8,0:0:0:0:
420,224,36779,2,0,P|405:157|303:97,1,180,2|0,0:0|0:0,0:0:0:0:
240,72,38175,2,0,L|140:76,1,90,8|2,0:0|0:0,0:0:0:0:
96,136,39105,5,10,0:0:0:0:
24,176,39570,2,0,P|54:208|98:215,1,90,2|8,0:0|0:0,0:0:0:0:
160,264,40500,2,0,L|280:264,1,90,2|8,0:0|0:0,0:0:0:0:
320,220,41430,2,0,P|368:216|416:232,1,90,2|8,0:0|0:0,0:0:0:0:
472,276,42361,6,0,P|488:232|472:180,1,90,2|10,0:0|0:0,0:0:0:0:
436,120,43291,2,0,L|340:104,1,90,2|8,0:0|0:0,0:0:0:0:
268,84,44221,2,0,P|225:87|160:84,1,90,2|8,0:0|0:0,0:0:0:0:
100,108,45151,1,10,0:0:0:0:
92,188,45617,1,8,0:0:0:0:
128,260,46082,6,0,P|184:296|236:296,1,90,4|8,0:0|0:0,0:0:0:0:
264,244,47012,2,0,P|355:238|352:325,1,180,2|4,0:0|0:0,0:0:0:0:
120,96,49803,5,6,0:0:0:0:
56,48,50268,2,0,P|92:20|156:24,2,90,8|0|8,0:0|0:0|0:0,0:0:0:0:
32,124,51663,1,2,0:0:0:0:
52,204,52128,2,0,L|79:324,2,90,8|0|8,0:0|0:0|0:0,0:0:0:0:
128,176,53524,5,2,0:0:0:0:
180,236,53989,1,8,0:0:0:0:
164,315,54454,2,0,P|209:311|244:284,1,90,0|8,0:0|0:0,0:0:0:0:
280,212,55384,1,2,0:0:0:0:
360,212,55849,1,8,0:0:0:0:
392,288,56314,2,0,P|444:212|388:136,1,180,2|2,0:0|0:0,0:0:0:0:
356,80,57710,6,0,L|228:64,1,90,8|0,0:0|0:0,0:0:0:0:
196,28,58640,2,0,P|183:70|197:112,1,90,8|2,0:0|0:0,0:0:0:0:
252,172,59570,2,0,L|264:280,1,90,8|0,0:0|0:0,0:0:0:0:
196,312,60500,1,8,0:0:0:0:
116,296,60965,6,0,P|72:256|56:124,1,180,2|0,0:0|0:0,0:0:0:0:
24,64,62361,1,8,0:0:0:0:
104,64,62826,2,0,L|228:60,1,90,2|8,0:0|0:0,0:0:0:0:
252,120,63756,2,0,L|364:136,1,90,2|10,0:0|0:0,0:0:0:0:
420,140,64686,5,6,0:0:0:0:
488,96,65151,2,0,P|484:51|456:16,2,90,8|0|8,0:0|0:0|0:0,0:0:0:0:
500,176,66546,1,2,0:0:0:0:
488,256,67012,2,0,P|484:300|456:335,2,90,8|0|8,0:0|0:0|0:0,0:0:0:0:
416,220,68407,5,2,0:0:0:0:
352,268,68872,1,8,0:0:0:0:
276,240,69337,2,0,L|176:243,1,90,0|8,0:0|0:0,0:0:0:0:
112,272,70267,1,2,0:0:0:0:
68,204,70732,1,8,0:0:0:0:
144,176,71197,2,0,P|207:93|276:68,1,180,2|2,0:0|0:0,0:0:0:0:
352,92,72593,6,0,L|396:180,1,90,8|0,0:0|0:0,0:0:0:0:
468,200,73523,2,0,P|444:237|403:255,1,90,8|2,0:0|0:0,0:0:0:0:
344,312,74453,2,0,L|232:324,1,90,8|0,0:0|0:0,0:0:0:0:
196,268,75383,1,8,0:0:0:0:
124,304,75849,6,0,P|64:148|216:56,1,360,2|2,0:0|0:0,0:0:0:0:
428,272,79570,6,0,P|392:328|352:340,1,90,6|8,0:0|0:0,0:0:0:0:
301,296,80500,2,0,P|253:292|188:300,1,90,0|8,0:0|0:0,0:0:0:0:
139,336,81430,2,0,P|102:312|84:272,1,90,2|8,0:0|0:0,0:0:0:0:
64,192,82361,1,0,0:0:0:0:
124,140,82826,1,8,0:0:0:0:
192,184,83291,6,0,L|288:188,1,90,2|8,0:0|0:0,0:0:0:0:
360,216,84221,2,0,P|408:152|320:96,1,180,2|6,0:0|0:0,0:0:0:0:
256,192,85384,12,0,88872,0:0:0:0:
