osu file format v14

[General]
AudioFilename: audio.mp3
AudioLeadIn: 0
PreviewTime: 48186
Countdown: 0
SampleSet: Soft
StackLeniency: 0.7
Mode: 0
LetterboxInBreaks: 0
WidescreenStoryboard: 0

[Editor]
DistanceSpacing: 0.7
BeatDivisor: 4
GridSize: 4
TimelineZoom: 1

[Metadata]
Title:Owarinai Yume (TV Size)
TitleUnicode:終わりない夢 (TV Size)
Artist:Aikawa Nanase
ArtistUnicode:相川七瀬
Creator:bossandy
Version:Dream
Source:犬夜叉
Tags:InuYasha Japanese Anime Jpop J-pop Pop Opening 3 op3 Silent Rock Kyle_Y
BeatmapID:2406045
BeatmapSetID:1152749

[Difficulty]
HPDrainRate:6
CircleSize:4
OverallDifficulty:7.8
ApproachRate:8.5
SliderMultiplier:1.8
SliderTickRate:1

[Events]
//Background and Video events
Video,-630,"video.avi"
0,0,"BG.jpg",0,0
//Break Periods
//Storyboard Layer 0 (Background)
//Storyboard Layer 1 (Fail)
//Storyboard Layer 2 (Pass)
//Storyboard Layer 3 (Foreground)
//Storyboard Layer 4 (Overlay)
//Storyboard Sound Samples

[TimingPoints]
540,392.156862745098,4,2,1,50,1,0
932,-66.6666666666667,4,2,1,50,0,0
1128,-100,4,2,1,50,0,0
1716,-66.6666666666667,4,2,1,50,0,0
1912,-100,4,2,1,50,0,0
2500,-66.6666666666667,4,2,1,50,0,0
2696,-100,4,2,1,50,0,0
3285,-66.6666666666667,4,2,1,50,0,0
3481,-100,4,2,1,50,0,0
5245,392.156862745098,4,2,1,50,1,0
5245,-125,4,2,1,50,0,0
30343,-111.111111111111,4,2,1,50,0,0
40146,-100,4,2,1,50,0,0
40931,-90.9090909090909,4,2,1,50,0,0
41715,-83.3333333333333,4,2,1,50,0,0
42499,-76.9230769230769,4,2,1,50,0,0
42892,-111.111111111111,4,2,1,50,0,0
47401,-83.3333333333333,4,2,1,50,0,0
49166,-100,4,2,1,65,0,1
60539,-90.9090909090909,4,2,1,65,0,1
61323,-83.3333333333333,4,2,1,65,0,1
61715,-100,4,2,1,65,0,1
66813,-90.9090909090909,4,2,1,65,0,1
67597,-83.3333333333333,4,2,1,65,0,1
67990,-100,4,2,1,65,0,1
77794,-90.9090909090909,4,2,1,65,0,1
78578,-83.3333333333333,4,2,1,65,0,1
79362,-76.9230769230769,4,2,1,65,0,1
79754,-71.4285714285714,4,2,1,65,0,1
80539,-100,4,2,1,65,0,0
80931,-100,4,2,1,5,0,0
81127,-100,4,2,1,50,0,0
81911,-100,4,2,1,50,0,1
82107,-100,4,2,1,30,0,0
83676,-100,4,2,1,25,0,0
84068,-100,4,2,1,20,0,0
84460,-100,4,2,1,15,0,0
84852,-100,4,2,1,10,0,0
85245,-100,4,2,1,5,0,0

[Colours]
Combo1 : 141,33,96
Combo2 : 153,21,28
Combo3 : 31,101,57
Combo4 : 21,58,147

[HitObjects]
76,256,540,6,0,P|76:304|56:344,1,90,4|8,0:0|1:0,0:0:0:0:
3,195,932,2,0,P|71:163|135:179,1,135.000005149842,10|8,0:0|1:0,0:0:0:0:
199,115,1226,1,8,1:0:0:0:
199,115,1324,6,0,P|198:67|179:27,1,90,4|8,0:0|1:0,0:0:0:0:
127,176,1716,2,0,P|194:208|259:192,1,135.000005149842,10|8,0:0|1:0,0:0:0:0:
323,257,2010,1,8,1:0:0:0:
323,257,2108,6,0,P|323:304|302:345,1,90,4|8,0:0|1:0,0:0:0:0:
251,196,2500,2,0,P|318:164|383:180,1,135.000005149842,10|8,0:0|1:0,0:0:0:0:
447,114,2794,1,8,1:0:0:0:
447,114,2892,6,0,P|447:66|427:26,1,90,4|8,0:0|1:0,0:0:0:0:
375,175,3285,2,0,P|443:207|507:191,1,135.000005149842,10|8,0:0|1:0,0:0:0:0:
356,88,3677,5,0,3:0:0:0:
322,87,3775,1,8,1:0:0:0:
289,79,3873,1,8,1:0:0:0:
260,61,3971,1,8,1:0:0:0:
237,37,4069,1,2,1:2:0:0:
149,274,4265,5,0,3:0:0:0:
165,244,4363,1,8,1:0:0:0:
189,221,4461,1,8,1:0:0:0:
219,204,4559,1,8,1:0:0:0:
251,196,4657,1,2,0:0:0:0:
91,1,4853,5,0,3:0:0:0:
109,30,4951,1,8,1:0:0:0:
117,62,5049,1,8,1:0:0:0:
117,97,5147,1,8,1:0:0:0:
107,129,5245,6,0,P|80:196|84:224,1,72,4|0,3:2|3:0,0:0:0:0:
176,196,5637,2,0,P|211:203|241:222,1,72,8|0,0:0|3:0,0:0:0:0:
172,288,6029,1,2,0:0:0:0:
336,308,6225,2,0,L|264:317,1,72,2|8,3:0|0:0,0:0:0:0:
426,348,6617,6,0,P|381:272|389:208,1,144,2|2,0:0|3:0,0:0:0:0:
432,138,7205,1,8,0:0:0:0:
415,45,7401,2,0,P|380:30|346:25,1,72,2|2,3:0|0:0,0:0:0:0:
282,94,7794,1,0,3:0:0:0:
188,86,7990,2,0,P|156:68|130:44,1,72,10|0,0:0|3:0,0:0:0:0:
40,144,8382,5,0,3:0:0:0:
40,144,8578,1,0,3:0:0:0:
80,228,8774,1,8,0:0:0:0:
36,308,8970,2,0,P|68:320|120:308,1,72,2|2,3:0|0:0,0:0:0:0:
224,180,9362,2,0,L|148:172,1,72,2|8,3:0|0:0,0:0:0:0:
208,280,9754,6,0,B|256:284|256:284|292:260|292:260|344:264,1,144,2|2,0:0|3:0,0:0:0:0:
420,208,10343,2,0,P|428:172|420:128,1,72,8|2,0:0|3:0,0:0:0:0:
280,128,10735,2,0,P|307:152|349:168,1,72,2|0,0:0|3:0,0:0:0:0:
419,46,11127,2,0,P|383:57|349:86,1,72,10|0,0:0|3:0,0:0:0:0:
420,208,11519,5,0,3:0:0:0:
420,208,11715,1,0,3:0:0:0:
339,166,11911,1,8,0:0:0:0:
248,252,12107,2,0,L|168:240,1,72,2|2,3:0|0:0,0:0:0:0:
320,312,12499,2,0,L|391:301,1,72,2|8,3:0|0:0,0:0:0:0:
228,344,12892,6,0,B|160:336|160:336|112:328|92:284,1,144,2|2,0:0|3:0,0:0:0:0:
176,241,13480,1,8,0:0:0:0:
100,188,13676,1,2,3:0:0:0:
176,132,13872,2,0,P|188:104|188:40,1,72,2|0,0:0|3:0,0:0:0:0:
83,118,14264,2,0,P|85:153|99:187,1,72,10|0,0:0|3:0,0:0:0:0:
176,241,14656,5,0,3:0:0:0:
176,241,14852,1,0,3:0:0:0:
248,184,15048,2,0,P|280:176|324:180,1,72,8|2,0:0|3:0,0:0:0:0:
404,220,15441,1,2,0:0:0:0:
336,285,15637,2,0,P|304:293|260:289,1,72,2|8,3:0|0:0,0:0:0:0:
92,168,16029,6,0,P|62:232|66:303,1,144,2|2,0:0|3:0,0:0:0:0:
173,221,16617,2,0,P|158:253|161:289,1,72,8|2,0:0|3:0,0:0:0:0:
256,144,17009,1,2,0:0:0:0:
172,60,17205,1,8,0:0:0:0:
256,144,17401,1,2,3:0:0:0:
332,60,17597,1,8,0:0:0:0:
432,144,17794,6,0,P|469:169|510:174,1,72,4|0,3:2|3:0,0:0:0:0:
504,80,18186,2,0,P|466:54|425:49,1,72,8|0,0:0|3:0,0:0:0:0:
348,164,18578,1,2,0:0:0:0:
364,256,18774,2,0,L|376:328,1,72,2|8,3:0|0:0,0:0:0:0:
272,208,19166,6,0,P|200:232|108:216,1,144,2|2,0:0|3:0,0:0:0:0:
224,132,19754,2,0,P|190:143|152:140,1,72,8|2,0:0|3:0,0:0:0:0:
176,48,20146,1,2,0:0:0:0:
224,132,20343,1,0,3:0:0:0:
268,48,20539,2,0,P|301:36|340:40,1,72,10|0,0:0|3:0,0:0:0:0:
408,160,20931,5,0,3:0:0:0:
408,160,21127,1,0,3:0:0:0:
320,128,21323,1,8,0:0:0:0:
264,256,21519,2,0,L|276:352,1,72,2|2,3:0|0:0,0:0:0:0:
184,212,21911,2,0,P|216:176|248:164,1,72,2|8,3:0|0:0,0:0:0:0:
352,256,22303,6,0,B|424:272|424:272|460:264|484:236,1,144,2|2,0:0|3:0,0:0:0:0:
420,112,22892,2,0,P|426:147|413:189,1,72,8|2,0:0|3:0,0:0:0:0:
340,146,23284,2,0,P|316:173|275:191,1,72,2|0,0:0|3:0,0:0:0:0:
262,107,23676,2,0,P|225:106|185:87,1,72,10|0,0:0|3:0,0:0:0:0:
248,16,24068,5,0,3:0:0:0:
248,16,24264,1,0,3:0:0:0:
332,56,24460,2,0,P|367:50|398:32,1,72,8|0,0:0|3:0,0:0:0:0:
488,64,24852,1,2,0:0:0:0:
456,152,25048,2,0,P|443:185|443:221,1,72,2|8,3:0|0:0,0:0:0:0:
484,344,25441,6,0,P|420:376|344:368,1,144,2|2,0:0|3:0,0:0:0:0:
278,309,26029,1,8,0:0:0:0:
328,229,26225,1,2,3:0:0:0:
265,161,26421,2,0,P|225:153|173:169,1,72,2|0,0:0|3:0,0:0:0:0:
90,242,26813,2,0,P|130:250|182:234,1,72,10|2,0:0|3:0,0:0:0:0:
265,161,27205,5,2,3:0:0:0:
161,245,27401,1,0,3:0:0:0:
265,161,27597,2,0,P|305:153|357:169,1,72,8|0,0:0|3:0,0:0:0:0:
161,158,27990,5,2,0:0:0:0:
265,242,28186,1,0,3:0:0:0:
161,158,28382,2,0,P|121:150|69:166,1,72,8|0,0:0|0:0,0:0:0:0:
202,80,28774,5,2,3:0:0:0:
123,238,28970,1,0,3:0:0:0:
202,80,29166,2,0,L|188:8,1,72,8|0,0:0|3:0,0:0:0:0:
161,158,29558,5,2,0:0:0:0:
4,169,29754,1,8,0:0:0:0:
161,158,29950,1,8,0:0:0:0:
187,156,30048,1,8,0:0:0:0:
214,154,30146,1,8,0:0:0:0:
241,153,30244,1,8,0:0:0:0:
269,150,30343,6,0,L|349:146,1,80.9999975280763,4|0,3:2|0:0,0:0:0:0:
285,61,30735,1,8,0:0:0:0:
236,248,30931,2,0,L|72:236,1,161.999995056153,0|8,3:0|0:0,0:0:0:0:
208,352,31715,1,10,0:0:0:0:
304,308,31911,6,0,P|324:272|324:224,1,80.9999975280763,0|2,3:0|3:0,0:0:0:0:
181,191,32303,2,0,P|202:226|243:250,1,80.9999975280763,10|2,0:0|3:0,0:0:0:0:
296,80,32695,2,0,P|276:116|276:164,1,80.9999975280763,2|8,0:0|0:0,0:0:0:0:
419,197,33088,2,0,P|398:162|357:138,1,80.9999975280763,2|8,0:0|0:0,0:0:0:0:
512,160,33480,6,0,P|470:90|403:46,1,161.999995056153,2|8,3:0|0:0,0:0:0:0:
364,140,34068,1,0,3:0:0:0:
148,140,34460,1,8,0:0:0:0:
332,251,34852,6,0,P|256:276|180:252,1,161.999995056153,10|2,0:0|3:0,0:0:0:0:
256,88,35441,1,8,0:0:0:0:
256,180,35637,1,2,3:0:0:0:
336,136,35833,2,0,P|376:144|420:176,1,80.9999975280763,2|8,0:0|0:0,0:0:0:0:
175,136,36225,2,0,P|135:143|101:165,1,80.9999975280763,2|8,0:0|0:0,0:0:0:0:
331,251,36617,6,0,P|256:275|180:251,1,161.999995056153,0|8,3:2|0:0,0:0:0:0:
256,180,37205,1,0,3:0:0:0:
104,324,37597,1,8,0:0:0:0:
144,116,37990,6,0,P|80:132|96:52,1,161.999995056153,10|2,0:0|3:0,0:0:0:0:
184,28,38578,1,8,0:0:0:0:
256,104,38774,1,2,3:0:0:0:
328,27,38970,2,0,P|366:15|408:16,1,80.9999975280763,2|8,0:0|0:0,0:0:0:0:
432,136,39362,2,0,P|393:148|352:147,1,80.9999975280763,2|8,0:0|0:0,0:0:0:0:
344,256,39754,5,2,3:0:0:0:
256,104,39950,1,0,3:0:0:0:
168,256,40146,2,0,P|216:304|288:304,1,135,12|0,0:0|0:0,0:0:0:0:
344,256,40539,5,2,3:0:0:0:
256,96,40735,1,0,3:0:0:0:
168,256,40931,2,0,P|212:312|296:312,1,148.50000453186,12|0,0:0|0:0,0:0:0:0:
344,256,41323,5,2,3:0:0:0:
256,88,41519,1,0,3:0:0:0:
168,256,41715,2,0,P|208:320|292:324,1,161.999995056153,12|0,0:0|0:0,0:0:0:0:
344,256,42107,5,2,3:0:0:0:
256,80,42303,1,0,3:0:0:0:
168,256,42499,2,0,P|208:328|312:328,1,175.499991966248,12|0,0:0|0:0,0:0:0:0:
344,256,42892,6,0,L|328:80,1,161.999995056153,2|8,3:0|0:0,0:0:0:0:
168,256,43480,2,0,L|184:80,2,161.999995056153,0|8|8,3:0|0:0|0:0,0:0:0:0:
294,337,44460,5,0,3:0:0:0:
294,337,44656,1,0,3:0:0:0:
168,256,44852,1,8,0:0:0:0:
344,256,45048,2,0,L|444:284,1,80.9999975280763,0|0,3:0|0:0,0:0:0:0:
246,277,45441,2,0,L|146:249,1,80.9999975280763,10|2,0:0|0:0,0:0:0:0:
344,256,45833,1,10,0:0:0:0:
160,352,46029,6,0,B|232:372|232:372|280:372|316:340,1,161.999995056153,0|8,3:0|0:0,0:0:0:0:
167,255,46617,2,0,B|95:275|95:275|47:275|11:243,1,161.999995056153,0|8,3:0|0:0,0:0:0:0:
246,277,47205,1,0,0:0:0:0:
84,188,47401,6,0,B|64:112|64:112|52:64|88:24,1,161.999995056153,4|0,3:2|0:0,0:0:0:0:
140,88,47794,1,4,3:2:0:0:
256,33,47990,1,4,3:2:0:0:
372,88,48186,5,0,1:0:0:0:
393,93,48284,1,8,1:0:0:0:
415,88,48382,1,10,1:0:0:0:
437,93,48480,1,10,1:0:0:0:
459,88,48578,1,8,1:0:0:0:
348,208,48774,1,10,1:0:0:0:
327,213,48872,1,8,1:0:0:0:
305,208,48970,1,8,1:0:0:0:
283,213,49068,1,8,1:0:0:0:
260,208,49166,6,0,B|216:200|216:200|168:208,1,90,6|0,3:2|3:0,0:0:0:0:
56,236,49558,1,10,0:0:0:0:
128,120,49754,2,0,B|216:104|216:104|305:118,1,180,2|10,3:0|0:0,0:0:0:0:
192,16,50343,2,0,L|104:32,1,90,0|10,3:0|0:0,0:0:0:0:
172,208,50735,5,0,3:0:0:0:
28,116,50931,1,0,3:0:0:0:
28,116,51029,1,8,1:0:0:0:
28,116,51127,1,10,0:0:0:0:
132,304,51323,2,0,P|224:304|280:228,1,180,10|0,1:0|3:0,0:0:0:0:
172,208,51911,1,10,0:0:0:0:
360,316,52107,1,10,1:0:0:0:
360,316,52205,1,8,1:0:0:0:
360,316,52303,6,0,P|384:268|376:200,1,90,0|0,3:0|3:0,0:0:0:0:
320,136,52695,1,8,0:0:0:0:
224,376,52892,2,0,P|180:297|173:208,1,180,0|0,3:0|3:0,0:0:0:0:
240,48,53480,1,8,0:0:0:0:
408,150,53676,1,8,1:0:0:0:
408,150,53774,1,8,1:0:0:0:
408,150,53872,6,0,L|312:134,1,90,0|8,3:0|0:0,0:0:0:0:
496,80,54264,1,8,0:0:0:0:
336,240,54460,1,8,1:0:0:0:
336,240,54558,1,8,1:0:0:0:
336,240,54656,2,0,L|424:254,1,90,2|0,3:0|3:0,0:0:0:0:
408,150,55048,1,10,0:0:0:0:
440,352,55244,1,8,1:0:0:0:
240,280,55441,6,0,P|236:232|264:164,1,90,6|0,3:2|3:0,0:0:0:0:
356,144,55833,1,10,0:0:0:0:
144,320,56029,2,0,P|135:230|157:144,1,180,2|2,3:0|3:0,0:0:0:0:
256,80,56617,1,8,0:0:0:0:
439,118,56813,1,10,1:0:0:0:
439,118,56911,1,8,1:0:0:0:
439,118,57009,6,0,P|395:142|347:142,1,90,0|0,3:0|3:0,0:0:0:0:
256,8,57401,1,10,0:0:0:0:
156,144,57597,2,0,B|140:224|140:224|156:244|156:244|140:316,1,180,10|0,1:0|3:0,0:0:0:0:
48,208,58186,2,0,L|68:120,1,90,8|10,0:0|1:0,0:0:0:0:
244,172,58578,6,0,B|236:208|236:208|288:264|400:224,1,180,2|10,3:0|0:0,0:0:0:0:
281,82,59166,2,0,B|289:118|289:118|237:174|125:134,1,180,2|2,3:0|3:0,0:0:0:0:
364,36,59754,1,10,0:0:0:0:
369,57,59852,1,8,0:0:0:0:
374,79,59950,1,8,0:0:0:0:
379,101,60048,1,8,0:0:0:0:
384,123,60146,5,0,3:0:0:0:
256,220,60343,1,0,3:0:0:0:
396,340,60539,2,0,P|420:288|412:180,1,148.50000453186,12|0,0:0|0:0,0:0:0:0:
384,123,60931,5,2,3:0:0:0:
248,220,61127,1,0,3:0:0:0:
396,340,61323,2,0,P|432:296|436:188,1,161.999995056153,14|8,0:0|1:0,0:0:0:0:
384,123,61715,6,0,B|368:80|368:80|376:36,1,90,4|0,3:2|3:0,0:0:0:0:
488,72,62107,1,10,0:0:0:0:
344,216,62303,2,0,B|300:248|248:232|248:232|168:208,1,180,2|10,3:0|0:0,0:0:0:0:
284,328,62892,2,0,P|324:324|372:304,1,90,0|10,3:0|0:0,0:0:0:0:
284,144,63284,5,0,3:0:0:0:
438,194,63480,1,0,3:0:0:0:
438,194,63578,1,8,1:0:0:0:
438,194,63676,1,10,0:0:0:0:
328,52,63872,2,0,P|240:49|182:115,1,180,10|0,1:0|3:0,0:0:0:0:
284,144,64460,1,10,0:0:0:0:
104,188,64656,1,10,1:0:0:0:
104,188,64754,1,8,1:0:0:0:
104,188,64852,6,0,P|143:209|187:213,1,90,0|0,3:0|3:0,0:0:0:0:
328,52,65244,1,8,0:0:0:0:
414,233,65441,2,0,P|328:218|283:143,1,180,0|0,3:0|3:0,0:0:0:0:
481,144,66029,1,8,0:0:0:0:
459,143,66127,1,8,0:0:0:0:
436,141,66225,1,8,0:0:0:0:
413,138,66323,1,8,0:0:0:0:
391,135,66421,5,0,3:0:0:0:
296,268,66617,1,0,3:0:0:0:
224,88,66813,2,0,B|296:56|296:56|368:56,1,148.50000453186,12|8,0:0|1:0,0:0:0:0:
391,135,67205,5,2,3:0:0:0:
288,276,67401,1,0,3:0:0:0:
224,88,67597,2,0,B|286:36|286:36|364:56,1,161.999995056153,14|8,0:0|1:0,0:0:0:0:
391,135,67990,6,0,P|392:184|356:244,1,90,6|0,3:2|3:0,0:0:0:0:
276,160,68382,1,10,0:0:0:0:
472,284,68578,2,0,P|504:200|501:111,1,180,2|2,3:0|3:0,0:0:0:0:
276,160,69166,2,0,P|243:243|246:332,1,180,10|0,0:0|3:0,0:0:0:0:
376,221,69754,5,8,0:0:0:0:
176,104,69950,1,8,0:0:0:0:
246,332,70146,1,8,1:0:0:0:
246,332,70245,1,8,1:0:0:0:
246,332,70343,1,2,3:0:0:0:
276,160,70539,1,0,3:0:0:0:
120,288,70735,2,0,P|100:248|104:200,1,90,10|10,0:0|0:0,0:0:0:0:
276,44,71127,6,0,P|352:96|452:80,1,180,6|10,3:2|0:0,0:0:0:0:
380,220,71715,2,0,P|304:272|204:256,1,180,2|2,3:0|3:0,0:0:0:0:
188,152,72303,1,10,0:0:0:0:
112,320,72499,1,8,1:0:0:0:
112,320,72597,1,8,1:0:0:0:
112,320,72695,6,0,L|100:208,1,90,0|0,3:0|3:0,0:0:0:0:
266,70,73088,2,0,L|275:159,1,90,8|0,0:0|3:0,0:0:0:0:
102,230,73480,1,2,0:0:0:0:
275,159,73676,1,8,0:0:0:0:
92,144,73872,1,10,0:0:0:0:
288,248,74068,1,8,0:0:0:0:
288,248,74166,1,8,0:0:0:0:
288,248,74264,6,0,B|348:236|364:168|364:168|356:104,1,180,6|10,3:2|0:0,0:0:0:0:
204,216,74852,2,0,B|184:273|235:321|235:321|294:346,1,180,2|2,3:0|3:0,0:0:0:0:
273,159,75441,2,0,P|232:128|165:133,1,90,10|8,0:0|1:0,0:0:0:0:
194,124,75735,1,8,1:0:0:0:
194,124,75833,5,0,3:0:0:0:
40,180,76029,1,8,0:0:0:0:
160,300,76225,1,8,0:0:0:0:
336,84,76421,2,0,P|284:41|218:31,1,135,0|0,3:0|0:0,0:0:0:0:
128,68,76813,2,0,L|80:60,1,45,8|8,0:0|0:0,0:0:0:0:
76,153,77009,2,0,L|36:181,1,45,8|8,0:0|0:0,0:0:0:0:
99,249,77205,2,0,L|91:297,1,45,10|8,0:0|0:0,0:0:0:0:
192,296,77401,5,4,3:2:0:0:
320,296,77597,1,0,3:0:0:0:
192,204,77794,2,0,P|256:172|320:204,1,148.50000453186,14|8,0:0|1:0,0:0:0:0:
185,306,78186,5,0,3:0:0:0:
326,306,78382,1,2,3:0:0:0:
192,204,78578,2,0,P|256:162|320:204,1,161.999995056153,12|8,0:0|1:0,0:0:0:0:
179,316,78970,5,0,3:0:0:0:
332,316,79166,1,2,3:0:0:0:
192,204,79362,2,0,P|256:154|320:204,1,175.499991966248,14|8,0:0|1:0,0:0:0:0:
179,316,79754,5,0,3:0:0:0:
332,316,79950,1,0,3:0:0:0:
192,204,80146,2,0,P|256:146|320:204,1,188.999994232178,12|8,0:0|1:0,0:0:0:0:
371,117,80539,6,0,P|255:59|140:119,1,270,2|2,3:2|0:0,0:0:0:0:
112,196,81323,5,2,0:0:0:0:
400,196,81911,1,14,0:0:0:0:
256,192,82107,12,2,85245,0:0:0:0:
