osu file format v14

[General]
AudioFilename: audio.mp3
AudioLeadIn: 0
PreviewTime: 118620
Countdown: 0
SampleSet: Normal
StackLeniency: 0.7
Mode: 3
LetterboxInBreaks: 0
SpecialStyle: 0
WidescreenStoryboard: 1

[Editor]
Bookmarks: -93,11904,23946,47942,58440,59939,84029,95933,108319,119928,143924,168013,191915,204010,215910,239999,251903,275899,287994,299992
DistanceSpacing: 0.8
BeatDivisor: 4
GridSize: 16
TimelineZoom: 1

[Metadata]
Title:Misery Fantasy
TitleUnicode:Misery Fantasy
Artist:Aika
ArtistUnicode:Aika
Creator:Amagashita
Version:Normal
Source:EDM
Tags:
BeatmapID:3688822
BeatmapSetID:1799446

[Difficulty]
HPDrainRate:8
CircleSize:4
OverallDifficulty:7
ApproachRate:5
SliderMultiplier:1.4
SliderTickRate:1

[Events]
//Background and Video events
0,0,"artworks-CPXbzQWzIzEodPbS-JaVzOg-t500x500.jpg",0,0
//Break Periods
//Storyboard Layer 0 (Background)
//Storyboard Layer 1 (Fail)
//Storyboard Layer 2 (Pass)
//Storyboard Layer 3 (Foreground)
//Storyboard Layer 4 (Overlay)
//Storyboard Sound Samples

[TimingPoints]
0,375,4,1,0,50,1,0
84033,375,4,1,0,50,1,0
96053,-100,4,1,0,50,0,0
120073,-100,4,1,0,50,0,0

[HitObjects]
448,192,1500,128,0,2250:0:0:0:0:
192,192,2250,128,0,3000:0:0:0:0:
64,192,3000,128,0,3750:0:0:0:0:
192,192,3750,128,0,4500:0:0:0:0:
448,192,4500,128,0,5250:0:0:0:0:
320,192,5250,128,0,6000:0:0:0:0:
64,192,6000,128,0,6750:0:0:0:0:
192,192,6750,128,0,7500:0:0:0:0:
320,192,7500,128,0,8062:0:0:0:0:
64,192,8062,128,0,8437:0:0:0:0:
448,192,8437,128,0,9000:0:0:0:0:
192,192,9000,128,0,10500:0:0:0:0:
320,192,10500,128,0,11250:0:0:0:0:
448,192,11250,128,0,12000:0:0:0:0:
320,192,12000,5,0,0:0:0:0:
192,192,12000,1,4,0:0:0:0:
64,192,12375,1,8,0:0:0:0:
192,192,12562,1,4,0:0:0:0:
448,192,12750,1,0,0:0:0:0:
320,192,12937,1,4,0:0:0:0:
192,192,13125,1,8,0:0:0:0:
320,192,13312,1,0,0:0:0:0:
192,192,13500,1,4,0:0:0:0:
448,192,13500,1,0,0:0:0:0:
64,192,13687,1,0,0:0:0:0:
192,192,13875,1,12,0:0:0:0:
320,192,14062,1,4,0:0:0:0:
64,192,14250,1,0,0:0:0:0:
192,192,14437,1,4,0:0:0:0:
448,192,14625,1,8,0:0:0:0:
320,192,14812,1,0,0:0:0:0:
192,192,15000,1,0,0:0:0:0:
448,192,15000,1,4,0:0:0:0:
320,192,15187,1,0,0:0:0:0:
192,192,15375,1,8,0:0:0:0:
64,192,15562,1,4,0:0:0:0:
320,192,15750,1,0,0:0:0:0:
64,192,15937,1,4,0:0:0:0:
320,192,16125,1,8,0:0:0:0:
64,192,16312,1,0,0:0:0:0:
192,192,16500,1,4,0:0:0:0:
320,192,16500,1,0,0:0:0:0:
448,192,16687,1,0,0:0:0:0:
64,192,16875,1,8,0:0:0:0:
448,192,17062,1,4,0:0:0:0:
192,192,17250,1,0,0:0:0:0:
320,192,17437,1,4,0:0:0:0:
64,192,17625,1,8,0:0:0:0:
192,192,17812,1,0,0:0:0:0:
320,192,18000,1,0,0:0:0:0:
448,192,18000,1,4,0:0:0:0:
192,192,18187,1,0,0:0:0:0:
64,192,18375,1,8,0:0:0:0:
320,192,18562,1,4,0:0:0:0:
192,192,18750,1,0,0:0:0:0:
320,192,18937,1,4,0:0:0:0:
192,192,19125,1,8,0:0:0:0:
448,192,19312,1,0,0:0:0:0:
64,192,19500,1,4,0:0:0:0:
320,192,19500,1,0,0:0:0:0:
192,192,19687,1,0,0:0:0:0:
320,192,19875,1,8,0:0:0:0:
64,192,20062,1,4,0:0:0:0:
192,192,20250,1,0,0:0:0:0:
448,192,20437,1,4,0:0:0:0:
192,192,20625,1,8,0:0:0:0:
320,192,20812,1,0,0:0:0:0:
192,192,21000,1,0,0:0:0:0:
448,192,21000,1,4,0:0:0:0:
64,192,21187,1,0,0:0:0:0:
320,192,21375,1,8,0:0:0:0:
192,192,21562,1,4,0:0:0:0:
320,192,21750,1,0,0:0:0:0:
448,192,21937,1,4,0:0:0:0:
64,192,22125,1,8,0:0:0:0:
448,192,22312,1,0,0:0:0:0:
192,192,22500,5,0,0:0:0:0:
320,192,22500,128,4,22875:0:0:0:0:
64,192,22875,1,8,0:0:0:0:
192,192,23062,128,0,23625:0:0:0:0:
448,192,23062,1,4,0:0:0:0:
64,192,23625,128,0,24000:0:0:0:0:
320,192,24000,1,4,0:0:0:0:
192,192,24187,1,0,0:0:0:0:
64,192,24375,1,8,0:0:0:0:
320,192,24375,1,0,0:0:0:0:
192,192,24562,1,4,0:0:0:0:
448,192,24750,1,0,0:0:0:0:
320,192,24937,1,4,0:0:0:0:
192,192,25125,1,8,0:0:0:0:
448,192,25125,1,0,0:0:0:0:
64,192,25312,1,0,0:0:0:0:
320,192,25500,1,4,0:0:0:0:
192,192,25500,1,0,0:0:0:0:
320,192,25687,1,0,0:0:0:0:
192,192,25875,1,8,0:0:0:0:
448,192,25875,1,0,0:0:0:0:
64,192,26062,1,4,0:0:0:0:
320,192,26250,1,0,0:0:0:0:
192,192,26437,1,4,0:0:0:0:
448,192,26625,1,8,0:0:0:0:
320,192,26812,1,4,0:0:0:0:
64,192,27000,1,0,0:0:0:0:
192,192,27000,1,4,0:0:0:0:
320,192,27187,1,0,0:0:0:0:
448,192,27375,1,8,0:0:0:0:
192,192,27562,1,4,0:0:0:0:
64,192,27750,1,0,0:0:0:0:
192,192,27937,1,4,0:0:0:0:
448,192,28125,1,8,0:0:0:0:
320,192,28125,1,4,0:0:0:0:
192,192,28312,1,0,0:0:0:0:
64,192,28500,1,0,0:0:0:0:
320,192,28500,1,4,0:0:0:0:
448,192,28687,1,0,0:0:0:0:
320,192,28875,1,8,0:0:0:0:
192,192,28875,1,0,0:0:0:0:
192,192,29062,1,4,0:0:0:0:
64,192,29250,1,0,0:0:0:0:
448,192,29250,1,0,0:0:0:0:
320,192,29437,1,4,0:0:0:0:
192,192,29625,1,8,0:0:0:0:
64,192,29812,1,4,0:0:0:0:
320,192,30000,1,4,0:0:0:0:
448,192,30000,1,0,0:0:0:0:
192,192,30187,1,0,0:0:0:0:
64,192,30375,1,0,0:0:0:0:
320,192,30375,1,4,0:0:0:0:
192,192,30562,1,4,0:0:0:0:
64,192,30750,1,0,0:0:0:0:
320,192,30937,1,4,0:0:0:0:
64,192,31125,1,8,0:0:0:0:
320,192,31312,1,0,0:0:0:0:
192,192,31500,1,0,0:0:0:0:
448,192,31500,1,4,0:0:0:0:
320,192,31687,1,0,0:0:0:0:
192,192,31875,1,8,0:0:0:0:
64,192,31875,1,0,0:0:0:0:
320,192,32062,1,4,0:0:0:0:
192,192,32250,1,0,0:0:0:0:
448,192,32437,1,4,0:0:0:0:
320,192,32625,1,8,0:0:0:0:
192,192,32812,1,4,0:0:0:0:
64,192,33000,1,0,0:0:0:0:
320,192,33000,1,4,0:0:0:0:
448,192,33187,1,0,0:0:0:0:
192,192,33375,1,8,0:0:0:0:
320,192,33375,1,0,0:0:0:0:
448,192,33562,1,4,0:0:0:0:
192,192,33750,1,0,0:0:0:0:
64,192,33937,1,4,0:0:0:0:
192,192,34125,1,8,0:0:0:0:
448,192,34125,1,0,0:0:0:0:
320,192,34312,1,0,0:0:0:0:
448,192,34500,1,4,0:0:0:0:
192,192,34500,1,0,0:0:0:0:
64,192,34687,1,0,0:0:0:0:
320,192,34875,1,8,0:0:0:0:
192,192,35062,1,4,0:0:0:0:
448,192,35250,1,0,0:0:0:0:
320,192,35437,1,4,0:0:0:0:
64,192,35625,1,8,0:0:0:0:
192,192,35812,1,4,0:0:0:0:
64,192,36000,1,0,0:0:0:0:
320,192,36000,1,4,0:0:0:0:
320,192,36187,1,0,0:0:0:0:
448,192,36375,1,8,0:0:0:0:
192,192,36375,1,0,0:0:0:0:
320,192,36562,1,4,0:0:0:0:
64,192,36750,1,0,0:0:0:0:
192,192,36937,1,4,0:0:0:0:
320,192,37125,1,8,0:0:0:0:
64,192,37125,1,0,0:0:0:0:
448,192,37312,1,0,0:0:0:0:
192,192,37500,1,4,0:0:0:0:
320,192,37500,1,0,0:0:0:0:
192,192,37687,1,0,0:0:0:0:
320,192,37875,1,8,0:0:0:0:
64,192,37875,1,0,0:0:0:0:
448,192,38062,1,4,0:0:0:0:
192,192,38250,1,0,0:0:0:0:
320,192,38437,1,4,0:0:0:0:
64,192,38625,1,8,0:0:0:0:
192,192,38812,1,4,0:0:0:0:
448,192,39000,1,0,0:0:0:0:
320,192,39000,1,4,0:0:0:0:
192,192,39187,1,0,0:0:0:0:
64,192,39375,1,8,0:0:0:0:
320,192,39562,1,4,0:0:0:0:
448,192,39750,1,0,0:0:0:0:
320,192,39937,1,4,0:0:0:0:
64,192,40125,1,0,0:0:0:0:
192,192,40125,1,4,0:0:0:0:
320,192,40312,1,0,0:0:0:0:
448,192,40500,1,4,0:0:0:0:
192,192,40500,1,0,0:0:0:0:
64,192,40687,1,0,0:0:0:0:
192,192,40875,1,0,0:0:0:0:
320,192,40875,1,8,0:0:0:0:
320,192,41062,1,4,0:0:0:0:
448,192,41250,1,0,0:0:0:0:
64,192,41250,1,0,0:0:0:0:
192,192,41437,1,4,0:0:0:0:
320,192,41625,1,0,0:0:0:0:
448,192,41812,1,4,0:0:0:0:
192,192,42000,1,4,0:0:0:0:
64,192,42000,1,0,0:0:0:0:
320,192,42187,1,0,0:0:0:0:
448,192,42375,1,8,0:0:0:0:
192,192,42375,1,0,0:0:0:0:
320,192,42562,1,4,0:0:0:0:
448,192,42750,1,0,0:0:0:0:
192,192,42937,1,4,0:0:0:0:
448,192,43125,1,8,0:0:0:0:
192,192,43312,1,0,0:0:0:0:
320,192,43500,1,4,0:0:0:0:
64,192,43500,1,0,0:0:0:0:
192,192,43687,1,0,0:0:0:0:
320,192,43875,1,8,0:0:0:0:
448,192,43875,1,0,0:0:0:0:
192,192,44062,1,4,0:0:0:0:
320,192,44250,1,0,0:0:0:0:
64,192,44437,1,4,0:0:0:0:
192,192,44625,1,8,0:0:0:0:
320,192,44812,1,4,0:0:0:0:
448,192,45000,1,4,0:0:0:0:
192,192,45000,1,0,0:0:0:0:
64,192,45187,1,0,0:0:0:0:
320,192,45375,1,0,0:0:0:0:
192,192,45375,1,8,0:0:0:0:
64,192,45562,1,4,0:0:0:0:
320,192,45750,1,0,0:0:0:0:
448,192,45937,1,4,0:0:0:0:
320,192,46125,1,0,0:0:0:0:
64,192,46125,1,8,0:0:0:0:
320,192,46312,1,0,0:0:0:0:
448,192,46500,1,0,0:0:0:0:
192,192,46500,1,4,0:0:0:0:
64,192,46687,1,0,0:0:0:0:
320,192,46875,5,4,0:0:0:0:
192,192,47062,1,4,0:0:0:0:
448,192,47250,1,0,0:0:0:0:
320,192,47437,1,4,0:0:0:0:
64,192,47625,1,0,0:0:0:0:
192,192,47812,1,0,0:0:0:0:
320,192,48000,5,4,0:0:0:0:
448,192,48000,1,0,0:0:0:0:
192,192,48187,1,0,0:0:0:0:
320,192,48375,1,4,0:0:0:0:
64,192,48375,1,0,0:0:0:0:
320,192,48562,1,0,0:0:0:0:
448,192,48750,1,0,0:0:0:0:
192,192,48750,1,4,0:0:0:0:
320,192,48937,1,0,0:0:0:0:
192,192,49125,1,4,0:0:0:0:
64,192,49125,1,0,0:0:0:0:
320,192,49312,1,0,0:0:0:0:
320,192,49500,1,4,0:0:0:0:
192,192,49500,1,0,0:0:0:0:
448,192,49687,1,0,0:0:0:0:
320,192,49875,1,0,0:0:0:0:
64,192,49875,1,4,0:0:0:0:
192,192,50062,1,0,0:0:0:0:
320,192,50250,1,4,0:0:0:0:
448,192,50250,1,0,0:0:0:0:
192,192,50437,1,0,0:0:0:0:
64,192,50625,1,4,0:0:0:0:
320,192,50625,1,0,0:0:0:0:
448,192,50812,1,0,0:0:0:0:
192,192,51000,1,4,0:0:0:0:
320,192,51000,1,0,0:0:0:0:
192,192,51187,1,0,0:0:0:0:
64,192,51375,1,0,0:0:0:0:
320,192,51375,1,4,0:0:0:0:
320,192,51562,1,0,0:0:0:0:
192,192,51750,1,4,0:0:0:0:
448,192,51750,1,0,0:0:0:0:
448,192,51937,1,0,0:0:0:0:
192,192,52125,1,0,0:0:0:0:
320,192,52125,1,4,0:0:0:0:
192,192,52312,1,0,0:0:0:0:
64,192,52500,1,4,0:0:0:0:
320,192,52500,1,0,0:0:0:0:
320,192,52687,1,0,0:0:0:0:
192,192,52875,1,0,0:0:0:0:
448,192,52875,1,4,0:0:0:0:
320,192,53062,1,0,0:0:0:0:
192,192,53250,1,4,0:0:0:0:
64,192,53250,1,0,0:0:0:0:
320,192,53437,1,0,0:0:0:0:
192,192,53625,1,0,0:0:0:0:
448,192,53625,1,4,0:0:0:0:
192,192,53812,1,0,0:0:0:0:
64,192,54000,1,4,0:0:0:0:
320,192,54000,1,0,0:0:0:0:
448,192,54187,1,0,0:0:0:0:
192,192,54375,1,0,0:0:0:0:
320,192,54375,1,4,0:0:0:0:
64,192,54562,1,0,0:0:0:0:
448,192,54750,1,4,0:0:0:0:
192,192,54750,1,0,0:0:0:0:
320,192,54937,1,0,0:0:0:0:
448,192,55125,1,0,0:0:0:0:
64,192,55125,1,4,0:0:0:0:
192,192,55312,1,0,0:0:0:0:
64,192,55500,1,0,0:0:0:0:
320,192,55500,1,4,0:0:0:0:
192,192,55687,1,0,0:0:0:0:
448,192,55875,1,4,0:0:0:0:
320,192,55875,1,0,0:0:0:0:
192,192,56062,1,0,0:0:0:0:
64,192,56250,1,4,0:0:0:0:
320,192,56250,1,0,0:0:0:0:
192,192,56437,1,0,0:0:0:0:
448,192,56625,1,4,0:0:0:0:
320,192,56625,1,0,0:0:0:0:
192,192,56812,1,0,0:0:0:0:
64,192,57000,1,4,0:0:0:0:
448,192,57000,1,0,0:0:0:0:
320,192,57187,1,0,0:0:0:0:
64,192,57375,5,4,0:0:0:0:
448,192,57375,1,0,0:0:0:0:
192,192,57562,1,0,0:0:0:0:
448,192,57750,1,0,0:0:0:0:
320,192,57750,1,4,0:0:0:0:
192,192,57937,1,0,0:0:0:0:
320,192,58125,1,4,0:0:0:0:
64,192,58125,1,0,0:0:0:0:
192,192,58312,1,0,0:0:0:0:
448,192,58500,5,0,0:0:0:0:
192,192,58687,1,0,0:0:0:0:
320,192,58875,1,0,0:0:0:0:
64,192,59062,1,0,0:0:0:0:
448,192,59250,1,0,0:0:0:0:
320,192,59437,1,0,0:0:0:0:
192,192,59625,128,0,60000:0:0:0:0:
64,192,60000,1,4,0:0:0:0:
320,192,60000,1,0,0:0:0:0:
448,192,60187,1,0,0:0:0:0:
64,192,60375,1,8,0:0:0:0:
192,192,60562,1,0,0:0:0:0:
320,192,60750,1,4,0:0:0:0:
64,192,60750,1,0,0:0:0:0:
448,192,60937,1,0,0:0:0:0:
320,192,61125,1,8,0:0:0:0:
192,192,61312,1,0,0:0:0:0:
64,192,61500,1,4,0:0:0:0:
448,192,61500,1,0,0:0:0:0:
320,192,61687,1,0,0:0:0:0:
192,192,61875,1,8,0:0:0:0:
320,192,62062,1,0,0:0:0:0:
448,192,62250,1,0,0:0:0:0:
192,192,62250,1,4,0:0:0:0:
64,192,62437,1,0,0:0:0:0:
320,192,62531,1,4,0:0:0:0:
192,192,62625,1,12,0:0:0:0:
448,192,62812,1,4,0:0:0:0:
192,192,63000,1,0,0:0:0:0:
320,192,63000,1,4,0:0:0:0:
64,192,63187,1,0,0:0:0:0:
320,192,63375,1,8,0:0:0:0:
192,192,63562,1,0,0:0:0:0:
320,192,63750,1,4,0:0:0:0:
192,192,63937,1,0,0:0:0:0:
448,192,64125,1,8,0:0:0:0:
64,192,64125,1,4,0:0:0:0:
320,192,64312,1,0,0:0:0:0:
64,192,64500,1,0,0:0:0:0:
192,192,64500,1,4,0:0:0:0:
320,192,64687,1,0,0:0:0:0:
192,192,64875,1,8,0:0:0:0:
448,192,65062,1,0,0:0:0:0:
64,192,65156,1,4,0:0:0:0:
448,192,65250,1,4,0:0:0:0:
192,192,65343,1,0,0:0:0:0:
320,192,65437,1,4,0:0:0:0:
192,192,65531,1,0,0:0:0:0:
64,192,65625,1,12,0:0:0:0:
448,192,65718,1,0,0:0:0:0:
192,192,65812,1,4,0:0:0:0:
320,192,66000,1,4,0:0:0:0:
64,192,66000,1,0,0:0:0:0:
448,192,66187,1,0,0:0:0:0:
192,192,66375,1,12,0:0:0:0:
320,192,66562,1,0,0:0:0:0:
192,192,66750,1,0,0:0:0:0:
448,192,66750,1,4,0:0:0:0:
64,192,66937,1,0,0:0:0:0:
320,192,67125,1,8,0:0:0:0:
192,192,67312,1,0,0:0:0:0:
64,192,67500,1,0,0:0:0:0:
320,192,67500,1,4,0:0:0:0:
192,192,67687,1,0,0:0:0:0:
64,192,67875,1,4,0:0:0:0:
448,192,67875,1,8,0:0:0:0:
192,192,68062,1,0,0:0:0:0:
320,192,68250,1,4,0:0:0:0:
64,192,68437,1,0,0:0:0:0:
320,192,68531,1,4,0:0:0:0:
192,192,68625,1,12,0:0:0:0:
448,192,68812,1,4,0:0:0:0:
320,192,69000,1,4,0:0:0:0:
192,192,69000,1,0,0:0:0:0:
64,192,69187,1,0,0:0:0:0:
192,192,69375,1,12,0:0:0:0:
448,192,69562,1,0,0:0:0:0:
320,192,69750,1,12,0:0:0:0:
192,192,69937,1,0,0:0:0:0:
320,192,70125,1,12,0:0:0:0:
64,192,70312,1,0,0:0:0:0:
192,192,70500,1,4,0:0:0:0:
320,192,70500,1,0,0:0:0:0:
448,192,70687,1,0,0:0:0:0:
64,192,70875,1,0,0:0:0:0:
192,192,71062,1,0,0:0:0:0:
448,192,71250,1,0,0:0:0:0:
320,192,71250,1,4,0:0:0:0:
64,192,71437,1,0,0:0:0:0:
320,192,71437,1,4,0:0:0:0:
64,192,71625,1,0,0:0:0:0:
192,192,71625,128,4,72000:0:0:0:0:
448,192,72000,1,0,0:0:0:0:
320,192,72000,1,4,0:0:0:0:
192,192,72187,1,0,0:0:0:0:
320,192,72375,1,4,0:0:0:0:
64,192,72375,1,8,0:0:0:0:
448,192,72562,1,0,0:0:0:0:
320,192,72750,1,4,0:0:0:0:
64,192,72937,1,0,0:0:0:0:
192,192,73125,1,4,0:0:0:0:
320,192,73125,1,8,0:0:0:0:
192,192,73312,1,0,0:0:0:0:
320,192,73500,1,4,0:0:0:0:
64,192,73500,1,0,0:0:0:0:
192,192,73687,1,0,0:0:0:0:
448,192,73875,1,12,0:0:0:0:
320,192,74062,1,0,0:0:0:0:
448,192,74250,1,0,0:0:0:0:
192,192,74250,1,4,0:0:0:0:
64,192,74437,1,0,0:0:0:0:
320,192,74625,1,12,0:0:0:0:
192,192,74812,1,4,0:0:0:0:
64,192,75000,1,0,0:0:0:0:
320,192,75000,1,4,0:0:0:0:
448,192,75187,1,0,0:0:0:0:
192,192,75375,1,12,0:0:0:0:
320,192,75562,1,0,0:0:0:0:
192,192,75750,1,0,0:0:0:0:
64,192,75750,1,4,0:0:0:0:
320,192,75937,1,0,0:0:0:0:
448,192,76125,1,12,0:0:0:0:
64,192,76312,1,0,0:0:0:0:
192,192,76500,1,4,0:0:0:0:
320,192,76500,1,0,0:0:0:0:
448,192,76687,1,0,0:0:0:0:
192,192,76875,1,12,0:0:0:0:
320,192,76968,1,0,0:0:0:0:
64,192,77062,1,0,0:0:0:0:
448,192,77156,1,4,0:0:0:0:
320,192,77250,1,4,0:0:0:0:
192,192,77250,1,0,0:0:0:0:
64,192,77437,1,4,0:0:0:0:
320,192,77531,1,0,0:0:0:0:
192,192,77625,1,12,0:0:0:0:
448,192,77718,1,0,0:0:0:0:
320,192,77812,1,4,0:0:0:0:
192,192,78000,1,0,0:0:0:0:
448,192,78000,1,4,0:0:0:0:
320,192,78187,1,0,0:0:0:0:
192,192,78375,1,4,0:0:0:0:
64,192,78375,1,8,0:0:0:0:
320,192,78562,1,0,0:0:0:0:
448,192,78750,1,4,0:0:0:0:
192,192,78937,1,0,0:0:0:0:
320,192,79125,1,4,0:0:0:0:
448,192,79125,1,8,0:0:0:0:
64,192,79312,1,0,0:0:0:0:
192,192,79500,1,4,0:0:0:0:
448,192,79687,1,0,0:0:0:0:
320,192,79875,1,8,0:0:0:0:
192,192,79875,1,4,0:0:0:0:
64,192,80062,1,0,0:0:0:0:
448,192,80250,1,4,0:0:0:0:
192,192,80437,1,0,0:0:0:0:
320,192,80625,1,8,0:0:0:0:
64,192,80625,1,4,0:0:0:0:
192,192,80812,1,4,0:0:0:0:
320,192,81000,1,0,0:0:0:0:
448,192,81000,1,4,0:0:0:0:
192,192,81187,1,0,0:0:0:0:
64,192,81375,5,12,0:0:0:0:
320,192,81562,1,0,0:0:0:0:
448,192,81750,1,0,0:0:0:0:
192,192,81750,1,4,0:0:0:0:
320,192,81937,1,0,0:0:0:0:
192,192,82031,1,0,0:0:0:0:
320,192,82125,1,12,0:0:0:0:
64,192,82312,1,0,0:0:0:0:
448,192,82500,5,4,0:0:0:0:
320,192,82500,1,0,0:0:0:0:
192,192,82687,1,0,0:0:0:0:
320,192,82875,5,0,0:0:0:0:
64,192,83062,1,0,0:0:0:0:
448,192,83250,1,0,0:0:0:0:
320,192,83437,1,0,0:0:0:0:
192,192,83625,1,0,0:0:0:0:
64,192,83812,1,0,0:0:0:0:
320,192,84000,1,0,0:0:0:0:
64,192,84220,1,0,0:0:0:0:
448,192,84408,1,0,0:0:0:0:
64,192,84595,1,0,0:0:0:0:
320,192,84783,1,0,0:0:0:0:
64,192,84970,1,0,0:0:0:0:
448,192,85158,1,0,0:0:0:0:
64,192,85345,1,0,0:0:0:0:
320,192,85533,1,0,0:0:0:0:
64,192,85720,1,0,0:0:0:0:
448,192,85908,1,0,0:0:0:0:
64,192,86095,1,0,0:0:0:0:
320,192,86283,1,0,0:0:0:0:
192,192,86470,1,0,0:0:0:0:
320,192,86564,1,0,0:0:0:0:
64,192,86658,1,0,0:0:0:0:
448,192,86845,1,0,0:0:0:0:
192,192,87033,1,0,0:0:0:0:
448,192,87220,1,0,0:0:0:0:
64,192,87408,1,0,0:0:0:0:
448,192,87595,1,0,0:0:0:0:
192,192,87783,1,0,0:0:0:0:
448,192,87970,1,0,0:0:0:0:
64,192,88158,1,0,0:0:0:0:
448,192,88345,1,0,0:0:0:0:
192,192,88533,1,0,0:0:0:0:
448,192,88720,1,0,0:0:0:0:
64,192,88908,1,0,0:0:0:0:
448,192,89095,1,0,0:0:0:0:
192,192,89283,1,0,0:0:0:0:
320,192,89470,1,0,0:0:0:0:
64,192,89658,1,0,0:0:0:0:
448,192,89751,1,0,0:0:0:0:
192,192,89845,1,0,0:0:0:0:
320,192,89939,1,0,0:0:0:0:
64,192,90033,1,0,0:0:0:0:
320,192,90220,1,0,0:0:0:0:
320,192,90408,1,0,0:0:0:0:
448,192,90595,1,0,0:0:0:0:
64,192,90783,1,0,0:0:0:0:
320,192,90970,1,0,0:0:0:0:
192,192,91158,1,0,0:0:0:0:
448,192,91345,1,0,0:0:0:0:
64,192,91533,1,0,0:0:0:0:
192,192,91720,1,0,0:0:0:0:
64,192,91908,1,0,0:0:0:0:
448,192,92095,1,0,0:0:0:0:
320,192,92283,1,0,0:0:0:0:
192,192,92470,1,0,0:0:0:0:
448,192,92658,1,0,0:0:0:0:
64,192,92751,1,0,0:0:0:0:
320,192,92939,1,0,0:0:0:0:
192,192,93033,1,0,0:0:0:0:
320,192,93220,1,0,0:0:0:0:
64,192,93408,1,0,0:0:0:0:
192,192,93595,1,0,0:0:0:0:
448,192,93783,1,0,0:0:0:0:
320,192,93970,1,0,0:0:0:0:
192,192,94158,1,0,0:0:0:0:
320,192,94345,1,0,0:0:0:0:
448,192,94533,1,0,0:0:0:0:
64,192,94720,1,0,0:0:0:0:
320,192,94908,5,0,0:0:0:0:
192,192,95095,1,0,0:0:0:0:
448,192,95283,1,0,0:0:0:0:
64,192,95470,1,0,0:0:0:0:
320,192,95658,1,0,0:0:0:0:
192,192,95845,1,0,0:0:0:0:
64,192,96033,128,0,98939:0:0:0:0:
448,192,96033,1,8,0:0:0:0:
192,192,96220,1,0,0:0:0:0:
320,192,96408,1,8,0:0:0:0:
192,192,96595,1,0,0:0:0:0:
448,192,96783,1,8,0:0:0:0:
192,192,96970,1,0,0:0:0:0:
320,192,97158,1,8,0:0:0:0:
192,192,97345,1,0,0:0:0:0:
448,192,97533,1,8,0:0:0:0:
192,192,97720,1,0,0:0:0:0:
320,192,97908,1,8,0:0:0:0:
192,192,98095,1,0,0:0:0:0:
448,192,98283,1,8,0:0:0:0:
192,192,98470,1,0,0:0:0:0:
448,192,98658,1,8,0:0:0:0:
320,192,98845,1,0,0:0:0:0:
448,192,99033,128,0,101939:0:0:0:0:
192,192,99033,1,8,0:0:0:0:
320,192,99220,1,0,0:0:0:0:
64,192,99408,1,8,0:0:0:0:
320,192,99595,1,0,0:0:0:0:
192,192,99783,1,8,0:0:0:0:
320,192,99970,1,0,0:0:0:0:
64,192,100158,1,8,0:0:0:0:
320,192,100345,1,0,0:0:0:0:
192,192,100533,1,8,0:0:0:0:
320,192,100720,1,0,0:0:0:0:
64,192,100908,1,8,0:0:0:0:
320,192,101095,1,0,0:0:0:0:
192,192,101283,1,8,0:0:0:0:
64,192,101470,1,0,0:0:0:0:
192,192,101658,1,8,0:0:0:0:
320,192,101751,1,0,0:0:0:0:
192,192,101845,1,0,0:0:0:0:
64,192,101939,1,0,0:0:0:0:
192,192,102033,128,0,104939:0:0:0:0:
320,192,102033,1,8,0:0:0:0:
448,192,102220,1,0,0:0:0:0:
64,192,102408,1,8,0:0:0:0:
448,192,102595,1,0,0:0:0:0:
320,192,102783,1,8,0:0:0:0:
448,192,102970,1,0,0:0:0:0:
64,192,103158,1,8,0:0:0:0:
448,192,103345,1,0,0:0:0:0:
320,192,103533,1,8,0:0:0:0:
448,192,103720,1,0,0:0:0:0:
64,192,103908,1,8,0:0:0:0:
448,192,104095,1,0,0:0:0:0:
320,192,104283,1,8,0:0:0:0:
448,192,104470,1,0,0:0:0:0:
64,192,104658,1,8,0:0:0:0:
448,192,104751,1,0,0:0:0:0:
320,192,104845,1,0,0:0:0:0:
64,192,104939,1,0,0:0:0:0:
320,192,105033,128,0,108033:0:0:0:0:
448,192,105033,1,8,0:0:0:0:
64,192,105220,1,0,0:0:0:0:
192,192,105408,1,8,0:0:0:0:
64,192,105595,1,0,0:0:0:0:
448,192,105783,1,8,0:0:0:0:
64,192,105970,1,0,0:0:0:0:
192,192,106158,1,8,0:0:0:0:
64,192,106345,1,0,0:0:0:0:
448,192,106533,1,8,0:0:0:0:
64,192,106720,1,0,0:0:0:0:
192,192,106908,1,8,0:0:0:0:
64,192,107095,1,0,0:0:0:0:
448,192,107283,1,8,0:0:0:0:
64,192,107470,1,0,0:0:0:0:
192,192,107658,1,8,0:0:0:0:
64,192,107751,1,0,0:0:0:0:
448,192,107939,1,0,0:0:0:0:
192,192,108033,1,8,0:0:0:0:
64,192,108033,1,4,0:0:0:0:
192,192,108220,1,0,0:0:0:0:
448,192,108408,1,4,0:0:0:0:
320,192,108408,1,0,0:0:0:0:
192,192,108595,1,0,0:0:0:0:
320,192,108783,1,4,0:0:0:0:
64,192,108783,1,8,0:0:0:0:
320,192,108970,1,0,0:0:0:0:
192,192,109158,1,4,0:0:0:0:
448,192,109158,1,8,0:0:0:0:
64,192,109345,1,0,0:0:0:0:
320,192,109533,1,8,0:0:0:0:
192,192,109533,1,4,0:0:0:0:
448,192,109720,1,0,0:0:0:0:
320,192,109908,1,4,0:0:0:0:
64,192,109908,1,8,0:0:0:0:
192,192,110095,1,0,0:0:0:0:
64,192,110283,1,8,0:0:0:0:
448,192,110283,1,4,0:0:0:0:
320,192,110470,1,0,0:0:0:0:
192,192,110658,1,4,0:0:0:0:
448,192,110658,1,8,0:0:0:0:
64,192,110845,1,0,0:0:0:0:
448,192,111033,1,8,0:0:0:0:
192,192,111033,1,4,0:0:0:0:
192,192,111220,1,0,0:0:0:0:
64,192,111408,1,8,0:0:0:0:
320,192,111408,1,4,0:0:0:0:
448,192,111595,1,0,0:0:0:0:
192,192,111783,1,4,0:0:0:0:
320,192,111783,1,8,0:0:0:0:
192,192,111970,1,0,0:0:0:0:
64,192,112158,1,8,0:0:0:0:
448,192,112158,1,4,0:0:0:0:
320,192,112345,1,0,0:0:0:0:
192,192,112533,1,4,0:0:0:0:
64,192,112533,1,8,0:0:0:0:
320,192,112720,1,0,0:0:0:0:
192,192,112908,1,4,0:0:0:0:
448,192,112908,1,8,0:0:0:0:
320,192,113095,1,0,0:0:0:0:
448,192,113283,1,4,0:0:0:0:
64,192,113283,1,8,0:0:0:0:
192,192,113470,1,0,0:0:0:0:
64,192,113658,1,4,0:0:0:0:
320,192,113658,1,8,0:0:0:0:
192,192,113845,1,0,0:0:0:0:
320,192,114033,1,12,0:0:0:0:
448,192,114220,1,12,0:0:0:0:
320,192,114408,1,12,0:0:0:0:
192,192,114595,1,12,0:0:0:0:
64,192,114783,1,12,0:0:0:0:
192,192,114970,1,12,0:0:0:0:
320,192,115158,1,12,0:0:0:0:
448,192,115345,1,12,0:0:0:0:
320,192,115533,1,12,0:0:0:0:
192,192,115720,1,12,0:0:0:0:
64,192,115908,1,12,0:0:0:0:
192,192,116095,1,12,0:0:0:0:
320,192,116283,1,12,0:0:0:0:
448,192,116470,1,12,0:0:0:0:
320,192,116564,1,12,0:0:0:0:
192,192,116658,1,12,0:0:0:0:
64,192,116751,1,12,0:0:0:0:
192,192,116845,1,12,0:0:0:0:
320,192,116939,1,12,0:0:0:0:
448,192,117033,1,4,0:0:0:0:
320,192,117126,1,4,0:0:0:0:
192,192,117220,1,4,0:0:0:0:
64,192,117314,1,4,0:0:0:0:
192,192,117408,1,4,0:0:0:0:
320,192,117501,1,4,0:0:0:0:
448,192,117595,1,4,0:0:0:0:
320,192,117689,1,4,0:0:0:0:
192,192,117783,1,4,0:0:0:0:
64,192,117876,1,4,0:0:0:0:
192,192,117970,1,4,0:0:0:0:
320,192,118064,1,4,0:0:0:0:
448,192,118158,1,4,0:0:0:0:
320,192,118251,1,4,0:0:0:0:
192,192,118345,1,4,0:0:0:0:
64,192,118439,1,4,0:0:0:0:
320,192,118533,1,4,0:0:0:0:
192,192,118720,1,0,0:0:0:0:
320,192,118908,128,0,119095:0:0:0:0:
448,192,119095,1,0,0:0:0:0:
64,192,119283,128,0,119376:0:0:0:0:
192,192,119470,128,0,119658:0:0:0:0:
320,192,119658,128,0,120033:0:0:0:0:
448,192,119845,1,0,0:0:0:0:
64,192,120033,128,0,120408:0:0:0:0:
192,192,120033,1,4,0:0:0:0:
448,192,120408,1,8,0:0:0:0:
192,192,120595,1,0,0:0:0:0:
320,192,120783,1,0,0:0:0:0:
64,192,120970,1,0,0:0:0:0:
448,192,121158,128,0,121533:0:0:0:0:
320,192,121158,1,8,0:0:0:0:
64,192,121345,1,4,0:0:0:0:
192,192,121533,128,4,122001:0:0:0:0:
320,192,121720,1,4,0:0:0:0:
448,192,121908,1,8,0:0:0:0:
64,192,122189,1,8,0:0:0:0:
320,192,122376,1,0,0:0:0:0:
448,192,122564,1,4,0:0:0:0:
192,192,122564,1,0,0:0:0:0:
64,192,122751,1,0,0:0:0:0:
448,192,122845,1,4,0:0:0:0:
320,192,123033,128,0,123408:0:0:0:0:
192,192,123033,1,4,0:0:0:0:
64,192,123408,1,8,0:0:0:0:
448,192,123595,1,4,0:0:0:0:
192,192,123783,1,0,0:0:0:0:
320,192,123970,1,4,0:0:0:0:
64,192,123970,1,0,0:0:0:0:
192,192,124158,1,4,0:0:0:0:
448,192,124345,1,0,0:0:0:0:
320,192,124533,1,4,0:0:0:0:
192,192,124533,1,0,0:0:0:0:
64,192,124720,1,4,0:0:0:0:
448,192,124720,1,0,0:0:0:0:
320,192,124908,1,8,0:0:0:0:
192,192,125095,1,4,0:0:0:0:
448,192,125095,1,0,0:0:0:0:
64,192,125283,1,0,0:0:0:0:
448,192,125376,1,0,0:0:0:0:
320,192,125470,128,0,125658:0:0:0:0:
448,192,125658,128,0,125845:0:0:0:0:
64,192,125845,128,0,126033:0:0:0:0:
192,192,126033,128,0,126408:0:0:0:0:
320,192,126033,1,4,0:0:0:0:
320,192,126408,128,0,126783:0:0:0:0:
64,192,126408,1,4,0:0:0:0:
448,192,126783,128,0,127345:0:0:0:0:
192,192,126783,1,8,0:0:0:0:
192,192,127345,128,0,127533:0:0:0:0:
64,192,127345,1,4,0:0:0:0:
320,192,127533,128,0,127814:0:0:0:0:
448,192,127533,1,4,0:0:0:0:
64,192,127908,128,0,128095:0:0:0:0:
192,192,127908,1,4,0:0:0:0:
320,192,128283,128,0,129033:0:0:0:0:
192,192,128283,1,8,0:0:0:0:
448,192,128470,1,0,0:0:0:0:
192,192,128658,1,0,0:0:0:0:
64,192,128751,1,4,0:0:0:0:
448,192,128845,1,0,0:0:0:0:
64,192,129033,1,4,0:0:0:0:
192,192,129033,128,0,129408:0:0:0:0:
320,192,129408,1,0,0:0:0:0:
64,192,129501,1,0,0:0:0:0:
192,192,129595,1,4,0:0:0:0:
448,192,129595,128,0,129970:0:0:0:0:
64,192,129970,1,0,0:0:0:0:
320,192,130064,1,0,0:0:0:0:
192,192,130158,128,4,130533:0:0:0:0:
64,192,130533,1,4,0:0:0:0:
320,192,130533,128,0,131283:0:0:0:0:
192,192,130720,1,0,0:0:0:0:
64,192,130908,1,8,0:0:0:0:
448,192,131095,1,0,0:0:0:0:
64,192,131283,128,4,131658:0:0:0:0:
192,192,131470,1,0,0:0:0:0:
448,192,131658,1,8,0:0:0:0:
320,192,131751,1,0,0:0:0:0:
192,192,131845,1,0,0:0:0:0:
64,192,131939,1,0,0:0:0:0:
320,192,132033,128,0,132408:0:0:0:0:
192,192,132033,1,4,0:0:0:0:
448,192,132408,128,0,132689:0:0:0:0:
64,192,132408,1,8,0:0:0:0:
192,192,132876,1,0,0:0:0:0:
320,192,133064,1,0,0:0:0:0:
64,192,133158,128,0,133533:0:0:0:0:
320,192,133345,1,4,0:0:0:0:
448,192,133533,128,0,133720:0:0:0:0:
192,192,133533,1,4,0:0:0:0:
320,192,133720,128,0,133908:0:0:0:0:
64,192,133720,1,4,0:0:0:0:
192,192,133908,1,8,0:0:0:0:
64,192,134095,1,0,0:0:0:0:
448,192,134189,1,8,0:0:0:0:
320,192,134189,1,0,0:0:0:0:
192,192,134283,1,0,0:0:0:0:
64,192,134376,1,0,0:0:0:0:
448,192,134470,1,0,0:0:0:0:
192,192,134564,128,4,134845:0:0:0:0:
64,192,134658,1,8,0:0:0:0:
320,192,134845,1,4,0:0:0:0:
192,192,135033,1,4,0:0:0:0:
448,192,135033,128,0,135408:0:0:0:0:
320,192,135408,1,8,0:0:0:0:
192,192,135595,1,4,0:0:0:0:
64,192,135783,1,0,0:0:0:0:
192,192,135970,1,0,0:0:0:0:
448,192,135970,1,4,0:0:0:0:
320,192,136158,1,8,0:0:0:0:
192,192,136345,1,0,0:0:0:0:
64,192,136533,128,4,136720:0:0:0:0:
320,192,136720,128,4,136908:0:0:0:0:
192,192,136908,1,8,0:0:0:0:
320,192,137095,1,4,0:0:0:0:
64,192,137095,1,0,0:0:0:0:
448,192,137283,1,0,0:0:0:0:
192,192,137376,1,0,0:0:0:0:
448,192,137470,128,0,137658:0:0:0:0:
320,192,137658,128,8,137845:0:0:0:0:
64,192,137845,128,8,138033:0:0:0:0:
320,192,138033,128,4,138314:0:0:0:0:
192,192,138033,1,0,0:0:0:0:
64,192,138408,128,0,138689:0:0:0:0:
448,192,138408,1,4,0:0:0:0:
320,192,138783,128,0,139533:0:0:0:0:
192,192,138783,1,8,0:0:0:0:
448,192,138970,1,0,0:0:0:0:
64,192,139158,1,0,0:0:0:0:
192,192,139345,1,4,0:0:0:0:
64,192,139533,1,4,0:0:0:0:
448,192,139533,128,0,139814:0:0:0:0:
192,192,139908,128,0,140189:0:0:0:0:
320,192,139908,1,4,0:0:0:0:
448,192,140283,1,8,0:0:0:0:
64,192,140283,128,0,141033:0:0:0:0:
320,192,140470,1,0,0:0:0:0:
192,192,140658,1,8,0:0:0:0:
320,192,140845,1,12,0:0:0:0:
192,192,141033,128,4,141408:0:0:0:0:
448,192,141033,1,0,0:0:0:0:
448,192,141408,1,0,0:0:0:0:
64,192,141501,1,0,0:0:0:0:
320,192,141595,128,0,141970:0:0:0:0:
192,192,141595,1,4,0:0:0:0:
192,192,141970,1,0,0:0:0:0:
448,192,142064,1,0,0:0:0:0:
64,192,142158,128,0,142533:0:0:0:0:
320,192,142158,1,4,0:0:0:0:
320,192,142533,128,4,143283:0:0:0:0:
448,192,142533,1,0,0:0:0:0:
192,192,142720,1,0,0:0:0:0:
64,192,142908,1,8,0:0:0:0:
192,192,143095,1,0,0:0:0:0:
448,192,143283,1,0,0:0:0:0:
192,192,143470,1,0,0:0:0:0:
320,192,143658,1,0,0:0:0:0:
64,192,143845,1,0,0:0:0:0:
192,192,144033,1,4,0:0:0:0:
448,192,144220,1,0,0:0:0:0:
64,192,144408,1,4,0:0:0:0:
448,192,144595,1,0,0:0:0:0:
192,192,144783,1,4,0:0:0:0:
448,192,144970,1,0,0:0:0:0:
64,192,145158,1,4,0:0:0:0:
448,192,145345,1,0,0:0:0:0:
192,192,145533,1,4,0:0:0:0:
448,192,145720,1,0,0:0:0:0:
64,192,145908,1,4,0:0:0:0:
448,192,146095,1,0,0:0:0:0:
192,192,146283,1,4,0:0:0:0:
320,192,146470,1,0,0:0:0:0:
192,192,146564,1,0,0:0:0:0:
448,192,146658,1,4,0:0:0:0:
64,192,146845,1,0,0:0:0:0:
320,192,147033,1,4,0:0:0:0:
64,192,147220,1,0,0:0:0:0:
448,192,147408,1,4,0:0:0:0:
64,192,147595,1,0,0:0:0:0:
320,192,147783,1,4,0:0:0:0:
64,192,147970,1,0,0:0:0:0:
448,192,148158,1,4,0:0:0:0:
64,192,148345,1,0,0:0:0:0:
320,192,148533,1,4,0:0:0:0:
64,192,148720,1,0,0:0:0:0:
448,192,148908,1,4,0:0:0:0:
64,192,149095,1,0,0:0:0:0:
320,192,149283,1,4,0:0:0:0:
192,192,149470,1,0,0:0:0:0:
448,192,149658,1,4,0:0:0:0:
64,192,149751,1,0,0:0:0:0:
320,192,149845,1,4,0:0:0:0:
192,192,149939,1,0,0:0:0:0:
448,192,150033,1,4,0:0:0:0:
192,192,150220,1,0,0:0:0:0:
192,192,150408,1,4,0:0:0:0:
64,192,150595,1,0,0:0:0:0:
448,192,150783,1,4,0:0:0:0:
192,192,150970,1,0,0:0:0:0:
320,192,151158,1,4,0:0:0:0:
64,192,151345,1,0,0:0:0:0:
448,192,151533,1,4,0:0:0:0:
320,192,151720,1,0,0:0:0:0:
448,192,151908,1,4,0:0:0:0:
64,192,152095,1,0,0:0:0:0:
192,192,152283,1,4,0:0:0:0:
320,192,152470,1,0,0:0:0:0:
64,192,152658,1,4,0:0:0:0:
448,192,152751,1,4,0:0:0:0:
192,192,152845,1,4,0:0:0:0:
320,192,153033,1,4,0:0:0:0:
192,192,153220,1,0,0:0:0:0:
448,192,153408,1,4,0:0:0:0:
320,192,153595,1,0,0:0:0:0:
64,192,153783,1,4,0:0:0:0:
192,192,153970,1,0,0:0:0:0:
320,192,154158,1,4,0:0:0:0:
192,192,154345,1,0,0:0:0:0:
64,192,154533,1,4,0:0:0:0:
448,192,154720,1,0,0:0:0:0:
192,192,154908,5,4,0:0:0:0:
320,192,155095,1,0,0:0:0:0:
64,192,155283,1,4,0:0:0:0:
448,192,155470,1,0,0:0:0:0:
192,192,155658,1,4,0:0:0:0:
320,192,155845,1,0,0:0:0:0:
64,192,156033,1,0,0:0:0:0:
448,192,156033,1,4,0:0:0:0:
192,192,156220,1,0,0:0:0:0:
448,192,156408,1,8,0:0:0:0:
320,192,156408,1,4,0:0:0:0:
192,192,156595,1,0,0:0:0:0:
320,192,156783,1,4,0:0:0:0:
64,192,156783,1,0,0:0:0:0:
320,192,156970,1,0,0:0:0:0:
192,192,157158,1,8,0:0:0:0:
448,192,157158,1,4,0:0:0:0:
64,192,157345,1,0,0:0:0:0:
320,192,157533,1,0,0:0:0:0:
192,192,157533,1,4,0:0:0:0:
448,192,157720,1,0,0:0:0:0:
320,192,157908,1,4,0:0:0:0:
64,192,157908,1,8,0:0:0:0:
192,192,158095,1,0,0:0:0:0:
64,192,158283,1,0,0:0:0:0:
448,192,158283,1,4,0:0:0:0:
320,192,158470,1,0,0:0:0:0:
192,192,158658,1,4,0:0:0:0:
448,192,158658,1,8,0:0:0:0:
64,192,158845,1,4,0:0:0:0:
448,192,159033,1,0,0:0:0:0:
192,192,159033,1,4,0:0:0:0:
192,192,159220,1,0,0:0:0:0:
64,192,159408,1,8,0:0:0:0:
320,192,159408,1,4,0:0:0:0:
448,192,159595,1,0,0:0:0:0:
192,192,159783,1,4,0:0:0:0:
320,192,159783,1,0,0:0:0:0:
192,192,159970,1,0,0:0:0:0:
64,192,160158,1,4,0:0:0:0:
448,192,160158,1,8,0:0:0:0:
320,192,160345,1,0,0:0:0:0:
192,192,160533,1,4,0:0:0:0:
64,192,160533,1,0,0:0:0:0:
320,192,160720,1,0,0:0:0:0:
192,192,160908,1,4,0:0:0:0:
448,192,160908,1,8,0:0:0:0:
320,192,161095,1,0,0:0:0:0:
448,192,161283,1,0,0:0:0:0:
64,192,161283,1,4,0:0:0:0:
192,192,161470,1,0,0:0:0:0:
448,192,161658,1,8,0:0:0:0:
320,192,161658,1,4,0:0:0:0:
192,192,161845,1,4,0:0:0:0:
320,192,162033,1,0,0:0:0:0:
64,192,162033,1,4,0:0:0:0:
320,192,162220,1,0,0:0:0:0:
448,192,162408,1,8,0:0:0:0:
192,192,162408,1,4,0:0:0:0:
192,192,162595,1,0,0:0:0:0:
64,192,162783,1,0,0:0:0:0:
320,192,162783,1,4,0:0:0:0:
448,192,162970,1,0,0:0:0:0:
320,192,163158,1,4,0:0:0:0:
192,192,163158,1,8,0:0:0:0:
64,192,163345,1,0,0:0:0:0:
448,192,163533,1,0,0:0:0:0:
192,192,163533,1,4,0:0:0:0:
320,192,163720,1,0,0:0:0:0:
64,192,163908,1,4,0:0:0:0:
448,192,163908,1,8,0:0:0:0:
192,192,164095,1,0,0:0:0:0:
64,192,164283,1,0,0:0:0:0:
320,192,164283,1,4,0:0:0:0:
448,192,164470,1,0,0:0:0:0:
320,192,164658,1,4,0:0:0:0:
64,192,164658,1,8,0:0:0:0:
320,192,164845,1,4,0:0:0:0:
192,192,165033,1,4,0:0:0:0:
448,192,165033,1,0,0:0:0:0:
64,192,165220,1,0,0:0:0:0:
192,192,165408,1,0,0:0:0:0:
320,192,165408,1,4,0:0:0:0:
320,192,165595,1,0,0:0:0:0:
64,192,165783,1,0,0:0:0:0:
448,192,165783,1,4,0:0:0:0:
192,192,165970,1,0,0:0:0:0:
448,192,166158,1,8,0:0:0:0:
320,192,166158,1,4,0:0:0:0:
192,192,166345,1,0,0:0:0:0:
64,192,166533,1,0,0:0:0:0:
320,192,166533,1,4,0:0:0:0:
192,192,166720,1,0,0:0:0:0:
448,192,166908,1,8,0:0:0:0:
64,192,166908,1,4,0:0:0:0:
320,192,167095,5,0,0:0:0:0:
192,192,167283,1,4,0:0:0:0:
448,192,167283,1,0,0:0:0:0:
64,192,167470,1,0,0:0:0:0:
320,192,167658,1,8,0:0:0:0:
192,192,167658,1,4,0:0:0:0:
448,192,167845,1,4,0:0:0:0:
320,192,168033,1,4,0:0:0:0:
64,192,168220,5,0,0:0:0:0:
192,192,168408,1,0,0:0:0:0:
448,192,168595,1,0,0:0:0:0:
64,192,168783,1,0,0:0:0:0:
448,192,169064,1,0,0:0:0:0:
320,192,169158,1,0,0:0:0:0:
192,192,169345,1,0,0:0:0:0:
320,192,169533,1,0,0:0:0:0:
64,192,169720,1,0,0:0:0:0:
320,192,169908,1,0,0:0:0:0:
192,192,170095,1,0,0:0:0:0:
448,192,170283,1,0,0:0:0:0:
320,192,170470,1,0,0:0:0:0:
448,192,170658,1,0,0:0:0:0:
192,192,170845,1,0,0:0:0:0:
320,192,171033,1,0,0:0:0:0:
64,192,171220,1,0,0:0:0:0:
192,192,171408,1,0,0:0:0:0:
64,192,171595,1,0,0:0:0:0:
448,192,171783,1,0,0:0:0:0:
320,192,171970,1,0,0:0:0:0:
192,192,172158,1,0,0:0:0:0:
320,192,172345,1,0,0:0:0:0:
64,192,172533,1,0,0:0:0:0:
192,192,172720,1,0,0:0:0:0:
320,192,172908,1,0,0:0:0:0:
64,192,173095,1,0,0:0:0:0:
320,192,173283,1,0,0:0:0:0:
448,192,173470,1,0,0:0:0:0:
192,192,173658,1,0,0:0:0:0:
64,192,173845,1,0,0:0:0:0:
320,192,173939,1,0,0:0:0:0:
192,192,174126,1,0,0:0:0:0:
448,192,174314,1,0,0:0:0:0:
320,192,174501,1,0,0:0:0:0:
192,192,174689,1,0,0:0:0:0:
64,192,174876,1,0,0:0:0:0:
320,192,175064,1,0,0:0:0:0:
192,192,175251,1,0,0:0:0:0:
448,192,175439,1,0,0:0:0:0:
192,192,175626,1,0,0:0:0:0:
320,192,175814,1,0,0:0:0:0:
448,192,176001,1,0,0:0:0:0:
64,192,176095,1,0,0:0:0:0:
320,192,176283,1,0,0:0:0:0:
192,192,176470,1,0,0:0:0:0:
448,192,176658,1,0,0:0:0:0:
64,192,176751,1,0,0:0:0:0:
320,192,176939,1,0,0:0:0:0:
192,192,177126,1,0,0:0:0:0:
320,192,177408,1,0,0:0:0:0:
448,192,177595,1,0,0:0:0:0:
192,192,177783,1,0,0:0:0:0:
448,192,177970,1,0,0:0:0:0:
64,192,178158,1,0,0:0:0:0:
448,192,178345,1,0,0:0:0:0:
192,192,178533,1,0,0:0:0:0:
320,192,178720,1,0,0:0:0:0:
192,192,178908,1,0,0:0:0:0:
64,192,179095,1,0,0:0:0:0:
320,192,179283,1,0,0:0:0:0:
192,192,179470,1,0,0:0:0:0:
448,192,179658,1,0,0:0:0:0:
320,192,179845,1,0,0:0:0:0:
192,192,180033,1,0,0:0:0:0:
320,192,180220,1,0,0:0:0:0:
192,192,180408,1,0,0:0:0:0:
64,192,180595,1,0,0:0:0:0:
320,192,180783,1,0,0:0:0:0:
192,192,180970,1,0,0:0:0:0:
320,192,181064,1,0,0:0:0:0:
64,192,181345,1,0,0:0:0:0:
192,192,181533,1,0,0:0:0:0:
64,192,181720,1,0,0:0:0:0:
192,192,181908,1,0,0:0:0:0:
320,192,182095,1,0,0:0:0:0:
448,192,182283,1,0,0:0:0:0:
192,192,182376,1,0,0:0:0:0:
64,192,182470,1,0,0:0:0:0:
192,192,182658,1,0,0:0:0:0:
64,192,182845,1,0,0:0:0:0:
320,192,183033,1,0,0:0:0:0:
448,192,183220,1,0,0:0:0:0:
320,192,183408,1,0,0:0:0:0:
192,192,183595,1,0,0:0:0:0:
448,192,183783,1,0,0:0:0:0:
320,192,183970,1,0,0:0:0:0:
64,192,184158,1,0,0:0:0:0:
448,192,184345,1,0,0:0:0:0:
192,192,184720,1,0,0:0:0:0:
448,192,184908,1,0,0:0:0:0:
192,192,185095,1,0,0:0:0:0:
448,192,185283,1,0,0:0:0:0:
64,192,185470,1,0,0:0:0:0:
320,192,185658,1,0,0:0:0:0:
448,192,185845,1,0,0:0:0:0:
64,192,186033,1,0,0:0:0:0:
320,192,186220,1,0,0:0:0:0:
192,192,186408,1,0,0:0:0:0:
448,192,186595,1,0,0:0:0:0:
64,192,186783,1,0,0:0:0:0:
320,192,186876,1,0,0:0:0:0:
192,192,187064,1,0,0:0:0:0:
448,192,187345,1,0,0:0:0:0:
192,192,187720,1,0,0:0:0:0:
64,192,187908,1,0,0:0:0:0:
320,192,188001,1,0,0:0:0:0:
192,192,188189,1,0,0:0:0:0:
448,192,188376,1,0,0:0:0:0:
320,192,188564,1,0,0:0:0:0:
64,192,188658,1,0,0:0:0:0:
320,192,188751,1,0,0:0:0:0:
192,192,188939,1,0,0:0:0:0:
320,192,189220,1,0,0:0:0:0:
192,192,189408,1,0,0:0:0:0:
64,192,189595,1,0,0:0:0:0:
320,192,189689,1,0,0:0:0:0:
448,192,189876,1,0,0:0:0:0:
320,192,190064,1,0,0:0:0:0:
192,192,190345,1,0,0:0:0:0:
320,192,190720,1,0,0:0:0:0:
64,192,190908,5,0,0:0:0:0:
192,192,191001,1,0,0:0:0:0:
320,192,191095,1,0,0:0:0:0:
448,192,191283,1,0,0:0:0:0:
320,192,191376,1,0,0:0:0:0:
192,192,191470,1,0,0:0:0:0:
320,192,191564,1,0,0:0:0:0:
192,192,191658,1,0,0:0:0:0:
448,192,191751,1,0,0:0:0:0:
64,192,191845,1,0,0:0:0:0:
448,192,191939,1,0,0:0:0:0:
320,192,192033,1,4,0:0:0:0:
192,192,192220,1,0,0:0:0:0:
64,192,192408,1,8,0:0:0:0:
320,192,192408,1,0,0:0:0:0:
192,192,192595,1,4,0:0:0:0:
448,192,192783,1,0,0:0:0:0:
320,192,192970,1,4,0:0:0:0:
192,192,193158,1,8,0:0:0:0:
448,192,193158,1,0,0:0:0:0:
64,192,193345,1,0,0:0:0:0:
320,192,193533,1,4,0:0:0:0:
192,192,193533,1,0,0:0:0:0:
320,192,193720,1,0,0:0:0:0:
192,192,193908,1,8,0:0:0:0:
448,192,193908,1,0,0:0:0:0:
64,192,194095,1,0,0:0:0:0:
320,192,194283,1,0,0:0:0:0:
192,192,194470,1,4,0:0:0:0:
448,192,194658,1,8,0:0:0:0:
320,192,194845,1,4,0:0:0:0:
64,192,195033,1,0,0:0:0:0:
192,192,195033,1,4,0:0:0:0:
320,192,195220,1,0,0:0:0:0:
448,192,195408,1,8,0:0:0:0:
192,192,195595,1,4,0:0:0:0:
64,192,195783,1,0,0:0:0:0:
192,192,195970,1,4,0:0:0:0:
448,192,196158,1,0,0:0:0:0:
320,192,196158,1,8,0:0:0:0:
192,192,196345,1,0,0:0:0:0:
64,192,196533,1,0,0:0:0:0:
320,192,196533,1,4,0:0:0:0:
448,192,196720,1,0,0:0:0:0:
320,192,196908,1,0,0:0:0:0:
192,192,196908,1,8,0:0:0:0:
192,192,197095,1,4,0:0:0:0:
64,192,197283,1,0,0:0:0:0:
448,192,197283,1,0,0:0:0:0:
320,192,197470,1,4,0:0:0:0:
192,192,197658,1,8,0:0:0:0:
64,192,197845,1,4,0:0:0:0:
320,192,198033,1,4,0:0:0:0:
448,192,198033,1,0,0:0:0:0:
192,192,198220,1,0,0:0:0:0:
64,192,198408,1,8,0:0:0:0:
320,192,198408,1,0,0:0:0:0:
192,192,198595,1,4,0:0:0:0:
64,192,198783,1,0,0:0:0:0:
320,192,198970,1,4,0:0:0:0:
64,192,199158,1,8,0:0:0:0:
320,192,199345,1,0,0:0:0:0:
192,192,199533,1,0,0:0:0:0:
448,192,199533,1,4,0:0:0:0:
320,192,199720,1,0,0:0:0:0:
192,192,199908,1,0,0:0:0:0:
64,192,199908,1,4,0:0:0:0:
320,192,200095,1,4,0:0:0:0:
192,192,200283,1,0,0:0:0:0:
448,192,200470,1,4,0:0:0:0:
320,192,200658,1,8,0:0:0:0:
192,192,200845,1,4,0:0:0:0:
64,192,201033,1,0,0:0:0:0:
320,192,201033,1,4,0:0:0:0:
448,192,201220,1,0,0:0:0:0:
192,192,201408,1,8,0:0:0:0:
320,192,201408,1,0,0:0:0:0:
448,192,201595,1,4,0:0:0:0:
192,192,201783,1,0,0:0:0:0:
64,192,201970,1,4,0:0:0:0:
192,192,202158,1,8,0:0:0:0:
448,192,202158,1,0,0:0:0:0:
320,192,202345,1,0,0:0:0:0:
448,192,202533,1,4,0:0:0:0:
192,192,202533,1,0,0:0:0:0:
64,192,202720,1,0,0:0:0:0:
320,192,202908,1,8,0:0:0:0:
192,192,203095,1,4,0:0:0:0:
448,192,203283,1,0,0:0:0:0:
320,192,203470,1,4,0:0:0:0:
64,192,203658,1,8,0:0:0:0:
192,192,203845,1,4,0:0:0:0:
64,192,204033,1,0,0:0:0:0:
320,192,204033,1,4,0:0:0:0:
320,192,204220,1,0,0:0:0:0:
448,192,204408,1,0,0:0:0:0:
192,192,204408,1,8,0:0:0:0:
320,192,204595,1,4,0:0:0:0:
64,192,204783,1,0,0:0:0:0:
192,192,204970,1,4,0:0:0:0:
320,192,205158,1,8,0:0:0:0:
64,192,205158,1,0,0:0:0:0:
448,192,205345,1,0,0:0:0:0:
192,192,205533,1,0,0:0:0:0:
320,192,205533,1,4,0:0:0:0:
192,192,205720,1,0,0:0:0:0:
320,192,205908,1,8,0:0:0:0:
64,192,205908,1,0,0:0:0:0:
448,192,206095,1,4,0:0:0:0:
192,192,206283,1,0,0:0:0:0:
320,192,206470,1,4,0:0:0:0:
64,192,206658,1,8,0:0:0:0:
192,192,206845,1,4,0:0:0:0:
448,192,207033,1,4,0:0:0:0:
320,192,207033,1,0,0:0:0:0:
192,192,207220,1,0,0:0:0:0:
64,192,207408,1,8,0:0:0:0:
320,192,207595,1,4,0:0:0:0:
448,192,207783,1,0,0:0:0:0:
320,192,207970,1,4,0:0:0:0:
64,192,208158,1,8,0:0:0:0:
192,192,208158,1,0,0:0:0:0:
320,192,208345,1,0,0:0:0:0:
448,192,208533,1,0,0:0:0:0:
192,192,208533,1,4,0:0:0:0:
64,192,208720,1,0,0:0:0:0:
192,192,208908,1,0,0:0:0:0:
320,192,208908,1,8,0:0:0:0:
320,192,209095,1,4,0:0:0:0:
448,192,209283,1,0,0:0:0:0:
64,192,209283,1,0,0:0:0:0:
192,192,209470,1,4,0:0:0:0:
320,192,209658,1,8,0:0:0:0:
448,192,209845,1,4,0:0:0:0:
192,192,210033,1,4,0:0:0:0:
64,192,210033,1,0,0:0:0:0:
320,192,210220,1,0,0:0:0:0:
448,192,210408,1,0,0:0:0:0:
192,192,210408,1,8,0:0:0:0:
320,192,210595,1,4,0:0:0:0:
448,192,210783,1,0,0:0:0:0:
192,192,210970,1,4,0:0:0:0:
448,192,211158,1,8,0:0:0:0:
192,192,211345,1,0,0:0:0:0:
320,192,211533,1,4,0:0:0:0:
64,192,211533,1,0,0:0:0:0:
192,192,211720,1,0,0:0:0:0:
320,192,211908,1,0,0:0:0:0:
448,192,211908,1,8,0:0:0:0:
192,192,212095,1,4,0:0:0:0:
320,192,212283,1,0,0:0:0:0:
64,192,212470,1,4,0:0:0:0:
192,192,212658,1,0,0:0:0:0:
320,192,212845,1,4,0:0:0:0:
448,192,213033,1,0,0:0:0:0:
192,192,213033,1,4,0:0:0:0:
64,192,213220,1,0,0:0:0:0:
320,192,213408,5,8,0:0:0:0:
192,192,213408,1,0,0:0:0:0:
64,192,213595,1,4,0:0:0:0:
320,192,213783,1,0,0:0:0:0:
448,192,213970,1,4,0:0:0:0:
320,192,214158,1,8,0:0:0:0:
64,192,214158,1,0,0:0:0:0:
192,192,214345,1,0,0:0:0:0:
64,192,214533,1,4,0:0:0:0:
320,192,214720,1,0,0:0:0:0:
192,192,214908,1,0,0:0:0:0:
320,192,215095,1,0,0:0:0:0:
64,192,215283,1,0,0:0:0:0:
448,192,215470,1,0,0:0:0:0:
192,192,215658,1,0,0:0:0:0:
64,192,215845,1,0,0:0:0:0:
448,192,216033,1,0,0:0:0:0:
192,192,216033,128,0,216689:0:0:0:0:
320,192,216689,128,0,217064:0:0:0:0:
448,192,217158,128,0,217345:0:0:0:0:
64,192,217345,128,0,218376:0:0:0:0:
320,192,217533,128,0,218283:0:0:0:0:
192,192,218283,1,0,0:0:0:0:
320,192,218658,1,0,0:0:0:0:
192,192,218845,1,0,0:0:0:0:
448,192,219033,1,0,0:0:0:0:
64,192,219033,128,0,219220:0:0:0:0:
192,192,219220,1,0,0:0:0:0:
320,192,219408,128,0,219595:0:0:0:0:
192,192,219595,128,0,220158:0:0:0:0:
320,192,220345,1,0,0:0:0:0:
448,192,220345,128,0,221095:0:0:0:0:
192,192,220533,1,0,0:0:0:0:
64,192,220720,1,0,0:0:0:0:
192,192,220908,1,0,0:0:0:0:
320,192,221095,128,0,222033:0:0:0:0:
64,192,221658,1,0,0:0:0:0:
192,192,221845,1,0,0:0:0:0:
64,192,222033,128,0,222314:0:0:0:0:
448,192,222314,128,0,222783:0:0:0:0:
192,192,222783,128,0,223158:0:0:0:0:
64,192,223158,128,0,223345:0:0:0:0:
320,192,223533,128,0,224095:0:0:0:0:
448,192,223720,1,0,0:0:0:0:
192,192,223908,1,0,0:0:0:0:
64,192,224283,1,0,0:0:0:0:
192,192,224283,128,0,224564:0:0:0:0:
448,192,224658,1,0,0:0:0:0:
320,192,224658,128,0,225033:0:0:0:0:
64,192,224751,1,0,0:0:0:0:
64,192,225033,128,0,225595:0:0:0:0:
192,192,225220,1,0,0:0:0:0:
320,192,225595,1,0,0:0:0:0:
192,192,225783,1,0,0:0:0:0:
448,192,225783,128,0,226158:0:0:0:0:
320,192,226345,1,0,0:0:0:0:
192,192,226533,1,0,0:0:0:0:
64,192,226533,128,0,227283:0:0:0:0:
320,192,226720,1,0,0:0:0:0:
448,192,226908,1,0,0:0:0:0:
320,192,227283,128,0,227845:0:0:0:0:
448,192,227470,1,0,0:0:0:0:
192,192,227845,1,0,0:0:0:0:
448,192,228033,1,0,0:0:0:0:
64,192,228033,128,0,230283:0:0:0:0:
320,192,228314,1,0,0:0:0:0:
192,192,228595,1,0,0:0:0:0:
320,192,228783,1,0,0:0:0:0:
448,192,229158,1,0,0:0:0:0:
192,192,229345,1,0,0:0:0:0:
320,192,229720,1,0,0:0:0:0:
192,192,229908,1,0,0:0:0:0:
320,192,230283,128,0,231033:0:0:0:0:
448,192,230658,1,0,0:0:0:0:
64,192,230845,1,0,0:0:0:0:
192,192,231033,128,0,231408:0:0:0:0:
64,192,231408,128,0,232064:0:0:0:0:
320,192,232064,1,0,0:0:0:0:
448,192,232064,128,0,232345:0:0:0:0:
192,192,232345,1,0,0:0:0:0:
320,192,232533,128,0,232908:0:0:0:0:
64,192,232720,1,0,0:0:0:0:
192,192,232908,128,0,233095:0:0:0:0:
448,192,233283,128,0,233564:0:0:0:0:
64,192,233564,128,0,233845:0:0:0:0:
320,192,233845,1,0,0:0:0:0:
192,192,234033,128,0,236001:0:0:0:0:
448,192,234595,1,0,0:0:0:0:
64,192,234783,1,0,0:0:0:0:
320,192,235158,1,0,0:0:0:0:
448,192,235345,1,0,0:0:0:0:
64,192,235720,1,0,0:0:0:0:
320,192,235908,1,0,0:0:0:0:
64,192,236095,1,0,0:0:0:0:
448,192,236283,128,0,236845:0:0:0:0:
320,192,236376,1,0,0:0:0:0:
64,192,236564,1,0,0:0:0:0:
320,192,236658,1,0,0:0:0:0:
192,192,236845,1,0,0:0:0:0:
64,192,237033,128,0,237595:0:0:0:0:
448,192,237314,1,0,0:0:0:0:
320,192,237595,1,0,0:0:0:0:
192,192,237783,128,0,238064:0:0:0:0:
64,192,238158,128,0,238345:0:0:0:0:
320,192,238533,128,0,239095:0:0:0:0:
448,192,238533,1,0,0:0:0:0:
192,192,238908,1,0,0:0:0:0:
64,192,239095,1,0,0:0:0:0:
192,192,239095,128,0,240033:0:0:0:0:
448,192,239283,1,0,0:0:0:0:
320,192,239376,1,0,0:0:0:0:
448,192,239658,1,0,0:0:0:0:
64,192,239845,1,0,0:0:0:0:
320,192,239845,1,0,0:0:0:0:
448,192,240033,128,4,242283:0:0:0:0:
320,192,240408,1,0,0:0:0:0:
192,192,240783,1,0,0:0:0:0:
64,192,240876,1,0,0:0:0:0:
192,192,240970,1,0,0:0:0:0:
64,192,241345,1,0,0:0:0:0:
192,192,241533,128,0,241908:0:0:0:0:
320,192,241533,1,4,0:0:0:0:
320,192,242095,1,0,0:0:0:0:
64,192,242283,1,0,0:0:0:0:
192,192,242376,1,0,0:0:0:0:
320,192,242470,1,0,0:0:0:0:
64,192,242658,1,0,0:0:0:0:
192,192,242845,1,0,0:0:0:0:
320,192,243033,128,0,243408:0:0:0:0:
64,192,243033,1,4,0:0:0:0:
192,192,243408,1,0,0:0:0:0:
448,192,243595,1,0,0:0:0:0:
192,192,243783,1,0,0:0:0:0:
64,192,243876,1,0,0:0:0:0:
192,192,243970,1,0,0:0:0:0:
320,192,244158,128,0,244533:0:0:0:0:
448,192,244158,1,4,0:0:0:0:
192,192,244533,128,0,245658:0:0:0:0:
64,192,244533,1,4,0:0:0:0:
448,192,244908,1,0,0:0:0:0:
64,192,245095,1,0,0:0:0:0:
320,192,245283,1,0,0:0:0:0:
64,192,245470,1,0,0:0:0:0:
448,192,245658,128,0,246033:0:0:0:0:
320,192,245658,1,4,0:0:0:0:
192,192,246033,1,4,0:0:0:0:
320,192,246220,1,0,0:0:0:0:
448,192,246408,1,4,0:0:0:0:
320,192,246595,1,0,0:0:0:0:
192,192,246783,1,4,0:0:0:0:
64,192,246970,1,0,0:0:0:0:
192,192,247158,1,4,0:0:0:0:
320,192,247345,1,0,0:0:0:0:
448,192,247533,1,4,0:0:0:0:
320,192,247720,1,0,0:0:0:0:
192,192,247908,1,4,0:0:0:0:
64,192,248095,1,0,0:0:0:0:
192,192,248283,1,4,0:0:0:0:
320,192,248470,1,0,0:0:0:0:
448,192,248658,1,4,0:0:0:0:
320,192,248845,1,0,0:0:0:0:
192,192,249033,1,4,0:0:0:0:
64,192,249220,1,4,0:0:0:0:
192,192,249408,1,4,0:0:0:0:
320,192,249595,1,4,0:0:0:0:
192,192,249783,1,4,0:0:0:0:
448,192,249876,1,0,0:0:0:0:
64,192,249970,1,4,0:0:0:0:
320,192,250064,1,4,0:0:0:0:
192,192,250158,1,4,0:0:0:0:
448,192,250251,1,4,0:0:0:0:
64,192,250345,1,4,0:0:0:0:
192,192,250439,1,4,0:0:0:0:
64,192,250533,128,0,251283:0:0:0:0:
448,192,251283,128,0,252033:0:0:0:0:
320,192,252033,128,0,253533:0:0:0:0:
192,192,252033,1,4,0:0:0:0:
64,192,252408,1,0,0:0:0:0:
448,192,252595,1,0,0:0:0:0:
192,192,252783,1,0,0:0:0:0:
64,192,252876,1,0,0:0:0:0:
192,192,252970,1,0,0:0:0:0:
64,192,253158,1,0,0:0:0:0:
448,192,253345,1,0,0:0:0:0:
64,192,253533,1,4,0:0:0:0:
192,192,253533,128,0,254658:0:0:0:0:
448,192,253908,1,0,0:0:0:0:
64,192,254095,1,0,0:0:0:0:
448,192,254283,1,0,0:0:0:0:
64,192,254376,1,0,0:0:0:0:
320,192,254470,1,0,0:0:0:0:
448,192,254658,1,0,0:0:0:0:
320,192,254845,1,0,0:0:0:0:
192,192,255033,128,0,255783:0:0:0:0:
448,192,255033,1,4,0:0:0:0:
320,192,255408,1,0,0:0:0:0:
64,192,255595,1,4,0:0:0:0:
320,192,255783,1,0,0:0:0:0:
448,192,255876,1,0,0:0:0:0:
64,192,255970,1,0,0:0:0:0:
320,192,256158,128,0,256908:0:0:0:0:
192,192,256158,1,4,0:0:0:0:
448,192,256345,1,0,0:0:0:0:
64,192,256533,1,0,0:0:0:0:
448,192,256720,1,0,0:0:0:0:
192,192,256908,1,4,0:0:0:0:
64,192,257095,1,0,0:0:0:0:
448,192,257283,1,8,0:0:0:0:
320,192,257376,1,0,0:0:0:0:
192,192,257470,1,4,0:0:0:0:
320,192,257564,1,0,0:0:0:0:
448,192,257658,1,0,0:0:0:0:
64,192,257845,1,0,0:0:0:0:
192,192,257845,1,0,0:0:0:0:
320,192,258033,128,0,258408:0:0:0:0:
448,192,258033,1,4,0:0:0:0:
64,192,258408,1,0,0:0:0:0:
192,192,258595,1,4,0:0:0:0:
448,192,258783,1,8,0:0:0:0:
192,192,258876,1,0,0:0:0:0:
320,192,258970,128,0,259158:0:0:0:0:
64,192,259158,1,4,0:0:0:0:
192,192,259345,128,0,259908:0:0:0:0:
320,192,259345,1,0,0:0:0:0:
448,192,259908,1,4,0:0:0:0:
320,192,260095,1,0,0:0:0:0:
192,192,260283,1,8,0:0:0:0:
64,192,260376,1,4,0:0:0:0:
192,192,260470,1,0,0:0:0:0:
448,192,260658,1,0,0:0:0:0:
320,192,260845,1,0,0:0:0:0:
64,192,261033,128,0,261408:0:0:0:0:
448,192,261033,1,4,0:0:0:0:
320,192,261408,1,0,0:0:0:0:
192,192,261595,1,4,0:0:0:0:
448,192,261783,1,8,0:0:0:0:
320,192,261876,1,0,0:0:0:0:
192,192,261970,128,0,262158:0:0:0:0:
64,192,262158,1,4,0:0:0:0:
448,192,262345,1,0,0:0:0:0:
320,192,262533,128,0,262908:0:0:0:0:
64,192,262533,1,4,0:0:0:0:
192,192,262908,1,4,0:0:0:0:
320,192,263095,1,0,0:0:0:0:
192,192,263283,1,4,0:0:0:0:
320,192,263376,1,0,0:0:0:0:
448,192,263470,1,0,0:0:0:0:
320,192,263658,1,4,0:0:0:0:
192,192,263845,1,0,0:0:0:0:
64,192,264033,128,0,264408:0:0:0:0:
320,192,264033,1,4,0:0:0:0:
320,192,264408,1,0,0:0:0:0:
192,192,264595,1,4,0:0:0:0:
448,192,264783,1,0,0:0:0:0:
64,192,264970,1,0,0:0:0:0:
320,192,264970,128,0,265158:0:0:0:0:
192,192,265158,1,4,0:0:0:0:
64,192,265345,1,0,0:0:0:0:
192,192,265533,128,0,265908:0:0:0:0:
448,192,265908,1,4,0:0:0:0:
320,192,266095,1,0,0:0:0:0:
192,192,266189,1,0,0:0:0:0:
320,192,266283,1,0,0:0:0:0:
448,192,266376,1,0,0:0:0:0:
64,192,266470,1,4,0:0:0:0:
320,192,266658,1,0,0:0:0:0:
448,192,266751,1,0,0:0:0:0:
192,192,266845,1,0,0:0:0:0:
64,192,267033,128,0,267408:0:0:0:0:
448,192,267033,1,4,0:0:0:0:
192,192,267408,1,0,0:0:0:0:
448,192,267595,1,0,0:0:0:0:
320,192,267595,1,4,0:0:0:0:
64,192,267783,1,0,0:0:0:0:
192,192,267876,1,0,0:0:0:0:
320,192,267970,1,0,0:0:0:0:
64,192,268064,1,0,0:0:0:0:
192,192,268158,1,4,0:0:0:0:
448,192,268345,1,0,0:0:0:0:
320,192,268533,128,0,268908:0:0:0:0:
64,192,268533,1,0,0:0:0:0:
192,192,268908,1,4,0:0:0:0:
448,192,269095,1,0,0:0:0:0:
64,192,269283,1,8,0:0:0:0:
192,192,269376,1,0,0:0:0:0:
448,192,269470,1,0,0:0:0:0:
192,192,269658,1,0,0:0:0:0:
320,192,269845,1,0,0:0:0:0:
64,192,270033,5,0,0:0:0:0:
192,192,270033,1,4,0:0:0:0:
320,192,270220,1,0,0:0:0:0:
448,192,270408,1,4,0:0:0:0:
320,192,270595,1,0,0:0:0:0:
64,192,270783,1,4,0:0:0:0:
192,192,270970,1,0,0:0:0:0:
320,192,271158,1,4,0:0:0:0:
192,192,271345,1,0,0:0:0:0:
320,192,271533,1,4,0:0:0:0:
192,192,271720,1,4,0:0:0:0:
448,192,271908,1,4,0:0:0:0:
64,192,272095,1,4,0:0:0:0:
320,192,272283,1,4,0:0:0:0:
192,192,272376,1,4,0:0:0:0:
320,192,272470,1,4,0:0:0:0:
64,192,272564,1,4,0:0:0:0:
448,192,272658,1,4,0:0:0:0:
320,192,272845,1,4,0:0:0:0:
448,192,273033,128,0,273408:0:0:0:0:
64,192,273033,1,4,0:0:0:0:
192,192,273408,1,0,0:0:0:0:
320,192,273595,1,4,0:0:0:0:
192,192,273689,1,4,0:0:0:0:
64,192,273783,128,0,274158:0:0:0:0:
448,192,273783,1,4,0:0:0:0:
320,192,274158,1,0,0:0:0:0:
192,192,274345,1,4,0:0:0:0:
448,192,274345,1,0,0:0:0:0:
320,192,274533,128,0,274908:0:0:0:0:
64,192,274533,1,4,0:0:0:0:
192,192,274908,1,0,0:0:0:0:
448,192,275095,1,0,0:0:0:0:
192,192,275283,1,0,0:0:0:0:
320,192,275376,1,0,0:0:0:0:
192,192,275470,1,0,0:0:0:0:
448,192,275658,1,0,0:0:0:0:
64,192,275845,1,0,0:0:0:0:
320,192,276033,1,4,0:0:0:0:
192,192,276220,1,0,0:0:0:0:
64,192,276408,1,4,0:0:0:0:
448,192,276595,1,4,0:0:0:0:
320,192,276783,1,4,0:0:0:0:
192,192,276970,1,0,0:0:0:0:
320,192,277064,1,4,0:0:0:0:
64,192,277251,1,0,0:0:0:0:
192,192,277345,1,4,0:0:0:0:
64,192,277533,1,0,0:0:0:0:
448,192,277533,1,4,0:0:0:0:
192,192,277720,1,0,0:0:0:0:
320,192,277814,1,0,0:0:0:0:
448,192,277908,1,4,0:0:0:0:
320,192,278095,1,4,0:0:0:0:
192,192,278095,1,0,0:0:0:0:
64,192,278283,1,4,0:0:0:0:
192,192,278376,1,0,0:0:0:0:
320,192,278470,1,0,0:0:0:0:
448,192,278564,1,0,0:0:0:0:
192,192,278564,1,4,0:0:0:0:
64,192,278658,1,0,0:0:0:0:
320,192,278845,1,0,0:0:0:0:
192,192,278845,1,4,0:0:0:0:
448,192,278939,1,0,0:0:0:0:
320,192,279033,1,4,0:0:0:0:
64,192,279220,1,0,0:0:0:0:
192,192,279408,1,4,0:0:0:0:
320,192,279408,1,0,0:0:0:0:
320,192,279595,1,4,0:0:0:0:
192,192,279783,1,0,0:0:0:0:
448,192,279783,1,4,0:0:0:0:
64,192,279970,1,0,0:0:0:0:
192,192,280064,1,4,0:0:0:0:
320,192,280158,1,0,0:0:0:0:
192,192,280251,1,0,0:0:0:0:
320,192,280345,1,4,0:0:0:0:
448,192,280345,1,0,0:0:0:0:
64,192,280533,1,4,0:0:0:0:
192,192,280533,1,0,0:0:0:0:
320,192,280720,1,0,0:0:0:0:
192,192,280908,1,0,0:0:0:0:
448,192,280908,1,4,0:0:0:0:
192,192,281095,1,4,0:0:0:0:
64,192,281283,1,0,0:0:0:0:
320,192,281283,1,4,0:0:0:0:
448,192,281376,1,0,0:0:0:0:
192,192,281470,1,0,0:0:0:0:
320,192,281564,1,4,0:0:0:0:
448,192,281658,1,0,0:0:0:0:
192,192,281751,1,0,0:0:0:0:
448,192,281845,1,0,0:0:0:0:
320,192,281845,1,4,0:0:0:0:
192,192,281939,1,4,0:0:0:0:
320,192,282033,1,0,0:0:0:0:
64,192,282033,1,4,0:0:0:0:
192,192,282220,1,0,0:0:0:0:
448,192,282408,1,4,0:0:0:0:
320,192,282595,1,4,0:0:0:0:
64,192,282783,1,4,0:0:0:0:
192,192,282783,1,0,0:0:0:0:
320,192,282970,1,0,0:0:0:0:
448,192,283064,1,4,0:0:0:0:
192,192,283251,1,0,0:0:0:0:
64,192,283345,1,4,0:0:0:0:
320,192,283533,1,4,0:0:0:0:
192,192,283533,1,0,0:0:0:0:
448,192,283720,1,0,0:0:0:0:
192,192,283908,1,4,0:0:0:0:
64,192,284095,1,4,0:0:0:0:
192,192,284283,1,0,0:0:0:0:
320,192,284283,1,4,0:0:0:0:
448,192,284376,1,0,0:0:0:0:
320,192,284470,1,0,0:0:0:0:
64,192,284564,1,4,0:0:0:0:
448,192,284658,1,0,0:0:0:0:
192,192,284845,1,4,0:0:0:0:
64,192,284939,1,0,0:0:0:0:
448,192,284939,1,4,0:0:0:0:
320,192,285033,1,4,0:0:0:0:
64,192,285220,1,0,0:0:0:0:
192,192,285314,1,0,0:0:0:0:
320,192,285408,1,0,0:0:0:0:
448,192,285408,1,4,0:0:0:0:
192,192,285595,1,4,0:0:0:0:
320,192,285783,1,0,0:0:0:0:
64,192,285783,1,4,0:0:0:0:
448,192,285970,1,0,0:0:0:0:
320,192,286064,1,4,0:0:0:0:
192,192,286158,1,0,0:0:0:0:
448,192,286251,1,0,0:0:0:0:
320,192,286345,1,0,0:0:0:0:
192,192,286345,1,4,0:0:0:0:
64,192,286439,1,0,0:0:0:0:
192,192,286533,1,4,0:0:0:0:
320,192,286720,1,0,0:0:0:0:
192,192,286908,1,0,0:0:0:0:
448,192,286908,1,4,0:0:0:0:
320,192,287095,1,4,0:0:0:0:
192,192,287283,1,4,0:0:0:0:
64,192,287376,1,0,0:0:0:0:
320,192,287470,1,4,0:0:0:0:
448,192,287564,1,0,0:0:0:0:
320,192,287658,1,0,0:0:0:0:
192,192,287658,1,0,0:0:0:0:
64,192,287845,1,0,0:0:0:0:
448,192,287845,1,4,0:0:0:0:
320,192,287939,1,0,0:0:0:0:
192,192,288033,1,4,0:0:0:0:
320,192,288220,1,0,0:0:0:0:
192,192,288408,1,4,0:0:0:0:
448,192,288408,1,8,0:0:0:0:
192,192,288595,1,4,0:0:0:0:
64,192,288783,1,8,0:0:0:0:
320,192,288783,1,4,0:0:0:0:
448,192,288970,1,0,0:0:0:0:
192,192,289064,1,4,0:0:0:0:
320,192,289158,1,0,0:0:0:0:
448,192,289158,1,8,0:0:0:0:
192,192,289345,1,4,0:0:0:0:
64,192,289345,1,0,0:0:0:0:
320,192,289533,1,12,0:0:0:0:
192,192,289720,1,0,0:0:0:0:
448,192,289908,1,4,0:0:0:0:
64,192,289908,1,8,0:0:0:0:
320,192,290095,1,4,0:0:0:0:
192,192,290283,1,12,0:0:0:0:
320,192,290376,1,0,0:0:0:0:
448,192,290470,1,0,0:0:0:0:
320,192,290564,1,4,0:0:0:0:
192,192,290564,1,0,0:0:0:0:
64,192,290658,1,8,0:0:0:0:
192,192,290845,1,4,0:0:0:0:
448,192,290845,1,0,0:0:0:0:
320,192,291033,1,4,0:0:0:0:
64,192,291033,1,8,0:0:0:0:
192,192,291220,1,0,0:0:0:0:
320,192,291314,1,0,0:0:0:0:
192,192,291408,1,4,0:0:0:0:
448,192,291595,1,4,0:0:0:0:
320,192,291783,1,12,0:0:0:0:
192,192,291970,1,0,0:0:0:0:
320,192,292064,1,4,0:0:0:0:
64,192,292158,1,8,0:0:0:0:
192,192,292251,1,0,0:0:0:0:
448,192,292345,1,8,0:0:0:0:
64,192,292345,1,0,0:0:0:0:
320,192,292533,1,8,0:0:0:0:
192,192,292533,1,4,0:0:0:0:
448,192,292720,1,0,0:0:0:0:
320,192,292814,1,0,0:0:0:0:
192,192,292908,1,4,0:0:0:0:
64,192,292908,1,8,0:0:0:0:
320,192,293095,1,4,0:0:0:0:
192,192,293283,1,12,0:0:0:0:
448,192,293376,1,0,0:0:0:0:
320,192,293470,1,0,0:0:0:0:
192,192,293564,1,4,0:0:0:0:
64,192,293564,1,0,0:0:0:0:
320,192,293658,1,8,0:0:0:0:
448,192,293845,1,4,0:0:0:0:
192,192,293939,1,4,0:0:0:0:
320,192,294033,1,12,0:0:0:0:
64,192,294220,1,0,0:0:0:0:
192,192,294408,1,8,0:0:0:0:
448,192,294408,1,0,0:0:0:0:
320,192,294595,1,4,0:0:0:0:
192,192,294783,1,12,0:0:0:0:
448,192,294970,1,0,0:0:0:0:
192,192,295064,1,0,0:0:0:0:
320,192,295064,1,4,0:0:0:0:
64,192,295158,1,8,0:0:0:0:
192,192,295345,1,4,0:0:0:0:
64,192,295533,1,8,0:0:0:0:
320,192,295533,1,4,0:0:0:0:
192,192,295720,1,0,0:0:0:0:
320,192,295814,1,0,0:0:0:0:
448,192,295908,1,12,0:0:0:0:
320,192,296095,1,4,0:0:0:0:
192,192,296283,1,12,0:0:0:0:
320,192,296376,1,0,0:0:0:0:
192,192,296470,1,0,0:0:0:0:
64,192,296564,1,4,0:0:0:0:
320,192,296658,1,8,0:0:0:0:
192,192,296845,1,4,0:0:0:0:
448,192,296845,1,0,0:0:0:0:
64,192,296939,1,4,0:0:0:0:
320,192,297033,1,12,0:0:0:0:
192,192,297220,1,0,0:0:0:0:
320,192,297314,1,0,0:0:0:0:
192,192,297408,1,4,0:0:0:0:
64,192,297408,1,8,0:0:0:0:
192,192,297595,1,4,0:0:0:0:
448,192,297595,1,0,0:0:0:0:
320,192,297783,1,4,0:0:0:0:
448,192,297783,1,8,0:0:0:0:
192,192,297970,1,0,0:0:0:0:
64,192,298064,1,4,0:0:0:0:
320,192,298158,1,8,0:0:0:0:
192,192,298251,1,0,0:0:0:0:
320,192,298345,1,4,0:0:0:0:
448,192,298345,1,0,0:0:0:0:
192,192,298533,1,12,0:0:0:0:
64,192,298720,1,0,0:0:0:0:
320,192,298908,5,12,0:0:0:0:
192,192,299095,1,4,0:0:0:0:
320,192,299283,1,4,0:0:0:0:
448,192,299283,1,8,0:0:0:0:
192,192,299376,1,0,0:0:0:0:
320,192,299470,1,0,0:0:0:0:
64,192,299564,1,4,0:0:0:0:
192,192,299658,1,8,0:0:0:0:
64,192,299845,1,0,0:0:0:0:
320,192,299845,1,4,0:0:0:0:
448,192,300033,128,0,301533:0:0:0:0:
192,192,300033,1,4,0:0:0:0:
320,192,301533,128,0,303033:0:0:0:0:
192,192,303033,1,0,0:0:0:0:
64,192,303033,128,0,303783:0:0:0:0:
320,192,303783,128,0,306033:0:0:0:0:
448,192,304533,1,0,0:0:0:0:
192,192,306033,5,0,0:0:0:0:
