osu file format v14

[General]
AudioFilename: audio.mp3
AudioLeadIn: 0
PreviewTime: 60000
Countdown: 0
SampleSet: Soft
StackLeniency: 0.7
Mode: 0
LetterboxInBreaks: 0
WidescreenStoryboard: 1

[Editor]
DistanceSpacing: 1
BeatDivisor: 4
GridSize: 32
TimelineZoom: 1.1

[Metadata]
Title:for... (TV Size)
TitleUnicode:for... (TV Size)
Artist:Aida Rikako
ArtistUnicode:逢田梨香子
Creator:Underforest
Version:Normal
Source:戦×恋(ヴァルラヴ)
Tags:val x love ikusa koi opening japanese anime 早乙女 四乃 shino saotome [_lost_] conner c_o_n_n_e_r
BeatmapID:2197175
BeatmapSetID:1051272

[Difficulty]
HPDrainRate:4
CircleSize:3.5
OverallDifficulty:4
ApproachRate:5
SliderMultiplier:1
SliderTickRate:1

[Events]
//Background and Video events
0,0,"bg.jpg",0,0
Video,-300,"video.flv"
//Break Periods
2,52145,53893
//Storyboard Layer 0 (Background)
//Storyboard Layer 1 (Fail)
//Storyboard Layer 2 (Pass)
//Storyboard Layer 3 (Foreground)
//Storyboard Layer 4 (Overlay)
//Storyboard Sound Samples

[TimingPoints]
1760,370.37037037037,4,2,1,40,1,0
8425,-100,4,2,1,70,0,0
8797,-100,4,2,1,40,0,0
10648,-100,4,2,1,60,0,0
13611,-100,4,2,1,70,0,0
19537,-100,4,2,1,40,0,0
22130,-100,4,2,2,40,0,0
22315,-100,4,2,1,40,0,0
25093,-100,4,2,2,40,0,0
25463,-100,4,2,1,40,0,0
28055,-100,4,2,2,40,0,0
28241,-100,4,2,1,40,0,0
30093,-100,4,2,1,60,0,0
31019,-100,4,2,1,65,0,0
31389,-100,4,2,1,60,0,0
43056,-100,4,2,1,50,0,0
51945,-100,4,2,1,40,0,0
55093,-100,4,2,1,60,0,0
60648,-100,4,2,1,70,0,0
61019,-100,4,2,1,70,0,1
72500,-100,4,2,1,70,0,0
72871,-100,4,2,1,70,0,1
83982,-100,4,2,1,70,0,0
88241,-100,4,2,1,5,0,0

[Colours]
Combo1 : 253,177,94
Combo2 : 255,102,102
Combo3 : 147,193,227
Combo4 : 254,244,133
SliderBorder : 255,255,250
SliderTrackOverride : 30,30,30

[HitObjects]
134,68,1760,6,0,P|214:45|335:114,1,200,10|0,3:0|0:0,0:0:0:0:
384,164,2871,1,2,0:0:0:0:
449,239,3241,2,0,P|449:296|449:349,1,100,2|0,0:0|0:0,0:0:0:0:
351,357,3982,2,0,P|351:314|351:257,1,100,0|2,0:0|0:0,0:0:0:0:
322,216,4537,1,0,0:0:0:0:
283,184,4722,6,0,P|233:173|156:191,1,100,10|0,0:3|0:0,0:0:0:0:
146,211,5278,2,0,P|143:272|138:363,1,150,10|2,0:3|0:0,0:0:0:0:
48,315,6204,2,0,P|50:264|53:215,1,100,10|0,0:3|0:0,0:0:0:0:
101,127,6945,2,0,P|135:118|165:118,1,50,0|0,3:0|3:0,0:0:0:0:
194,138,7315,2,0,P|228:147|258:147,1,50,0|0,3:0|3:0,0:0:0:0:
288,126,7685,6,0,P|342:108|478:136,1,200,10|0,0:3|0:0,0:0:0:0:
445,231,8797,1,2,0:0:0:0:
409,324,9167,2,0,P|347:318|305:314,1,100,2|0,0:0|0:0,0:0:0:0:
213,285,9908,2,0,P|151:291|109:295,1,100,10|0,0:3|1:0,0:0:0:0:
60,210,10648,5,12,0:0:0:0:
60,210,10834,1,8,0:0:0:0:
98,65,11389,1,12,0:0:0:0:
98,65,11574,1,8,0:0:0:0:
204,170,12130,1,12,0:0:0:0:
204,170,12315,1,8,0:0:0:0:
204,170,13611,6,0,P|260:158|324:176,1,100,6|10,1:2|1:2,0:0:0:0:
345,190,14167,2,0,P|401:202|465:184,1,100,2|2,0:0|1:0,0:0:0:0:
465,291,14908,2,0,P|381:305|299:278,1,150,2|8,1:0|0:0,0:0:0:0:
224,256,15834,2,0,P|194:254|152:251,1,50,0|2,0:0|1:0,0:0:0:0:
124,260,16204,2,0,P|94:262|52:265,1,50,10|2,0:0|0:0,0:0:0:0:
34,233,16574,6,0,P|26:185|41:124,1,100,2|10,1:0|0:0,0:0:0:0:
68,97,17130,1,2,1:0:0:0:
167,83,17500,1,2,1:0:0:0:
266,74,17871,2,0,P|318:70|397:65,1,100,6|2,1:0|1:0,0:0:0:0:
409,90,18426,1,10,0:0:0:0:
448,120,18611,2,0,P|456:179|433:241,1,100,6|0,1:0|1:0,0:0:0:0:
431,265,19167,1,8,0:0:0:0:
344,314,19537,6,0,P|274:308|238:305,1,100,6|0,0:0|0:0,0:0:0:0:
194,311,20093,2,0,P|124:305|88:302,1,100,2|2,0:0|0:0,0:0:0:0:
40,217,20834,1,2,3:0:0:0:
40,217,21019,2,0,P|28:167|38:116,1,100,10|0,0:3|0:0,0:0:0:0:
60,76,21574,1,2,0:0:0:0:
158,57,21945,2,0,P|150:8|148:-8,2,50,2|10|2,0:0|0:3|3:0,0:0:0:0:
179,102,22500,6,0,P|176:163|171:232,1,100,10|2,0:3|0:0,0:0:0:0:
199,244,23056,2,0,P|246:254|316:234,1,100,2|2,0:0|0:0,0:0:0:0:
378,187,23797,1,10,3:3:0:0:
378,187,23982,2,0,P|394:242|382:298,1,100,10|0,0:3|0:0,0:0:0:0:
365,328,24537,2,0,P|306:339|244:350,1,100,2|0,0:0|3:0,0:0:0:0:
218,355,25093,1,10,3:3:0:0:
149,281,25463,6,0,P|90:270|28:259,1,100,10|2,0:3|0:0,0:0:0:0:
28,222,26019,2,0,P|23:159|43:110,1,100,2|2,0:0|0:0,0:0:0:0:
119,72,26759,1,2,3:0:0:0:
119,72,26945,2,0,P|185:74|233:76,1,100,10|2,0:3|0:0,0:0:0:0:
313,107,27685,2,0,P|362:105|412:103,1,100,2|10,0:0|0:3,0:0:0:0:
452,134,28241,1,2,3:2:0:0:
479,175,28426,6,0,P|481:202|483:246,2,50,10|2|2,0:3|0:0|0:0,0:0:0:0:
382,201,29167,2,0,P|387:260|391:313,1,100,0|0,3:0|0:0,0:0:0:0:
290,308,29908,5,2,0:0:0:0:
290,308,30093,2,0,P|288:326|284:363,2,50,2|2|2,0:0|0:0|0:0,0:0:0:0:
257,270,30648,2,0,P|254:245|251:220,1,50,2|2,1:0|1:0,0:0:0:0:
246,170,31019,1,10,0:0:0:0:
284,77,31389,6,0,P|346:68|408:60,1,100,6|10,1:0|0:0,0:0:0:0:
426,88,31945,2,0,P|437:135|420:197,1,100,2|2,1:0|1:0,0:0:0:0:
415,233,32500,1,8,0:0:0:0:
325,277,32871,6,0,P|263:286|201:294,1,100,2|8,1:0|0:0,0:0:0:0:
176,293,33426,1,2,1:0:0:0:
75,288,33797,2,0,P|73:319|70:348,2,50,2|10|2,1:0|0:0|0:0,0:0:0:0:
90,240,34352,6,0,P|84:164|82:126,1,100,2|10,1:0|0:0,0:0:0:0:
108,97,34908,2,0,P|161:85|217:102,1,100,2|2,1:0|1:0,0:0:0:0:
250,113,35463,1,8,0:0:0:0:
332,170,35834,6,0,B|346:205|346:205|329:273,1,100,2|10,1:0|0:0,0:0:0:0:
317,313,36389,1,0,1:0:0:0:
223,347,36759,2,0,P|188:345|166:343,1,50,2|8,1:0|0:0,0:0:0:0:
97,277,37315,6,0,P|104:200|107:163,1,100,6|10,1:0|0:0,0:0:0:0:
200,143,38056,2,0,P|195:192|191:242,1,100,2|10,1:0|0:0,0:0:0:0:
229,274,38611,2,0,B|277:284|342:264,1,100,2|2,0:0|0:0,0:0:0:0:
367,236,39167,1,10,0:0:0:0:
367,236,39352,2,0,P|415:225|464:235,1,100,2|0,1:0|1:0,0:0:0:0:
508,257,39908,1,8,0:0:0:0:
466,347,40278,6,0,P|417:356|368:346,1,100,6|10,1:0|0:0,0:0:0:0:
283,292,41019,2,0,P|281:233|278:179,1,100,2|10,1:0|0:0,0:0:0:0:
248,152,41574,2,0,P|214:137|144:147,1,100,6|2,0:0|1:0,0:0:0:0:
104,157,42130,1,10,0:0:0:0:
61,183,42315,2,0,P|63:232|65:282,1,100,4|0,0:0|1:0,0:0:0:0:
146,340,43056,6,0,P|211:356|296:330,1,150,6|2,0:0|0:0,0:0:0:0:
355,259,43982,2,0,P|402:244|467:257,1,100,10|0,0:0|0:0,0:0:0:0:
499,234,44537,2,0,P|501:156|503:117,1,100,6|0,0:0|1:0,0:0:0:0:
505,83,45093,1,2,0:0:0:0:
406,67,45463,2,0,P|337:72|286:75,1,100,10|0,0:0|3:0,0:0:0:0:
258,85,46019,6,0,P|208:81|130:75,1,100,6|2,0:0|0:0,0:0:0:0:
109,85,46574,1,2,0:0:0:0:
42,160,46945,2,0,P|44:224|71:270,1,100,10|2,0:0|0:0,0:0:0:0:
97,287,47500,2,0,P|158:292|207:295,1,100,6|2,0:0|1:0,0:0:0:0:
243,312,48056,2,0,P|285:314|317:315,1,50,2|2,0:0|1:0,0:0:0:0:
340,330,48426,2,0,P|382:332|414:333,1,50,10|2,3:2|3:2,3:2:0:0:
460,261,48982,6,0,B|482:218|482:218|466:102,1,150,6|2,0:0|0:0,0:0:0:0:
392,52,49908,2,0,P|332:40|287:50,1,100,10|0,0:0|0:0,0:0:0:0:
247,64,50463,2,0,P|197:71|149:59,1,100,6|0,1:0|1:0,0:0:0:0:
104,37,51019,1,2,0:0:0:0:
36,110,51389,2,0,P|41:191|45:233,1,100,10|2,0:0|3:0,0:0:0:0:
49,259,51945,5,2,1:0:0:0:
49,258,55093,6,0,P|123:246|161:240,1,100,2|0,3:0|3:0,0:0:0:0:
199,157,55834,2,0,P|191:114|188:93,2,50,0|0|0,3:0|3:0|3:0,0:0:0:0:
290,208,56574,1,2,3:2:0:0:
290,208,56759,2,0,P|282:251|279:272,2,50,2|2|2,3:2|3:2|3:2,0:0:0:0:
321,168,57315,2,0,P|372:154|424:170,1,100,2|2,3:2|3:2,0:0:0:0:
467,186,57871,1,2,3:2:0:0:
467,186,58056,6,0,B|511:272|453:351|453:351|343:299|343:389|237:344,1,400,2|2,3:2|1:0,0:0:0:0:
195,316,59722,1,2,1:0:0:0:
100,282,60093,2,0,P|91:229|105:174,1,100,2|2,0:0|0:0,0:0:0:0:
120,138,60648,2,0,P|124:105|115:77,1,50,2|2,0:0|0:0,0:0:0:0:
102,42,61019,6,0,P|171:35|207:32,1,100,6|8,1:0|0:0,0:0:0:0:
294,68,61759,2,0,P|327:66|356:64,2,50,0|2|10,0:0|1:0|0:0,0:0:0:0:
220,135,62500,2,0,P|170:139|120:144,1,100,2|10,1:0|0:0,0:0:0:0:
48,214,63241,2,0,P|40:267|58:318,1,100,2|10,0:0|0:0,0:0:0:0:
98,332,63797,1,2,0:0:0:0:
146,344,63982,6,0,P|215:337|251:334,1,100,2|10,1:0|0:0,0:0:0:0:
338,298,64722,2,0,P|343:335|346:363,2,50,0|2|10,0:0|1:0|0:0,0:0:0:0:
370,204,65463,2,0,P|380:160|359:93,1,100,2|10,1:0|0:0,0:0:0:0:
299,35,66204,2,0,P|255:25|188:46,1,100,2|14,0:0|0:0,0:0:0:0:
157,59,66759,1,2,0:0:0:0:
114,85,66945,6,0,P|121:154|124:190,1,100,6|10,1:0|0:0,0:0:0:0:
94,280,67685,2,0,P|61:283|37:284,2,50,0|2|10,0:0|1:0|0:0,0:0:0:0:
191,258,68426,2,0,P|240:253|290:248,1,100,2|10,1:0|0:0,0:0:0:0:
384,214,69167,2,0,P|433:219|483:223,1,100,2|10,3:0|0:0,0:0:0:0:
454,127,69908,6,0,P|404:122|354:117,1,100,6|8,1:0|0:0,0:0:0:0:
257,95,70648,2,0,P|203:99|149:68,1,100,6|10,1:0|0:0,0:0:0:0:
119,54,71204,1,2,0:0:0:0:
73,33,71389,2,0,P|64:92|57:152,1,100,6|10,1:0|0:0,0:0:0:0:
70,180,71945,2,0,P|79:239|86:299,1,100,6|2,1:0|1:0,0:0:0:0:
93,328,72500,1,10,0:0:0:0:
191,309,72871,6,0,P|233:322|298:303,1,100,6|10,1:0|0:0,0:0:0:0:
372,258,73611,2,0,P|405:260|432:260,2,50,0|2|10,0:0|1:0|0:0,0:0:0:0:
288,202,74352,2,0,P|240:190|192:203,1,100,2|10,1:0|0:0,0:0:0:0:
101,244,75093,2,0,P|96:176|93:132,1,100,2|10,0:0|0:0,0:0:0:0:
104,95,75648,1,2,0:0:0:0:
130,52,75834,6,0,P|184:50|249:46,1,100,6|10,1:0|0:0,0:0:0:0:
326,72,76574,2,0,P|380:74|445:78,1,100,6|10,0:0|0:0,0:0:0:0:
460,112,77130,1,2,0:0:0:0:
491,151,77315,2,0,P|500:193|474:269,1,100,6|8,1:0|0:0,0:0:0:0:
409,310,78056,2,0,P|413:353|415:371,2,50,0|2|8,0:0|1:0|0:0,0:0:0:0:
313,271,78797,6,0,P|245:264|191:258,1,100,6|2,1:0|0:0,0:0:0:0:
166,277,79352,2,0,P|98:284|44:290,2,100,2|2|2,1:0|3:0|1:0,0:0:0:0:
176,227,80278,2,0,P|177:174|148:118,1,100,2|0,1:0|0:0,0:0:0:0:
128,91,80834,1,2,1:0:0:0:
209,33,81204,1,2,0:0:0:0:
302,67,81574,6,0,P|353:63|455:55,1,150,6|8,0:0|0:0,0:0:0:0:
415,148,82500,2,0,P|365:153|303:159,1,100,2|10,1:0|0:0,0:0:0:0:
293,203,83056,2,0,P|284:261|316:323,1,100,2|2,0:0|3:0,0:0:0:0:
209,347,83797,1,2,3:2:0:0:
209,347,83982,2,0,P|150:343|106:339,1,100,2|2,0:0|0:0,0:0:0:0:
59,332,84537,5,8,0:3:0:0:
256,192,84630,12,2,88241,0:0:0:0:
