osu file format v14

[General]
AudioFilename: audio.mp3
AudioLeadIn: 0
PreviewTime: 60000
Countdown: 0
SampleSet: Soft
StackLeniency: 0.7
Mode: 0
LetterboxInBreaks: 0
WidescreenStoryboard: 0

[Editor]
DistanceSpacing: 1.2
BeatDivisor: 4
GridSize: 4
TimelineZoom: 1.9

[Metadata]
Title:for... (TV Size)
TitleUnicode:for... (TV Size)
Artist:Aida Rikako
ArtistUnicode:逢田梨香子
Creator:Underforest
Version:Hard
Source:戦×恋(ヴァルラヴ)
Tags:val x love ikusa koi opening japanese anime 早乙女 四乃 shino saotome [_lost_] conner c_o_n_n_e_r
BeatmapID:2197064
BeatmapSetID:1051272

[Difficulty]
HPDrainRate:5
CircleSize:4
OverallDifficulty:6
ApproachRate:7.5
SliderMultiplier:1.4
SliderTickRate:1

[Events]
//Background and Video events
0,0,"bg.jpg",0,0
Video,-300,"video.flv"
//Break Periods
2,52145,54268
//Storyboard Layer 0 (Background)
//Storyboard Layer 1 (Fail)
//Storyboard Layer 2 (Pass)
//Storyboard Layer 3 (Foreground)
//Storyboard Layer 4 (Overlay)
//Storyboard Sound Samples

[TimingPoints]
1760,370.37037037037,4,2,1,40,1,0
1760,-133.333333333333,4,2,1,40,0,0
3611,-133.333333333333,4,2,1,40,0,0
10648,-100,4,2,1,60,0,0
12871,-100,4,2,1,70,0,0
13241,-100,4,2,2,60,0,0
13611,-100,4,2,1,70,0,0
19537,-133.333333333333,4,2,1,40,0,0
22130,-133.333333333333,4,2,2,40,0,0
22315,-133.333333333333,4,2,1,40,0,0
25093,-133.333333333333,4,2,2,40,0,0
25463,-133.333333333333,4,2,1,40,0,0
28055,-133.333333333333,4,2,2,40,0,0
28241,-133.333333333333,4,2,1,40,0,0
30093,-133.333333333333,4,2,1,60,0,0
31019,-133.333333333333,4,2,1,65,0,0
31389,-100,4,2,1,60,0,0
43056,-133.333333333333,4,2,1,50,0,0
51945,-133.333333333333,4,2,1,40,0,0
55093,-100,4,2,1,60,0,0
60648,-100,4,2,1,70,0,0
61019,-90.9090909090909,4,2,1,70,0,1
72500,-90.9090909090909,4,2,1,70,0,0
72871,-90.9090909090909,4,2,1,70,0,1
83982,-100,4,2,1,70,0,0
88241,-100,4,2,1,5,0,0

[Colours]
Combo1 : 253,177,94
Combo2 : 255,102,102
Combo3 : 147,193,227
Combo4 : 254,244,133
SliderBorder : 255,255,250
SliderTrackOverride : 30,30,30

[HitObjects]
72,73,1760,6,0,P|118:68|201:60,1,105.000004005432,10|0,3:0|0:0,0:0:0:0:
259,70,2315,2,0,P|311:75|363:80,1,105.000004005432,2|0,0:0|0:0,0:0:0:0:
446,94,2871,1,2,0:0:0:0:
300,180,3241,6,0,P|247:185|195:190,1,105.000004005432,2|2,0:0|0:0,0:0:0:0:
301,322,3982,2,0,P|353:327|405:332,1,105.000004005432,2|2,0:0|0:0,0:0:0:0:
488,320,4537,1,0,0:0:0:0:
488,320,4722,6,0,P|482:360|477:392,2,52.5000020027161,10|0|0,0:3|0:0|0:0,0:0:0:0:
473,236,5278,2,0,P|467:202|452:119,1,105.000004005432,10|0,0:3|0:0,0:0:0:0:
436,50,5834,1,2,0:0:0:0:
278,108,6204,6,0,B|242:104|242:104|217:114|217:114|171:109,2,105.000004005432,10|0|0,0:3|0:0|3:0,0:0:0:0:
343,161,7130,1,0,3:0:0:0:
343,161,7315,2,0,P|378:162|413:156,1,52.5000020027161,0|0,3:0|3:0,0:0:0:0:
451,222,7685,6,0,P|478:162|465:113,1,105.000004005432,10|0,0:3|0:0,0:0:0:0:
414,62,8241,2,0,P|334:67|298:69,1,105.000004005432,2|0,0:0|0:0,0:0:0:0:
224,72,8797,1,2,0:0:0:0:
293,224,9167,6,0,B|331:237|331:237|406:221,1,105.000004005432,2|0,0:0|0:0,0:0:0:0:
246,142,9908,2,0,B|182:128|182:128|144:141,1,105.000004005432,10|0,0:3|1:0,0:0:0:0:
151,309,10648,5,12,0:0:0:0:
192,204,10834,1,8,0:0:0:0:
203,212,11389,5,12,0:0:0:0:
162,107,11574,1,8,0:0:0:0:
153,118,12130,5,12,0:0:0:0:
194,14,12315,1,8,0:0:0:0:
425,30,13241,5,8,0:3:0:0:
434,41,13611,6,0,P|452:91|410:194,1,140,6|10,1:2|1:2,0:0:0:0:
350,200,14167,2,0,P|301:195|264:192,1,70,2|0,0:0|0:0,0:0:0:0:
199,214,14537,2,0,P|150:209|113:206,1,70,2|8,1:0|0:0,0:0:0:0:
73,270,14908,6,0,B|113:294|113:294|216:304,1,140,2|0,1:0|1:0,0:0:0:0:
283,333,15463,1,8,0:0:0:0:
283,333,15648,2,0,B|304:265|251:265|283:194,1,140,0|2,1:0|1:0,0:0:0:0:
358,163,16204,2,0,P|396:159|436:154,1,70,10|2,0:0|0:0,0:0:0:0:
269,186,16574,6,0,P|199:177|130:168,1,140,2|10,1:0|0:0,0:0:0:0:
46,175,17130,2,0,P|50:216|54:251,1,70,2|0,1:0|0:0,0:0:0:0:
110,305,17500,1,2,1:0:0:0:
110,305,17685,1,8,0:0:0:0:
219,275,17871,6,0,P|263:259|360:295,1,140,6|2,1:0|1:0,0:0:0:0:
405,347,18426,1,10,0:0:0:0:
463,236,18611,2,0,P|456:156|450:84,1,140,6|0,1:0|1:0,0:0:0:0:
449,83,19074,1,0,1:0:0:0:
447,69,19167,1,8,0:0:0:0:
281,46,19537,6,0,P|222:59|171:67,1,105.000004005432,6|0,0:0|0:0,0:0:0:0:
100,100,20093,2,0,P|83:142|111:215,2,105.000004005432,2|2|2,0:0|0:0|3:0,0:0:0:0:
167,150,21019,2,0,P|183:192|155:265,1,105.000004005432,10|0,0:3|0:0,0:0:0:0:
236,299,21574,2,0,P|295:292|359:284,1,105.000004005432,2|2,0:0|0:0,0:0:0:0:
412,253,22130,2,0,P|417:214|420:189,1,52.5000020027161,10|2,0:3|3:0,0:0:0:0:
475,139,22500,6,0,P|422:145|361:122,1,105.000004005432,10|2,0:3|0:0,0:0:0:0:
299,90,23056,2,0,P|246:83|185:106,2,105.000004005432,2|2|10,0:0|0:0|3:3,0:0:0:0:
372,130,23982,2,0,P|367:170|358:257,1,105.000004005432,10|0,0:3|0:0,0:0:0:0:
438,265,24537,2,0,P|444:212|451:155,1,105.000004005432,2|0,0:0|3:0,0:0:0:0:
439,77,25093,1,10,3:3:0:0:
277,121,25463,6,0,P|200:126|152:129,1,105.000004005432,10|2,0:3|0:0,0:0:0:0:
148,208,26019,2,0,P|200:204|252:201,2,105.000004005432,2|2|2,0:0|0:0|3:0,0:0:0:0:
75,251,26945,2,0,P|58:293|86:366,1,105.000004005432,10|2,0:3|0:0,0:0:0:0:
238,369,27685,2,0,P|293:365|342:362,1,105.000004005432,2|10,0:0|0:3,0:0:0:0:
404,304,28241,1,2,3:2:0:0:
404,304,28426,6,0,P|407:261|408:236,2,52.5000020027161,10|2|2,0:3|0:0|0:0,0:0:0:0:
268,204,29167,2,0,P|263:160|261:141,1,52.5000020027161,0|0,3:0|3:0,0:0:0:0:
296,75,29537,2,0,P|291:31|289:12,1,52.5000020027161,0|8,0:0|0:3,0:0:0:0:
215,61,29908,5,2,0:0:0:0:
215,61,30093,2,0,P|164:56|138:54,2,52.5000020027161,2|2|2,0:0|0:0|0:0,0:0:0:0:
297,76,30648,2,0,P|323:73|349:70,1,52.5000020027161,2|2,1:0|1:0,0:0:0:0:
365,67,30926,1,0,1:0:0:0:
381,65,31019,1,10,0:0:0:0:
460,92,31204,1,2,0:0:0:0:
395,196,31389,6,0,P|324:215|243:190,1,140,6|10,1:0|0:0,0:0:0:0:
185,162,31945,2,0,P|117:147|50:166,1,140,2|2,1:0|1:0,0:0:0:0:
0,233,32500,1,8,0:0:0:0:
147,314,32871,2,0,P|209:310|297:305,1,140,2|8,1:0|0:0,0:0:0:0:
361,267,33426,2,0,B|379:219|379:219|364:124,1,140,2|2,1:0|1:0,0:0:0:0:
291,90,33982,2,0,P|228:84|203:82,1,70,10|2,0:0|0:0,0:0:0:0:
176,154,34352,6,0,P|156:205|179:301,1,140,2|10,1:0|0:0,0:0:0:0:
254,293,34908,2,0,P|274:242|251:146,1,140,2|2,1:0|1:0,0:0:0:0:
315,97,35463,2,0,P|350:100|385:104,1,70,8|2,0:0|0:0,0:0:0:0:
448,158,35834,6,0,B|453:185|441:208|441:208|457:237|457:237|443:264|451:296,1,140,2|10,1:0|0:0,0:0:0:0:
369,314,36389,2,0,B|330:311|291:341|291:341|257:344|225:323,1,140,0|2,1:0|1:0,0:0:0:0:
224,326,36852,1,0,1:0:0:0:
211,320,36945,1,8,0:0:0:0:
131,347,37130,1,0,0:0:0:0:
65,293,37315,6,0,P|57:230|48:148,1,140,6|10,1:0|0:0,0:0:0:0:
208,100,38056,2,0,P|200:169|191:239,1,140,2|10,1:0|0:0,0:0:0:0:
272,216,38611,1,2,0:0:0:0:
272,216,38797,2,0,P|276:175|280:144,2,70,0|2|10,1:0|0:0|0:0,0:0:0:0:
332,273,39352,2,0,B|402:251|402:297|470:273,1,140,2|0,1:0|1:0,0:0:0:0:
424,201,39908,2,0,P|374:193|336:199,1,70,8|2,0:0|0:0,0:0:0:0:
256,228,40278,6,0,P|189:217|99:202,1,140,6|10,1:0|0:0,0:0:0:0:
241,90,41019,2,0,P|308:79|398:64,1,140,2|10,1:0|0:0,0:0:0:0:
470,133,41574,2,0,P|484:202|455:297,1,140,6|2,0:0|1:0,0:0:0:0:
430,343,42130,1,10,0:0:0:0:
332,287,42315,2,0,P|263:250|178:276,1,140,4|0,0:0|1:0,0:0:0:0:
193,268,42778,1,0,1:0:0:0:
184,278,42871,1,8,0:0:0:0:
103,207,43056,6,0,P|96:146|86:27,1,157.500006008148,6|2,0:0|0:0,0:0:0:0:
254,75,43982,2,0,P|259:116|271:195,1,105.000004005432,10|0,0:0|0:0,0:0:0:0:
331,234,44537,2,0,P|377:242|438:221,1,105.000004005432,6|0,0:0|1:0,0:0:0:0:
469,150,45093,2,0,P|462:105|457:75,1,52.5000020027161,2|0,0:0|1:0,0:0:0:0:
448,232,45463,2,0,P|443:275|433:354,1,105.000004005432,10|0,0:0|3:0,0:0:0:0:
332,297,46019,6,0,P|268:280|223:291,1,105.000004005432,6|2,0:0|0:0,0:0:0:0:
154,252,46574,2,0,P|145:203|141:182,1,52.5000020027161,2|2,0:0|1:0,0:0:0:0:
184,126,46945,2,0,P|193:77|197:56,2,52.5000020027161,10|2|2,0:0|0:0|0:0,0:0:0:0:
251,176,47500,6,0,P|297:164|367:148,1,105.000004005432,6|2,0:0|1:0,0:0:0:0:
422,104,48056,1,2,0:0:0:0:
429,187,48241,1,2,1:0:0:0:
429,187,48334,1,2,1:0:0:0:
429,187,48426,2,0,P|426:211|422:235,5,26.2500010013581,10|0|2|0|0|0,3:2|3:2|3:2|3:2|3:2|3:2,3:2:0:0:
423,247,48982,6,0,P|365:274|275:253,1,157.500006008148,6|2,0:0|0:0,0:0:0:0:
144,218,49908,2,0,P|84:215|31:213,1,105.000004005432,10|0,0:0|0:0,0:0:0:0:
66,134,50463,2,0,P|126:131|179:129,1,105.000004005432,6|0,1:0|1:0,0:0:0:0:
219,197,51019,1,2,0:0:0:0:
294,346,51389,2,0,P|345:353|390:328,1,105.000004005432,10|2,0:0|3:0,0:0:0:0:
330,269,51945,5,2,1:0:0:0:
63,156,55093,6,0,P|129:150|205:143,1,140,2|0,3:0|3:0,0:0:0:0:
284,103,55648,1,0,3:0:0:0:
278,194,55834,2,0,P|268:244|260:286,1,70,0|0,3:0|3:0,0:0:0:0:
188,211,56204,2,0,P|194:176|201:142,1,70,0|0,3:0|3:0,0:0:0:0:
181,301,56574,5,2,3:2:0:0:
264,262,56759,2,0,P|302:259|355:254,2,70,2|2|2,3:2|3:2|3:2,0:0:0:0:
187,211,57315,2,0,P|153:208|118:205,1,70,2|2,3:2|3:2,0:0:0:0:
270,172,57685,2,0,P|304:169|339:166,1,70,2|2,3:2|3:2,0:0:0:0:
193,122,58056,5,2,3:2:0:0:
256,192,58148,12,2,59537,1:0:0:0:
60,112,60093,6,0,B|96:90|96:90|215:106,1,140,2|2,0:0|0:0,0:0:0:0:
280,127,60648,1,2,0:0:0:0:
256,38,60834,1,2,0:0:0:0:
290,140,61019,6,0,P|287:193|277:299,1,154.000004699707,6|8,1:0|0:0,0:0:0:0:
195,335,61574,1,2,1:0:0:0:
195,335,61759,2,0,P|150:332|116:330,1,77.0000023498536,0|2,0:0|1:0,0:0:0:0:
122,237,62130,2,0,P|160:239|198:241,1,77.0000023498536,10|0,0:0|0:0,0:0:0:0:
277,293,62500,6,0,P|315:295|353:297,1,77.0000023498536,2|0,1:0|0:0,0:0:0:0:
358,205,62871,2,0,P|319:202|281:200,1,77.0000023498536,10|0,0:0|1:0,0:0:0:0:
209,142,63241,2,0,B|165:137|165:137|106:158|106:158|54:151,1,154.000004699707,2|10,0:0|0:0,0:0:0:0:
97,67,63797,1,2,0:0:0:0:
188,54,63982,6,0,P|224:56|274:59,2,77.0000023498536,2|0|10,1:0|0:0|0:0,0:0:0:0:
209,142,64537,2,0,P|264:157|359:97,1,154.000004699707,2|2,1:0|1:0,0:0:0:0:
427,162,65093,2,0,P|422:219|419:250,1,77.0000023498536,10|0,0:0|0:0,0:0:0:0:
345,294,65463,2,0,P|341:255|338:217,1,77.0000023498536,2|0,1:0|0:0,0:0:0:0:
444,153,65834,2,0,P|439:210|436:241,1,77.0000023498536,10|0,0:0|1:0,0:0:0:0:
414,336,66204,1,2,0:0:0:0:
300,364,66389,1,0,1:0:0:0:
300,364,66482,1,0,1:0:0:0:
300,364,66574,2,0,P|249:360|208:358,1,77.0000023498536,14|2,0:0|0:0,0:0:0:0:
149,277,66945,6,0,P|151:204|233:161,1,154.000004699707,6|10,1:0|0:0,0:0:0:0:
299,128,67500,1,2,1:0:0:0:
299,128,67685,2,0,P|303:82|306:38,1,77.0000023498536,0|2,0:0|1:0,0:0:0:0:
395,73,68056,2,0,P|397:111|401:149,1,77.0000023498536,10|0,0:0|0:0,0:0:0:0:
436,234,68426,6,0,P|390:238|346:242,1,77.0000023498536,2|0,1:0|0:0,0:0:0:0:
290,303,68797,2,0,P|244:307|200:311,1,77.0000023498536,10|0,0:0|1:0,0:0:0:0:
136,259,69167,2,0,P|124:218|129:181,1,77.0000023498536,2|0,3:0|1:0,0:0:0:0:
212,144,69537,2,0,P|223:184|218:221,1,77.0000023498536,10|0,0:0|0:0,0:0:0:0:
138,94,69908,6,0,P|194:97|325:101,1,154.000004699707,6|8,1:0|0:0,0:0:0:0:
380,73,70463,1,2,0:0:0:0:
486,134,70648,2,0,B|501:180|501:180|471:292,1,154.000004699707,6|10,1:0|0:0,0:0:0:0:
422,358,71204,1,2,0:0:0:0:
301,332,71389,6,0,P|249:276|167:285,1,154.000004699707,6|10,1:0|0:0,0:0:0:0:
98,229,71945,2,0,P|93:190|89:152,1,77.0000023498536,6|0,1:0|0:0,0:0:0:0:
181,55,72315,1,2,1:0:0:0:
181,55,72408,1,0,1:0:0:0:
181,55,72500,2,0,P|176:93|172:131,1,77.0000023498536,10|2,0:0|0:0,0:0:0:0:
186,256,72871,6,0,B|261:226|261:282|338:256,1,154.000004699707,6|10,1:0|0:0,0:0:0:0:
369,170,73426,1,2,1:0:0:0:
369,170,73611,2,0,P|373:120|376:87,1,77.0000023498536,0|2,0:0|1:0,0:0:0:0:
465,114,73982,2,0,P|461:152|458:190,1,77.0000023498536,10|0,0:0|0:0,0:0:0:0:
416,272,74352,6,0,P|372:264|322:278,1,77.0000023498536,2|0,1:0|0:0,0:0:0:0:
250,291,74722,2,0,P|212:296|174:288,1,77.0000023498536,10|0,0:0|1:0,0:0:0:0:
130,206,75093,1,2,0:0:0:0:
159,123,75278,1,0,1:0:0:0:
159,123,75371,1,0,1:0:0:0:
159,123,75463,2,0,P|163:79|167:33,1,77.0000023498536,10|2,0:0|0:0,0:0:0:0:
279,95,75834,6,0,P|283:139|293:259,1,154.000004699707,6|10,1:0|0:0,0:0:0:0:
374,207,76389,1,2,1:0:0:0:
374,207,76574,2,0,P|368:154|365:121,1,77.0000023498536,6|0,0:0|1:0,0:0:0:0:
452,162,76945,2,0,P|455:200|460:238,1,77.0000023498536,10|2,0:0|0:0,0:0:0:0:
389,298,77315,6,0,P|346:289|244:334,1,154.000004699707,6|8,1:0|0:0,0:0:0:0:
166,284,77871,2,0,P|170:245|174:207,1,77.0000023498536,2|0,1:0|0:0,0:0:0:0:
256,114,78241,1,2,1:0:0:0:
256,114,78334,1,0,1:0:0:0:
256,114,78426,2,0,P|260:152|265:191,1,77.0000023498536,8|2,0:0|0:0,0:0:0:0:
319,313,78797,6,0,B|365:328|365:328|477:298,1,154.000004699707,6|2,1:0|0:0,0:0:0:0:
452,209,79352,1,2,1:0:0:0:
367,245,79537,1,8,0:0:0:0:
367,245,79722,2,0,P|360:196|344:85,1,154.000004699707,2|2,3:0|1:0,0:0:0:0:
258,125,80278,6,0,P|252:177|242:250,2,115.50000352478,2|0|2,1:0|1:0|1:0,0:0:0:0:
187,64,81019,1,8,1:0:0:0:
99,94,81204,2,0,P|45:99|4:101,1,77.0000023498536,2|8,0:0|1:0,0:0:0:0:
192,47,81574,6,0,P|258:23|345:66,1,154.000004699707,6|0,0:0|1:0,0:0:0:0:
402,113,82130,2,0,P|407:150|394:196,1,77.0000023498536,8|0,0:0|0:0,0:0:0:0:
336,257,82500,2,0,P|326:294|331:332,1,77.0000023498536,2|2,1:0|0:0,0:0:0:0:
418,299,82871,1,10,0:0:0:0:
317,346,83056,6,0,P|253:338|217:335,1,77.0000023498536,2|0,0:0|3:0,0:0:0:0:
182,265,83426,2,0,P|246:257|282:254,1,77.0000023498536,2|0,3:0|3:0,0:0:0:0:
351,250,83797,1,2,3:2:0:0:
304,180,83982,2,0,P|260:177|146:171,1,140,2|2,0:0|0:0,0:0:0:0:
94,268,84537,5,8,0:3:0:0:
256,192,84630,12,2,88241,0:0:0:0:
