osu file format v14

[General]
AudioFilename: audio.mp3
AudioLeadIn: 0
PreviewTime: 60000
Countdown: 0
SampleSet: Soft
StackLeniency: 0.5
Mode: 0
LetterboxInBreaks: 0
WidescreenStoryboard: 0

[Editor]
DistanceSpacing: 1.6
BeatDivisor: 4
GridSize: 32
TimelineZoom: 1.3

[Metadata]
Title:for... (TV Size)
TitleUnicode:for... (TV Size)
Artist:Aida Rikako
ArtistUnicode:逢田梨香子
Creator:Underforest
Version:For the sake of myself
Source:戦×恋(ヴァルラヴ)
Tags:val x love ikusa koi opening japanese anime 早乙女 四乃 shino saotome [_lost_] conner c_o_n_n_e_r
BeatmapID:2199381
BeatmapSetID:1051272

[Difficulty]
HPDrainRate:6.3
CircleSize:4.2
OverallDifficulty:8
ApproachRate:9.2
SliderMultiplier:1.8
SliderTickRate:1

[Events]
//Background and Video events
0,0,"bg.jpg",0,0
Video,-300,"video.flv"
//Break Periods
//Storyboard Layer 0 (Background)
//Storyboard Layer 1 (Fail)
//Storyboard Layer 2 (Pass)
//Storyboard Layer 3 (Foreground)
//Storyboard Layer 4 (Overlay)
//Storyboard Sound Samples

[TimingPoints]
1760,370.37037037037,4,2,1,40,1,0
1760,-133.333333333333,4,2,1,40,0,0
10185,-133.333333333333,4,2,1,5,0,0
10278,-133.333333333333,4,2,1,40,0,0
10648,-100,4,2,1,60,0,0
12500,-200,4,2,1,60,0,0
13241,-100,4,2,2,60,0,0
13611,-100,4,2,1,70,0,0
15185,-100,4,2,1,5,0,0
15278,-100,4,2,1,70,0,0
18148,-100,4,2,1,5,0,0
18241,-100,4,2,1,70,0,0
19445,-100,4,2,1,5,0,0
19537,-133.333333333333,4,2,1,40,0,0
22130,-133.333333333333,4,2,2,40,0,0
22315,-133.333333333333,4,2,1,40,0,0
25093,-133.333333333333,4,2,2,40,0,0
25185,-133.333333333333,4,2,1,40,0,0
28056,-133.333333333333,4,2,2,40,0,0
28241,-133.333333333333,4,2,1,40,0,0
30093,-133.333333333333,4,2,1,60,0,0
31019,-133.333333333333,4,2,1,65,0,0
31389,-100,4,2,1,60,0,0
43056,-133.333333333333,4,2,1,50,0,0
51945,-200,4,2,1,40,0,0
54352,-142.857142857143,4,2,1,40,0,0
54722,-111.111111111111,4,2,1,40,0,0
55093,-100,4,2,1,60,0,0
60093,-133.333333333333,4,2,1,60,0,0
60648,-100,4,2,1,70,0,0
61019,-90.9090909090909,4,2,1,70,0,1
72500,-90.9090909090909,4,2,1,70,0,0
72871,-90.9090909090909,4,2,1,70,0,1
80463,-90.9090909090909,4,2,1,5,0,1
80556,-90.9090909090909,4,2,1,70,0,1
80741,-90.9090909090909,4,2,1,5,0,1
80834,-90.9090909090909,4,2,1,70,0,1
83982,-100,4,2,1,70,0,0
88241,-100,4,2,1,5,0,0

[Colours]
Combo1 : 253,177,94
Combo2 : 255,102,102
Combo3 : 147,193,227
Combo4 : 254,244,133
SliderBorder : 255,255,250
SliderTrackOverride : 30,30,30

[HitObjects]
81,143,1760,6,0,P|140:139|230:133,1,135.000005149842,10|0,3:0|0:0,0:0:0:0:
284,187,2315,1,2,0:0:0:0:
284,187,2500,2,0,P|286:222|287:258,1,67.5000025749208
373,272,2871,2,0,P|371:238|370:204,1,67.5000025749208,2|0,0:0|0:0,0:0:0:0:
314,334,3241,6,0,P|389:358|446:318,1,135.000005149842,2|0,0:0|0:0,0:0:0:0:
477,255,3797,1,2,0:0:0:0:
477,255,3982,2,0,P|473:211|469:178,1,67.5000025749208
409,125,4352,1,2,0:0:0:0:
387,245,4537,1,0,0:0:0:0:
292,196,4722,6,0,P|245:192|206:190,1,67.5000025749208,10|0,0:3|0:0,0:0:0:0:
367,257,5093,1,0,0:0:0:0:
330,116,5278,2,0,P|242:108|183:104,1,135.000005149842,10|0,0:3|0:0,0:0:0:0:
120,175,5834,2,0,P|112:212|120:254,1,67.5000025749208,2|0,0:0|0:0,0:0:0:0:
312,213,6204,6,0,P|249:193|205:203,1,101.250003862381,10|0,0:3|0:0,0:0:0:0:
191,210,6574,1,0,0:0:0:0:
249,312,6759,1,0,0:0:0:0:
365,277,6945,5,0,3:0:0:0:
375,264,7037,1,0,3:0:0:0:
383,249,7130,1,0,3:0:0:0:
389,233,7222,1,0,3:0:0:0:
393,217,7315,2,0,P|395:186|396:166,1,33.7500012874604,0|0,3:0|3:0,0:0:0:0:
487,107,7500,2,0,P|487:123|489:140,1,33.7500012874604,0|0,3:0|3:0,0:0:0:0:
378,62,7685,6,0,P|322:56|289:53,2,67.5000025749208,10|0|0,0:3|0:0|0:0,0:0:0:0:
292,137,8241,2,0,P|246:112|228:29,1,135.000005149842,2|0,0:0|0:0,0:0:0:0:
373,140,8797,2,0,P|358:187|322:217,1,67.5000025749208,2|0,0:0|0:0,0:0:0:0:
266,211,9167,6,0,P|173:201|111:194,1,135.000005149842,2|0,0:0|0:0,0:0:0:0:
336,320,9908,2,0,P|403:312|456:308,1,101.250003862381,10|0,0:3|0:0,0:0:0:0:
462,304,10278,1,0,1:0:0:0:
355,169,10463,1,0,1:0:0:0:
222,378,10648,5,12,0:0:0:0:
400,104,10834,1,8,0:0:0:0:
436,309,11389,5,12,0:0:0:0:
105,204,11574,1,8,0:0:0:0:
426,48,12130,5,12,0:0:0:0:
266,314,12315,1,8,0:0:0:0:
265,307,12871,2,0,P|282:286|304:256,1,45,2|0,0:0|0:0,0:0:0:0:
420,128,13241,5,8,0:3:0:0:
389,95,13334,1,0,0:0:0:0:
348,77,13426,1,0,0:0:0:0:
304,77,13519,1,0,0:0:0:0:
263,95,13611,6,0,P|252:169|245:207,1,90,6|0,1:2|0:0,0:0:0:0:
138,318,13982,1,10,1:2:0:0:
53,166,14167,2,0,P|101:159|159:152,1,90,2|0,0:0|0:0,0:0:0:0:
340,220,14537,1,2,1:0:0:0:
254,86,14722,1,8,0:0:0:0:
258,285,14908,6,0,P|316:325|408:306,1,135,2|0,1:0|0:0,0:0:0:0:
408,305,15278,1,0,1:0:0:0:
294,148,15463,1,8,0:0:0:0:
132,305,15648,1,0,1:0:0:0:
132,305,15741,1,0,0:0:0:0:
132,305,15834,1,0,0:0:0:0:
206,129,16019,1,2,1:0:0:0:
242,370,16204,1,10,0:0:0:0:
106,156,16389,1,2,0:0:0:0:
106,156,16482,1,0,0:0:0:0:
106,156,16574,6,0,P|110:81|113:44,1,90,2|0,1:0|0:0,0:0:0:0:
294,149,16945,1,10,0:0:0:0:
157,247,17130,2,0,P|98:262|43:246,1,90,2|0,1:0|0:0,0:0:0:0:
204,103,17500,1,2,1:0:0:0:
274,301,17685,1,8,0:0:0:0:
198,84,17871,6,0,B|244:57|244:57|358:78,1,135,6|0,1:0|0:0,0:0:0:0:
358,78,18241,1,2,1:0:0:0:
509,224,18426,1,10,0:0:0:0:
302,339,18611,2,0,B|338:250|263:250|302:161,1,180,6|0,1:0|1:0,0:0:0:0:
344,104,19074,1,0,1:0:0:0:
344,104,19167,2,0,P|400:113|466:47,1,135,8|0,0:0|0:0,0:0:0:0:
384,33,19537,6,0,P|342:30|226:21,1,135.000005149842,6|0,0:0|0:0,0:0:0:0:
175,80,20093,2,0,P|171:115|181:156,1,67.5000025749208,2|0,0:0|0:0,0:0:0:0:
266,237,20463,2,0,P|273:204|268:171,1,67.5000025749208,2|0,0:0|0:0,0:0:0:0:
173,238,20834,1,2,3:0:0:0:
173,238,20926,1,0,3:0:0:0:
173,238,21019,6,0,P|140:232|107:227,1,67.5000025749208,10|0,0:3|0:0,0:0:0:0:
220,118,21389,1,0,0:0:0:0:
266,237,21574,2,0,B|272:270|272:270|262:306,1,67.5000025749208,2|0,0:0|0:0,0:0:0:0:
157,175,21945,1,2,0:0:0:0:
157,175,22037,1,0,0:0:0:0:
157,175,22130,1,10,0:3:0:0:
329,145,22315,1,2,3:0:0:0:
329,145,22408,1,0,3:0:0:0:
329,145,22500,6,0,P|385:151|442:210,1,135.000005149842,10|2,0:3|0:0,0:0:0:0:
280,210,23056,2,0,P|257:183|254:136,1,67.5000025749208,2|0,0:0|0:0,0:0:0:0:
358,87,23426,2,0,P|352:119|330:144,1,67.5000025749208,2|0,0:0|0:0,0:0:0:0:
266,51,23797,1,10,3:3:0:0:
266,51,23889,1,0,3:0:0:0:
266,51,23982,6,0,P|224:56|181:62,1,67.5000025749208,10|0,0:3|0:0,0:0:0:0:
120,106,24352,1,0,0:0:0:0:
251,153,24537,1,2,0:0:0:0:
102,103,24722,1,0,3:0:0:0:
96,118,24815,1,0,3:0:0:0:
92,134,24908,1,0,3:0:0:0:
88,151,25000,1,0,3:0:0:0:
86,167,25093,2,0,P|90:205|93:231,1,33.7500012874604,10|0,3:3|3:0,3:0:0:0:
169,257,25278,2,0,P|171:240|173:223,1,33.7500012874604,0|0,3:0|3:0,3:0:0:0:
97,292,25463,6,0,P|138:331|220:321,1,135.000005149842,10|2,0:3|0:0,0:0:0:0:
319,215,26019,2,0,P|285:218|251:221,1,67.5000025749208,2|0,0:0|0:0,0:0:0:0:
116,125,26389,2,0,P|149:127|183:131,1,67.5000025749208,2|0,0:0|0:0,0:0:0:0:
290,93,26759,1,2,3:0:0:0:
290,93,26852,1,0,3:0:0:0:
290,93,26945,6,0,P|294:59|299:26,1,67.5000025749208,10|0,0:3|0:0,0:0:0:0:
394,164,27315,2,0,P|398:197|403:230,1,67.5000025749208,2|0,0:0|0:0,0:0:0:0:
251,192,27685,1,2,0:0:0:0:
444,79,27871,1,0,3:0:0:0:
444,79,27963,1,0,3:0:0:0:
444,79,28056,1,10,0:3:0:0:
261,47,28241,1,2,3:2:0:0:
261,47,28334,1,0,3:0:0:0:
261,47,28426,6,0,P|209:43|171:41,1,67.5000025749208,10|2,0:3|0:0,0:0:0:0:
343,25,28797,2,0,P|346:64|332:102,1,67.5000025749208,2|0,0:0|0:0,0:0:0:0:
234,208,29167,1,0,3:0:0:0:
234,208,29259,1,0,3:0:0:0:
234,208,29352,1,0,3:0:0:0:
261,47,29537,1,0,0:0:0:0:
349,230,29722,2,0,P|362:256|374:279,1,33.7500012874604,8|0,0:3|0:0,0:0:0:0:
300,141,29908,1,2,0:0:0:0:
444,233,30093,5,2,0:0:0:0:
292,306,30278,1,2,0:0:0:0:
419,125,30463,1,2,0:0:0:0:
436,377,30648,5,2,1:0:0:0:
194,260,30834,1,2,1:0:0:0:
194,260,30926,1,0,1:0:0:0:
194,260,31019,2,0,P|187:207|181:164,1,67.5000025749208,10|2,0:0|0:0,0:0:0:0:
319,54,31389,6,0,P|371:46|471:115,1,180,6|10,1:0|0:0,0:0:0:0:
246,117,31945,2,0,P|240:84|229:26,1,90,2|0,1:0|0:0,0:0:0:0:
365,157,32315,1,2,1:0:0:0:
186,194,32500,2,0,P|144:200|86:181,1,90,8|2,0:0|0:0,0:0:0:0:
246,117,32871,5,2,1:0:0:0:
257,287,33056,1,0,0:0:0:0:
147,112,33241,1,8,0:0:0:0:
378,182,33426,2,0,B|425:190|477:199,1,90,2|0,1:0|0:0,0:0:0:0:
367,54,33797,1,2,1:0:0:0:
263,201,33982,2,0,P|248:238|256:288,1,90,10|2,0:0|0:0,0:0:0:0:
375,140,34352,6,0,P|382:96|367:54,1,90,2|0,1:0|0:0,0:0:0:0:
205,158,34722,1,10,0:0:0:0:
382,238,34908,2,0,P|423:232|471:225,1,90,2|0,1:0|0:0,0:0:0:0:
375,140,35278,1,2,1:0:0:0:
256,286,35463,2,0,P|215:280|167:273,1,90,8|2,0:0|0:0,0:0:0:0:
375,140,35834,5,2,1:0:0:0:
357,334,36019,1,0,0:0:0:0:
209,165,36204,2,0,B|194:121|194:121|200:71,1,90,10|0,0:0|1:0,0:0:0:0:
364,233,36574,1,2,0:0:0:0:
154,314,36759,1,2,1:0:0:0:
154,314,36852,1,0,1:0:0:0:
154,314,36945,2,0,P|108:324|60:335,1,90,8|0,0:0|0:0,0:0:0:0:
237,253,37315,6,0,P|258:298|243:368,1,90,6|0,1:0|0:0,0:0:0:0:
111,236,37685,2,0,P|110:191|130:151,1,90,10|0,0:0|0:0,0:0:0:0:
302,87,38056,1,2,1:0:0:0:
140,45,38241,1,0,1:0:0:0:
270,181,38426,2,0,P|314:177|369:172,1,90,10|2,0:0|0:0,0:0:0:0:
212,117,38797,5,0,1:0:0:0:
333,270,38982,1,2,0:0:0:0:
394,85,39167,1,10,0:0:0:0:
193,232,39352,2,0,P|144:236|85:242,1,90,2|0,1:0|0:0,0:0:0:0:
253,105,39722,1,0,1:0:0:0:
338,290,39908,1,8,0:0:0:0:
249,88,40093,1,2,0:0:0:0:
187,311,40278,6,0,B|137:307|137:307|64:332|64:332|11:327,1,180,6|10,1:0|0:0,0:0:0:0:
134,216,40834,1,0,0:0:0:0:
286,274,41019,2,0,P|295:322|277:373,1,90,2|0,1:0|1:0,0:0:0:0:
131,200,41389,1,10,0:0:0:0:
363,131,41574,6,0,P|400:124|479:109,1,90,6|0,0:0|0:0,0:0:0:0:
215,65,41945,1,2,1:0:0:0:
386,237,42130,1,10,0:0:0:0:
467,11,42315,2,0,P|422:19|378:27,1,90,4|0,0:0|0:0,0:0:0:0:
194,155,42685,1,0,1:0:0:0:
194,155,42778,1,0,1:0:0:0:
194,155,42871,1,8,0:0:0:0:
437,247,43056,6,0,P|458:175|433:107,1,135.000005149842,6|0,0:0|0:0,0:0:0:0:
353,104,43611,2,0,B|315:107|264:111,1,67.5000025749208,2|0,0:0|1:0,0:0:0:0:
173,185,43982,2,0,P|240:189|308:195,1,135.000005149842,10|0,0:0|0:0,0:0:0:0:
413,271,44537,6,0,P|345:276|278:280,1,135.000005149842,6|0,0:0|1:0,0:0:0:0:
173,185,45093,2,0,P|163:146|168:114,1,67.5000025749208,2|0,0:0|1:0,0:0:0:0:
328,37,45463,2,0,P|338:76|333:108,1,67.5000025749208,10|0,0:0|3:0,0:0:0:0:
334,102,45741,1,0,3:0:0:0:
334,102,45834,1,0,3:0:0:0:
258,212,46019,6,0,B|242:152|242:152|252:87,1,101.250003862381,6|0,0:0|0:0,0:0:0:0:
252,80,46389,1,2,0:0:0:0:
351,214,46574,1,2,0:0:0:0:
195,279,46759,1,2,1:0:0:0:
364,207,46945,1,10,0:0:0:0:
293,350,47130,1,2,0:0:0:0:
246,148,47315,1,2,0:0:0:0:
420,263,47500,6,0,P|383:283|315:258,1,101.250003862381,6|0,0:0|0:0,0:0:0:0:
299,251,47871,1,2,1:0:0:0:
379,68,48056,1,2,0:0:0:0:
502,218,48241,1,2,1:0:0:0:
502,218,48334,1,2,1:0:0:0:
502,218,48426,2,0,P|504:250|507:280,1,33.7500012874604,10|0,3:2|3:2,3:2:0:0:
363,201,48611,2,0,P|364:184|365:167,1,33.7500012874604,2|0,3:2|3:2,3:2:0:0:
483,68,48797,2,0,P|484:84|485:101,1,33.7500012874604,0|0,3:2|3:2,3:2:0:0:
362,58,48982,6,0,B|324:42|324:42|216:63,1,135.000005149842,6|0,0:0|0:0,0:0:0:0:
157,135,49537,2,0,P|160:182|161:223,1,67.5000025749208,2|0,0:0|1:0,0:0:0:0:
268,312,49908,2,0,P|264:245|258:177,1,135.000005149842,10|0,0:0|0:0,0:0:0:0:
370,75,50463,6,0,P|365:143|361:210,1,135.000005149842,6|0,1:0|1:0,0:0:0:0:
218,145,51019,2,0,P|265:132|304:142,1,67.5000025749208,2|0,0:0|1:0,0:0:0:0:
205,305,51389,1,10,0:0:0:0:
132,190,51574,1,0,3:0:0:0:
132,190,51667,1,0,3:0:0:0:
132,190,51759,2,0,P|126:142|123:128,1,33.7500012874604,2|0,3:0|3:0,3:0:0:0:
92,278,51945,6,0,B|178:305|178:246|268:277,1,180,2|0,1:0|0:0,0:0:0:0:
145,101,53056,2,0,P|139:148|131:202,1,90,2|2,0:0|0:0,0:0:0:0:
240,229,53611,6,0,P|233:184|227:139,1,90,2|0,0:0|0:0,0:0:0:0:
227,139,54352,6,0,P|259:142|316:170,1,94.499997116089,2|0,0:0|0:0,0:0:0:0:
385,130,54722,6,0,P|354:178|357:248,1,121.499996292114,2|0,0:0|0:0,0:0:0:0:
366,268,55093,5,2,3:0:0:0:
169,89,55278,1,0,3:0:0:0:
134,367,55463,1,0,3:0:0:0:
314,168,55648,1,0,3:0:0:0:
67,186,55834,5,0,3:0:0:0:
354,240,56019,1,0,3:0:0:0:
51,354,56204,1,0,3:0:0:0:
265,95,56389,1,0,3:0:0:0:
265,95,56482,1,0,3:0:0:0:
265,95,56574,5,2,3:2:0:0:
355,338,56759,1,2,3:2:0:0:
88,199,56945,1,2,3:2:0:0:
403,62,57130,1,2,3:2:0:0:
172,362,57315,5,2,3:2:0:0:
279,40,57500,1,2,3:2:0:0:
279,40,57593,1,0,3:0:0:0:
279,40,57685,1,2,3:2:0:0:
463,265,57871,1,2,3:2:0:0:
128,256,58056,5,2,3:2:0:0:
83,254,58148,1,0,3:0:0:0:
43,234,58241,1,0,3:0:0:0:
17,197,58334,1,0,3:0:0:0:
10,153,58426,1,0,3:0:0:0:
23,111,58519,1,0,3:0:0:0:
54,78,58611,1,0,3:0:0:0:
96,63,58704,1,0,3:0:0:0:
140,68,58797,6,0,L|199:61,1,45,0|0,3:0|3:0,3:0:0:0:
318,153,58982,2,0,L|259:145,1,45,0|0,3:0|3:0,3:0:0:0:
154,224,59167,2,0,L|212:216,1,45,0|0,3:0|3:0,3:0:0:0:
305,312,59352,2,0,L|246:304,1,45,0|0,3:0|3:0,3:0:0:0:
116,298,59537,5,2,1:0:0:0:
390,355,59722,2,0,B|414:316|414:316|401:220,1,135,2|0,1:0|0:0,0:0:0:0:
394,213,60093,6,0,P|356:187|289:191,1,101.250003862381,2|0,0:0|0:0,0:0:0:0:
270,196,60463,1,2,0:0:0:0:
89,95,60648,1,2,0:0:0:0:
62,131,60741,1,0,0:0:0:0:
52,174,60834,1,2,0:0:0:0:
59,218,60926,1,0,0:0:0:0:
82,256,61019,6,0,P|169:268|285:283,1,198.000006042481,6|8,1:0|0:0,0:0:0:0:
432,360,61574,1,2,1:0:0:0:
393,169,61759,1,0,0:0:0:0:
272,365,61945,1,2,1:0:0:0:
223,176,62130,2,0,P|217:118|213:76,1,99.0000030212403,10|0,0:0|0:0,0:0:0:0:
392,185,62500,6,0,P|386:243|382:285,1,99.0000030212403,2|0,1:0|0:0,0:0:0:0:
329,108,62871,2,0,P|376:88|441:104,1,99.0000030212403,10|0,0:0|1:0,0:0:0:0:
279,240,63241,1,2,0:0:0:0:
212,26,63426,1,0,1:0:0:0:
212,26,63519,1,0,0:0:0:0:
212,26,63611,1,10,0:0:0:0:
392,186,63797,1,2,0:0:0:0:
161,245,63982,6,0,P|111:253|57:261,1,99.0000030212403,2|0,1:0|0:0,0:0:0:0:
147,70,64352,1,10,0:0:0:0:
289,194,64537,2,0,P|307:236|294:303,1,99.0000030212403,2|0,1:0|0:0,0:0:0:0:
301,287,64815,1,0,0:0:0:0:
301,287,64908,1,2,1:0:0:0:
229,117,65093,2,0,P|277:109|326:101,1,99.0000030212403,10|0,0:0|0:0,0:0:0:0:
425,262,65463,6,0,P|417:310|409:359,1,99.0000030212403,2|0,1:0|0:0,0:0:0:0:
235,230,65834,2,0,P|227:181|219:132,1,99.0000030212403,10|0,0:0|1:0,0:0:0:0:
330,307,66204,1,2,0:0:0:0:
106,257,66389,1,0,1:0:0:0:
106,257,66482,1,0,1:0:0:0:
106,257,66574,2,0,P|98:208|90:159,1,99.0000030212403,14|2,0:0|0:0,0:0:0:0:
185,332,66945,6,0,P|118:364|-2:281,1,198.000006042481,6|10,1:0|0:0,0:0:0:0:
162,186,67500,1,2,1:0:0:0:
274,366,67685,1,0,0:0:0:0:
106,257,67871,1,2,1:0:0:0:
301,169,68056,2,0,P|345:162|404:152,1,99.0000030212403,10|0,0:0|0:0,0:0:0:0:
217,67,68426,6,0,P|173:60|114:50,1,99.0000030212403,2|0,1:0|0:0,0:0:0:0:
187,261,68797,2,0,P|235:269|284:277,1,99.0000030212403,10|0,0:0|1:0,0:0:0:0:
356,252,69074,1,0,0:0:0:0:
356,252,69167,2,0,P|358:226|360:193,1,49.5000015106202,2|0,3:0|3:0,0:0:0:0:
456,115,69352,2,0,P|457:139|459:164,1,49.5000015106202,0|0,1:0|3:0,0:0:0:0:
348,99,69537,2,0,P|277:71|188:98,1,148.50000453186,10|0,0:0|0:0,0:0:0:0:
182,102,69908,6,0,B|163:162|163:162|197:323,1,198.000006042481,6|8,1:0|0:0,0:0:0:0:
342,372,70463,1,2,0:0:0:0:
487,217,70648,6,0,B|419:205|419:205|367:224|367:224|286:208,1,198.000006042481,6|10,1:0|0:0,0:0:0:0:
95,115,71204,1,2,0:0:0:0:
346,30,71389,6,0,B|345:77|342:142,1,99.0000030212403,6|2,1:0|0:0,0:0:0:0:
220,291,71759,1,10,0:0:0:0:
85,95,71945,2,0,P|128:89|193:108,1,99.0000030212403,6|0,1:0|0:0,0:0:0:0:
385,235,72315,1,2,1:0:0:0:
385,235,72408,1,0,1:0:0:0:
385,235,72500,1,10,0:0:0:0:
118,334,72685,1,2,0:0:0:0:
299,176,72871,6,0,P|369:131|471:193,1,198.000006042481,6|10,1:0|0:0,0:0:0:0:
312,301,73426,1,2,1:0:0:0:
312,301,73519,1,0,0:0:0:0:
312,301,73611,1,0,0:0:0:0:
219,116,73797,1,2,1:0:0:0:
47,228,73982,2,0,P|28:180|39:130,1,99.0000030212403,10|0,0:0|0:0,0:0:0:0:
175,260,74352,6,0,P|183:308|164:353,1,99.0000030212403,2|0,1:0|0:0,0:0:0:0:
138,175,74722,2,0,P|192:178|243:183,1,99.0000030212403,10|0,0:0|1:0,0:0:0:0:
409,238,75093,1,2,0:0:0:0:
216,92,75278,1,0,1:0:0:0:
216,92,75371,1,0,1:0:0:0:
216,92,75463,1,10,0:0:0:0:
301,317,75648,1,2,0:0:0:0:
440,118,75834,6,0,P|452:69|437:20,1,99.0000030212403,6|0,1:0|0:0,0:0:0:0:
331,211,76204,1,10,0:0:0:0:
512,255,76389,1,2,1:0:0:0:
352,68,76574,1,6,0:0:0:0:
352,68,76667,1,0,0:0:0:0:
352,68,76759,1,0,1:0:0:0:
253,259,76945,2,0,P|242:330|232:385,1,99.0000030212403,10|2,0:0|0:0,0:0:0:0:
118,202,77315,6,0,P|109:153|102:104,1,99.0000030212403,6|0,1:0|0:0,0:0:0:0:
295,174,77685,1,8,0:0:0:0:
62,311,77871,1,2,1:0:0:0:
202,138,78056,1,0,0:0:0:0:
356,297,78241,1,2,1:0:0:0:
356,297,78334,1,0,1:0:0:0:
356,297,78426,2,0,P|363:248|371:199,1,99.0000030212403,8|2,0:0|0:0,0:0:0:0:
184,138,78797,6,0,P|106:144|52:143,1,99.0000030212403,6|0,1:0|0:0,0:0:0:0:
293,213,79167,1,2,0:0:0:0:
224,38,79352,1,2,1:0:0:0:
97,254,79537,1,8,0:0:0:0:
30,64,79722,1,2,3:0:0:0:
30,64,79815,1,0,3:0:0:0:
30,64,79908,2,0,P|25:37|20:16,1,49.5000015106202,0|0,3:0|3:0,0:0:0:0:
169,110,80093,2,0,P|164:134|159:158,1,49.5000015106202,2|0,1:0|3:0,0:0:0:0:
64,243,80278,6,0,P|72:294|83:352,1,99.0000030212403,2|0,1:0|0:0,0:0:0:0:
95,321,80556,2,0,P|86:272|79:223,1,99.0000030212403,0|0,1:0|0:0,0:0:0:0:
52,216,80834,1,2,1:0:0:0:
191,337,81019,1,8,1:0:0:0:
136,150,81204,1,2,0:0:0:0:
12,380,81389,1,8,1:0:0:0:
249,233,81574,6,0,B|347:196|347:268|442:232,1,198.000006042481,6|0,0:0|1:0,0:0:0:0:
282,134,82130,2,0,P|242:138|181:172,1,99.0000030212403,8|0,0:0|0:0,0:0:0:0:
307,350,82500,1,2,1:0:0:0:
307,350,82593,1,2,0:0:0:0:
307,350,82685,1,2,0:0:0:0:
431,123,82871,1,10,0:0:0:0:
431,123,82963,1,2,0:0:0:0:
431,123,83056,1,2,0:0:0:0:
163,279,83241,6,0,P|132:274|108:271,1,49.5000015106202,0|0,3:0|3:0,0:0:0:0:
316,203,83426,2,0,P|347:198|371:195,1,49.5000015106202,2|0,3:0|3:0,0:0:0:0:
167,112,83611,2,0,P|136:107|112:104,1,49.5000015106202,0|0,3:0|3:0,0:0:0:0:
289,30,83797,2,0,P|320:25|344:22,1,49.5000015106202,2|0,3:2|3:0,0:0:0:0:
219,194,83982,5,2,0:0:0:0:
219,194,84352,1,2,0:0:0:0:
112,26,84537,5,8,0:3:0:0:
256,192,84630,12,2,88241,0:0:0:0:
