osu file format v14

[General]
AudioFilename: audio.mp3
AudioLeadIn: 0
PreviewTime: -1
Countdown: 0
SampleSet: Soft
StackLeniency: 0.4
Mode: 0
LetterboxInBreaks: 0
WidescreenStoryboard: 1

[Editor]
DistanceSpacing: 1.2
BeatDivisor: 4
GridSize: 16
TimelineZoom: 1

[Metadata]
Title:For... (TV Size)
TitleUnicode:For... (TV Size)
Artist:Aida Rikako
ArtistUnicode:逢田梨香子
Creator:Tamaki Kotatsu
Version:for love
Source:戦×恋
Tags:
BeatmapID:2211464
BeatmapSetID:1057948

[Difficulty]
HPDrainRate:5
CircleSize:4
OverallDifficulty:9
ApproachRate:9.3
SliderMultiplier:1.4
SliderTickRate:1

[Events]
//Background and Video events
0,0,"Natsuki lewds pog.jpg",0,0
//Break Periods
//Storyboard Layer 0 (Background)
//Storyboard Layer 1 (Fail)
//Storyboard Layer 2 (Pass)
//Storyboard Layer 3 (Foreground)
//Storyboard Layer 4 (Overlay)
//Storyboard Sound Samples

[TimingPoints]
1430,370.37037037037,4,2,0,50,1,0
1430,-125,4,2,0,50,0,0
13837,-83.3333333333333,4,2,0,50,0,0
18837,-250,4,2,0,50,0,0
19207,-100,4,2,0,50,0,0
31059,-90.9090909090909,4,2,0,50,0,0
42726,-111.111111111111,4,2,0,50,0,0
45504,-83.3333333333333,4,2,0,50,0,0
46429,-50,4,2,0,50,0,0
46615,-83.3333333333333,4,2,0,50,0,0
48652,-90.9090909090909,4,2,0,50,0,0
51615,-400,4,2,0,50,0,0
54763,-90.9090909090909,4,2,0,50,0,0
60318,-71.4285714285714,4,2,0,50,0,1
84207,-125,4,2,0,50,0,0

[HitObjects]
120,169,1430,6,0,B|169:143|169:143|224:177,1,112
288,299,1985,2,0,P|295:240|304:188,1,112
157,265,2541,2,0,P|187:257|223:256,1,56
373,209,2911,2,0,P|345:206|317:199,1,56
212,102,3281,2,0,L|204:170,1,56
308,55,3652,2,0,L|301:0,1,56
393,120,4022,1,0,0:0:0:0:
512,39,4207,1,0,0:0:0:0:
512,39,4300,1,0,0:0:0:0:
512,39,4392,6,0,L|441:26,1,56
373,143,4763,1,0,0:0:0:0:
373,143,4948,2,0,P|427:131|487:122,1,112
305,70,5504,1,0,0:0:0:0:
290,208,5689,1,0,0:0:0:0:
290,208,5781,1,0,0:0:0:0:
290,208,5874,6,0,L|280:284,1,56
210,156,6244,2,0,P|182:159|155:167,1,56
303,219,6615,2,0,P|329:227|357:230,1,56
301,92,6985,2,0,L|296:126,2,28
147,182,7355,6,0,P|187:145|184:86,1,112
44,160,7911,2,0,P|82:198|141:193,1,112
92,27,8467,2,0,L|98:90,1,56
192,155,8837,2,0,L|197:99,1,56
60,204,9207,2,0,P|87:204|131:220,1,56
242,294,9578,2,0,P|215:301|187:302,1,56
75,371,9948,2,0,B|64:332|64:332|76:288,1,84
85,295,10318,5,0,0:0:0:0:
299,369,10504,1,0,0:0:0:0:
410,224,11059,5,0,0:0:0:0:
196,298,11245,1,0,0:0:0:0:
85,153,11800,5,0,0:0:0:0:
299,227,11986,1,0,0:0:0:0:
256,192,12078,12,0,12911,0:0:0:0:
267,155,13281,5,0,0:0:0:0:
289,22,13467,1,0,0:0:0:0:
288,174,13652,1,0,0:0:0:0:
112,74,13837,2,0,B|146:82|170:56|170:56|191:89|241:87,1,125.999996154785
232,80,14207,2,0,P|260:52|277:5,1,83.9999974365235
364,141,14578,6,2,P|362:224|271:260,1,167.999994873047
445,342,15133,1,0,0:0:0:0:
445,342,15318,2,0,L|351:327,1,83.9999974365235
182,373,15689,1,0,0:0:0:0:
202,368,15781,1,0,0:0:0:0:
226,363,15874,2,0,L|269:350,1,41.9999987182618
103,384,16059,2,0,L|62:371,1,41.9999987182618
64,205,16244,6,0,P|124:247|111:303,1,125.999996154785
127,302,16615,1,0,0:0:0:0:
244,182,16800,2,0,L|225:271,1,83.9999974365235
141,125,17170,1,0,0:0:0:0:
141,125,17355,1,0,0:0:0:0:
330,197,17541,6,0,P|324:137|231:96,1,167.999994873047
158,271,18096,1,0,0:0:0:0:
158,271,18281,2,0,L|254:255,1,83.9999974365235
348,375,18652,1,0,0:0:0:0:
344,354,18744,1,0,0:0:0:0:
339,332,18837,2,0,L|329:279,1,42
329,279,19207,6,0,P|374:250|429:259,1,105
434,264,19578,1,0,0:0:0:0:
443,194,19763,2,0,L|431:282,1,70
350,139,20133,2,0,L|362:227,1,70
430,104,20504,1,0,0:0:0:0:
430,104,20596,1,0,0:0:0:0:
430,104,20689,5,0,0:0:0:0:
343,49,20874,1,0,0:0:0:0:
434,1,21059,1,0,0:0:0:0:
339,152,21244,1,0,0:0:0:0:
339,152,21615,5,0,0:0:0:0:
252,97,21801,1,0,0:0:0:0:
165,152,21985,1,0,0:0:0:0:
48,128,22170,6,0,L|157:144,1,105
165,152,22541,1,0,0:0:0:0:
124,290,22726,2,0,P|121:251|106:214,1,70
211,329,23096,2,0,P|214:290|229:253,1,70
137,369,23467,1,0,0:0:0:0:
137,369,23652,2,0,B|102:384|74:363|74:363|45:342|6:366,1,140
30,207,24207,2,0,L|15:294,2,70
116,283,24763,1,0,0:0:0:0:
48,126,24948,1,0,0:0:0:0:
48,126,25041,1,0,0:0:0:0:
48,126,25133,6,0,P|97:152|106:214,1,105
120,192,25504,1,0,0:0:0:0:
140,45,25689,2,0,L|123:124,1,70
38,0,26059,2,0,L|55:79,1,70
202,157,26429,1,0,0:0:0:0:
202,157,26522,1,0,0:0:0:0:
202,157,26615,6,0,P|238:155|277:141,1,70
249,4,26985,2,0,P|232:36|225:76,1,70
358,121,27355,2,0,P|338:90|306:64,1,70
338,206,27726,1,0,0:0:0:0:
414,62,27911,1,0,0:0:0:0:
414,62,28004,1,0,0:0:0:0:
414,62,28096,6,0,P|366:83|371:131,1,105
387,140,28467,2,0,P|410:168|421:207,2,70
260,202,29022,2,0,L|336:213,1,70
199,139,29392,1,0,0:0:0:0:
199,139,29578,1,0,0:0:0:0:
248,295,29763,5,0,0:0:0:0:
282,121,29948,1,0,0:0:0:0:
456,155,30133,1,0,0:0:0:0:
422,329,30318,1,0,0:0:0:0:
301,138,30504,6,0,L|351:152,1,35
141,250,30689,1,0,0:0:0:0:
318,333,30874,1,0,0:0:0:0:
171,162,31059,6,0,P|136:198|139:271,1,115.50000352478
129,270,31429,1,0,2:0:0:0:
0,125,31615,2,0,P|36:127|76:133,1,77.0000023498536
201,270,31985,2,0,P|162:275|124:278,1,77.0000023498536
168,104,32355,1,0,0:0:0:0:
168,104,32448,1,0,0:0:0:0:
168,104,32541,2,0,P|184:136|177:184,1,77.0000023498536
32,296,32911,1,0,0:0:0:0:
32,296,33096,2,0,L|49:198,1,77.0000023498536
173,384,33467,5,0,0:0:0:0:
288,263,33652,1,0,0:0:0:0:
188,281,33837,1,0,0:0:0:0:
389,338,34022,2,0,L|266:351,1,115.50000352478
258,359,34392,1,0,0:0:0:0:
228,201,34578,2,0,P|218:158|201:111,1,77.0000023498536
376,233,34948,2,0,P|385:190|403:143,1,77.0000023498536
388,331,35318,1,0,0:0:0:0:
388,331,35411,1,0,0:0:0:0:
388,331,35504,6,0,P|448:314|469:265,1,115.50000352478
311,304,35874,6,0,P|355:347|408:341,1,115.50000352478
304,247,36244,6,0,L|295:290,1,38.5000011749268
387,169,36429,1,0,0:0:0:0:
379,131,36521,1,0,0:0:0:0:
372,93,36615,2,0,L|355:7,1,77.0000023498536
272,160,36985,6,0,P|239:176|194:179,1,77.0000023498536
387,79,37355,2,0,P|425:82|459:98,1,77.0000023498536
389,263,37726,2,0,P|384:223|375:183,1,77.0000023498536
486,306,38096,1,0,0:0:0:0:
302,267,38281,1,0,0:0:0:0:
302,267,38374,1,0,0:0:0:0:
302,267,38467,6,0,P|324:326|416:346,1,154.000004699707,0|0,2:0|2:0,2:0:0:0:
389,124,39022,2,0,B|422:194|422:194|378:285,1,154.000004699707
499,143,39578,1,0,0:0:0:0:
309,175,39763,1,0,0:0:0:0:
309,175,39855,1,0,0:0:0:0:
309,175,39948,2,0,P|269:165|228:160,1,77.0000023498536
93,90,40318,2,0,P|131:80|174:75,1,77.0000023498536
55,171,40689,2,0,P|3:99|40:27,1,154.000004699707
147,184,41244,6,0,P|161:223|162:275,1,77.0000023498536
37,186,41615,1,0,0:0:0:0:
0,311,41800,2,0,P|34:313|78:319,1,77.0000023498536
231,360,42170,1,0,0:0:0:0:
174,159,42355,1,0,0:0:0:0:
183,196,42447,1,0,0:0:0:0:
192,233,42541,2,0,L|205:284,1,38.5000011749268
374,301,42726,6,0,B|346:285|337:252|337:252|320:283|279:290,1,125.999996154785
381,384,43281,2,0,L|303:371,1,62.9999980773926
448,340,43652,2,0,L|526:327,1,62.9999980773926
374,301,44022,1,0,0:0:0:0:
413,161,44207,2,0,P|395:223|384:297,1,125.999996154785
287,219,44763,2,0,P|321:217|364:208,1,62.9999980773926
462,158,45133,2,0,P|430:152|399:150,1,62.9999980773926
321,125,45504,5,0,0:0:0:0:
321,125,45596,1,0,0:0:0:0:
321,125,45689,2,0,B|297:101|297:70|297:70|293:101|263:126,1,125.999996154785
183,51,46059,2,0,P|205:52|231:63,1,41.9999987182618
187,136,46244,2,0,P|174:154|152:171,1,41.9999987182618
111,96,46429,6,0,B|78:80|78:80|111:57,1,70
74,177,46615,2,0,L|82:233,1,41.9999987182618
153,291,46800,2,0,P|155:268|161:235,1,41.9999987182618
68,300,46985,2,0,L|20:306,1,41.9999987182618
121,369,47170,2,0,P|193:368|226:327,1,125.999996154785
240,334,47541,6,0,L|234:286,1,41.9999987182618
324,342,47726,2,0,P|319:363|318:383,1,41.9999987182618
309,261,47911,1,0,0:0:0:0:
309,261,48004,1,0,0:0:0:0:
309,261,48096,2,0,P|328:256|358:254,1,41.9999987182618
446,325,48281,2,0,L|398:319,1,41.9999987182618
434,236,48467,1,0,0:0:0:0:
436,215,48559,1,0,0:0:0:0:
439,194,48652,6,0,B|434:151|391:142|391:142|433:135|441:90,1,154.000004699707
287,73,49207,2,0,L|374:64,1,77.0000023498536
215,156,49578,2,0,P|206:77|191:-5,1,154.000004699707
303,163,50133,2,0,P|263:227|188:245,1,154.000004699707
55,166,50689,2,0,P|91:170|142:181,1,77.0000023498536
121,368,51059,2,0,B|108:260|108:260|88:302,1,154.000004699707
199,325,51615,6,0,L|187:234,1,87.5
187,238,53281,5,0,0:0:0:0:
187,238,54022,5,0,0:0:0:0:
187,238,54763,6,0,L|202:354,1,115.50000352478
212,358,55133,1,0,0:0:0:0:
106,281,55318,1,0,0:0:0:0:
287,300,55504,1,0,0:0:0:0:
125,369,55689,1,0,0:0:0:0:
266,220,55874,1,0,0:0:0:0:
372,349,56059,1,0,0:0:0:0:
198,270,56244,5,0,0:0:0:0:
375,134,56429,1,0,0:0:0:0:
187,172,56615,1,0,0:0:0:0:
437,201,56800,1,0,0:0:0:0:
266,93,56985,6,0,L|261:153,1,38.5000011749268
357,267,57170,2,0,L|352:207,1,38.5000011749268
407,63,57355,2,0,L|403:101,1,38.5000011749268
239,317,57540,2,0,L|235:278,1,38.5000011749268
449,371,57726,5,0,0:0:0:0:
450,332,57818,1,0,0:0:0:0:
453,294,57911,1,0,0:0:0:0:
456,255,58003,1,0,0:0:0:0:
461,217,58096,1,0,0:0:0:0:
459,179,58188,1,0,0:0:0:0:
436,149,58281,1,0,0:0:0:0:
400,138,58373,1,0,0:0:0:0:
364,149,58466,1,0,0:0:0:0:
342,179,58558,1,0,0:0:0:0:
341,217,58652,1,0,0:0:0:0:
366,189,58744,1,0,0:0:0:0:
372,152,58837,1,0,0:0:0:0:
357,117,58929,1,0,0:0:0:0:
325,96,59022,1,0,0:0:0:0:
287,95,59114,1,0,0:0:0:0:
255,115,59207,6,0,P|235:125|199:133,1,38.5000011749268
56,55,59392,2,0,P|74:61|91:70,1,38.5000011749268
91,70,60318,2,0,L|98:12,3,48.9999985046387
100,81,60689,6,0,B|135:144|135:144|97:225,1,146.999995513916
54,265,61059,2,0,B|101:233|149:264|149:264|192:293|239:269,1,195.999994018555
131,141,61615,1,0,0:0:0:0:
37,280,61800,2,0,P|47:327|55:377,1,97.9999970092774
238,269,62170,6,0,P|186:279|136:254,1,97.9999970092774
330,301,62541,2,0,P|364:341|368:396,1,97.9999970092774
312,206,62911,2,0,P|329:155|375:125,1,97.9999970092774
195,198,63281,1,0,0:0:0:0:
399,245,63467,1,0,0:0:0:0:
399,245,63559,1,0,0:0:0:0:
399,245,63652,6,0,B|505:258|505:258|467:229,1,146.999995513916
457,225,64022,1,0,0:0:0:0:
512,384,64207,1,0,0:0:0:0:
512,384,64578,1,0,0:0:0:0:
312,295,64763,6,0,P|298:221|358:153,1,146.999995513916
353,160,65133,2,0,L|247:145,1,97.9999970092774
386,250,65504,2,0,L|492:235,1,97.9999970092774
299,310,65874,1,0,0:0:0:0:
240,129,66059,1,0,0:0:0:0:
237,177,66151,1,0,0:0:0:0:
234,226,66244,1,0,0:0:0:0:
434,165,66429,1,0,0:0:0:0:
434,165,66522,1,0,0:0:0:0:
434,165,66615,6,0,L|412:8,1,146.999995513916
401,9,66985,1,0,0:0:0:0:
512,127,67170,1,0,0:0:0:0:
512,127,67541,1,0,0:0:0:0:
307,80,67726,6,0,B|268:86|246:49|246:49|225:85|153:85,1,146.999995513916
171,77,68096,2,0,P|163:124|157:188,1,97.9999970092774
17,110,68467,2,0,P|9:62|3:-1,1,97.9999970092774
75,220,68837,2,0,B|125:200|125:200|196:241|196:241|275:219,1,195.999994018555
75,364,69392,1,0,0:0:0:0:
75,364,69485,1,0,0:0:0:0:
75,364,69578,6,0,P|83:311|147:377,1,195.999994018555
313,233,70133,1,0,0:0:0:0:
313,233,70226,1,0,0:0:0:0:
313,233,70319,6,0,P|305:180|241:246,1,195.999994018555
90,83,70874,1,0,0:0:0:0:
90,83,70967,1,0,0:0:0:0:
90,83,71059,2,0,L|98:29,1,48.9999985046387
226,157,71244,2,0,L|175:177,1,48.9999985046387
222,2,71429,2,0,L|264:35,1,48.9999985046387
441,133,71615,6,0,L|341:117,1,97.9999970092774
512,0,71985,1,0,0:0:0:0:
463,7,72077,1,0,0:0:0:0:
415,15,72170,1,0,0:0:0:0:
512,198,72355,1,0,0:0:0:0:
428,356,72541,6,0,B|383:295|383:295|428:201,1,146.999995513916
425,222,72911,1,0,0:0:0:0:
319,374,73096,1,0,0:0:0:0:
319,374,73467,1,0,0:0:0:0:
129,295,73652,2,0,P|204:286|287:282,1,146.999995513916
286,271,74022,6,0,P|300:228|297:167,1,97.9999970092774
108,321,74392,2,0,P|155:315|207:312,1,97.9999970092774
97,126,74763,2,0,P|48:123|0:117,1,97.9999970092774
216,208,75133,1,0,0:0:0:0:
95,346,75318,1,0,0:0:0:0:
95,346,75411,1,0,0:0:0:0:
95,346,75504,6,0,B|106:227|106:227|67:197|17:221,1,195.999994018555
221,325,76059,1,0,0:0:0:0:
207,125,76244,2,0,L|198:240,1,97.9999970092774
343,360,76615,1,0,0:0:0:0:
485,283,76800,1,0,0:0:0:0:
485,283,76892,1,0,0:0:0:0:
485,283,76985,6,0,P|456:278|431:272,1,48.9999985046387
298,182,77170,2,0,P|327:177|352:171,1,48.9999985046387
483,106,77355,1,0,0:0:0:0:
284,0,77541,2,0,P|292:48|300:112,1,97.9999970092774
120,126,77911,1,0,0:0:0:0:
168,130,78003,1,0,0:0:0:0:
217,134,78096,1,0,0:0:0:0:
97,0,78281,1,0,0:0:0:0:
97,0,78374,1,0,0:0:0:0:
97,0,78467,6,0,L|-5:12,1,97.9999970092774
202,42,78837,1,0,0:0:0:0:
112,139,79022,2,0,P|120:184|126:238,1,97.9999970092774
250,368,79392,2,0,P|255:319|263:271,1,97.9999970092774
97,368,79763,1,0,0:0:0:0:
97,368,79855,1,0,0:0:0:0:
97,368,79948,6,0,B|66:316|58:271|58:271|56:302|48:318,1,146.999995513916
44,331,80318,1,0,0:0:0:0:
204,204,80504,1,0,0:0:0:0:
346,226,80689,1,0,0:0:0:0:
191,92,80874,1,0,0:0:0:0:
49,114,81059,1,0,0:0:0:0:
187,301,81244,2,0,P|114:237|152:140,1,195.999994018555
289,0,81800,2,0,P|282:50|277:111,1,97.9999970092774
333,276,82170,1,0,0:0:0:0:
508,180,82355,5,0,0:0:0:0:
470,149,82447,1,0,0:0:0:0:
423,136,82540,1,0,0:0:0:0:
375,145,82632,1,0,0:0:0:0:
393,101,82726,2,0,P|383:76|380:48,1,48.9999985046387
316,262,82911,5,0,0:0:0:0:
319,310,83003,1,0,0:0:0:0:
322,359,83096,2,0,B|391:330|391:330|465:368,1,146.999995513916
469,372,83467,5,0,0:0:0:0:
469,372,84207,1,0,0:0:0:0:
256,192,84300,12,0,88096,0:0:0:0:
