osu file format v14

[General]
AudioFilename: audio.mp3
AudioLeadIn: 0
PreviewTime: 58635
Countdown: 0
SampleSet: Soft
StackLeniency: 0.7
Mode: 0
LetterboxInBreaks: 0
WidescreenStoryboard: 0

[Editor]
Bookmarks: 20807,42140,52807,59473
DistanceSpacing: 1.2
BeatDivisor: 4
GridSize: 4
TimelineZoom: 1

[Metadata]
Title:Love Power (TV Size)
TitleUnicode:Love Power (TV Size)
Artist:Aice5
ArtistUnicode:Aice⁵
Creator:bossandy
Version:Rukaru's Hard
Source:乙女はお姉さまに恋してる
Tags:CARAMEL BOX Alchemist Kyle_Y Rukaru 堀江由衣 Horie Yui 高橋智秋 Takahashi Chiaki 神田朱未 Kanda Akemi 淺野真澄 Asano Masumi 木村圓 Kimura Madoka 処女はお姉さまに恋してる Otome wa Onee-sama ni Koishiteru
BeatmapID:1675955
BeatmapSetID:793724

[Difficulty]
HPDrainRate:5
CircleSize:4
OverallDifficulty:6
ApproachRate:8
SliderMultiplier:1.2
SliderTickRate:1

[Events]
//Background and Video events
0,0,"BG.jpg",0,0
Video,-950,"video.avi"
//Break Periods
//Storyboard Layer 0 (Background)
//Storyboard Layer 1 (Fail)
//Storyboard Layer 2 (Pass)
//Storyboard Layer 3 (Foreground)
//Storyboard Sound Samples

[TimingPoints]
1894,800,4,2,1,40,1,0
8294,802.139037433155,4,2,1,40,1,0
13708,-100,4,2,1,20,0,0
13908,-100,4,2,1,60,0,0
15112,-100,4,2,1,20,0,0
15474,333.333333333333,4,2,1,60,1,0
42140,-125,4,2,1,60,0,0
52807,-100,4,2,1,60,0,0
59473,333.333333333333,4,2,1,60,1,1
59473,-90.9090909090909,4,2,1,60,0,1
68806,-100,4,2,1,60,0,0
70139,-90.9090909090909,4,2,1,60,0,1
83472,333.333333333333,4,2,1,60,1,1
83472,-90.9090909090909,4,2,1,60,0,1
90138,-100,4,2,1,60,0,0

[Colours]
Combo1 : 255,221,119
Combo2 : 128,255,128
Combo3 : 136,189,255
Combo4 : 248,114,134

[HitObjects]
190,217,1094,6,0,L|249:214,1,60,2|0,0:0|0:0,0:0:0:0:
139,291,1894,2,0,L|80:285,1,60
199,228,2694,2,0,L|333:239,1,120,2|0,0:0|0:0,0:0:0:0:
163,143,4294,6,0,L|282:152,1,120,2|0,0:0|0:0,0:0:0:0:
361,110,5494,1,0,0:0:0:0:
433,162,5894,2,0,L|500:167,1,60,2|0,0:0|0:0,0:0:0:0:
361,110,6694,2,0,L|286:116,1,60,2|0,0:0|0:0,0:0:0:0:
301,114,7294,2,0,B|311:147|311:147|302:204,1,90,0|0,0:0|0:0,0:0:0:0:
403,66,8294,6,0,L|381:201,1,120,2|2,0:0|0:0,0:0:0:0:
486,54,9898,1,2,0:0:0:0:
486,54,10098,2,0,L|478:123,1,60,0|2,0:0|0:0,0:0:0:0:
313,70,11101,5,2,0:0:0:0:
256,138,11502,2,0,P|249:167|255:196,1,60,0|0,0:0|0:0,0:0:0:0:
339,228,12304,2,0,P|345:200|339:171,1,60,2|0,0:0|0:0,0:0:0:0:
276,298,13106,2,0,P|313:322|357:320,1,90,2|0,0:0|0:0,0:0:0:0:
397,301,13908,2,0,P|317:330|254:272,1,180,2|0,0:0|0:0,0:0:0:0:
389,104,15474,6,0,L|463:115,2,60,4|0|0,0:0|0:0|0:0,0:0:0:0:
310,149,15974,2,0,L|236:160,2,60,4|0|0,0:0|0:0|0:0,0:0:0:0:
387,194,16474,2,0,P|401:248|383:313,1,120,4|0,0:0|0:0,0:0:0:0:
297,286,16974,1,8,0:0:0:0:
216,326,17140,2,0,L|139:340,1,60,8|0,0:0|0:0,0:0:0:0:
71,306,17473,2,0,L|11:316,1,60,8|0,0:0|0:0,0:0:0:0:
104,221,17807,2,0,L|181:235,1,60,8|0,0:0|0:0,0:0:0:0:
242,275,18140,6,0,L|231:148,1,120,4|0,0:0|0:0,0:0:0:0:
321,215,18640,2,0,L|310:88,1,120,4|0,0:0|0:0,0:0:0:0:
401,154,19140,2,0,L|390:27,1,120,4|0,0:0|0:0,0:0:0:0:
476,60,19640,1,8,0:3:0:0:
479,150,19807,2,0,P|474:186|450:218,1,60,8|0,0:3|0:0,0:0:0:0:
375,231,20140,2,0,L|299:236,1,60,4|0,0:3|0:0,0:0:0:0:
438,291,20473,2,0,L|514:296,1,60,8|0,0:3|0:0,0:0:0:0:
326,244,20807,6,0,L|206:236,1,120,4|8,3:1|0:0,0:0:0:0:
417,181,21473,2,0,P|446:172|478:176,1,60,0|0,3:0|3:0,0:0:0:0:
453,257,21807,1,8,0:0:0:0:
370,241,21973,2,0,L|379:120,1,120,0|0,3:0|3:0,0:0:0:0:
289,82,22473,2,0,L|293:141,1,60,8|0,0:0|3:0,0:0:0:0:
358,41,22807,2,0,P|311:4|235:21,1,120,0|8,0:0|0:0,0:0:0:0:
24,206,23473,6,0,L|100:202,1,60,0|0,3:0|0:0,0:0:0:0:
214,251,23807,2,0,P|186:261|157:256,1,60,8|0,0:0|0:0,0:0:0:0:
173,108,24140,2,0,L|178:168,1,60,0|0,3:0|3:0,0:0:0:0:
250,62,24473,1,8,0:0:0:0:
296,139,24640,2,0,L|290:268,1,120,0|0,3:0|3:0,0:0:0:0:
391,355,25140,1,8,0:0:0:0:
391,355,25307,2,0,L|374:236,1,120,0|0,3:0|3:0,0:0:0:0:
428,163,25807,2,0,P|458:174|498:164,1,60,8|0,0:0|0:0,0:0:0:0:
391,85,26140,6,0,L|320:87,1,60,0|0,3:0|0:0,0:0:0:0:
262,144,26473,1,8,0:0:0:0:
175,114,26640,2,0,P|158:171|150:230,1,120,0|0,0:0|3:0,0:0:0:0:
71,157,27140,2,0,P|69:121|60:89,1,60,8|0,0:0|3:0,0:0:0:0:
128,35,27473,2,0,P|187:34|245:14,1,120,0|8,3:0|0:0,0:0:0:0:
315,70,27973,2,0,P|372:55|432:61,1,120,0|0,3:0|3:0,0:0:0:0:
410,148,28473,2,0,L|347:154,1,60,8|0,0:0|0:0,0:0:0:0:
259,162,28807,6,0,B|275:194|275:194|263:290,1,120,0|8,3:0|0:0,0:0:0:0:
213,351,29307,2,0,P|266:324|330:350,1,120,0|0,3:0|3:0,0:0:0:0:
383,276,29807,1,8,0:0:0:0:
442,343,29973,1,0,3:0:0:0:
486,263,30140,2,0,P|510:210|502:150,1,120,4|8,3:1|0:0,0:0:0:0:
378,186,30640,2,0,P|354:133|362:73,1,120,4|0,3:1|3:0,0:0:0:0:
266,15,31140,2,0,L|201:28,1,60,8|0,0:0|0:0,0:0:0:0:
149,119,31473,6,0,P|93:130|22:109,2,120,4|8|0,3:1|0:0|3:0,0:0:0:0:
209,186,32307,2,0,P|201:216|200:247,1,60,0|8,3:0|0:0,0:0:0:0:
297,210,32640,2,0,P|285:150|291:91,1,120,0|0,3:0|3:0,0:0:0:0:
198,107,33140,2,0,L|127:103,1,60,8|0,0:0|3:0,0:0:0:0:
75,154,33473,2,0,P|100:101|79:47,1,120,0|8,0:0|0:0,0:0:0:0:
14,259,34140,6,0,L|30:378,1,120,0|8,3:0|0:0,0:0:0:0:
108,334,34640,1,0,0:0:0:0:
184,286,34807,2,0,L|260:293,1,60,0|0,3:0|3:0,0:0:0:0:
338,191,35140,1,8,0:0:0:0:
338,191,35307,2,0,L|205:199,1,120,0|0,3:0|3:0,0:0:0:0:
124,103,35807,1,8,0:0:0:0:
124,103,35973,2,0,L|257:111,1,120,0|0,3:0|3:0,0:0:0:0:
326,76,36473,2,0,P|333:44|322:11,1,60,8|0,0:0|0:0,0:0:0:0:
243,110,36807,6,0,B|235:152|235:152|246:189|246:189|240:227,1,120,0|8,3:0|0:0,0:0:0:0:
69,127,37473,2,0,L|-4:136,1,60,0|0,3:0|3:0,0:0:0:0:
136,18,37807,2,0,P|142:52|133:86,1,60,8|0,0:0|3:0,0:0:0:0:
93,203,38140,2,0,P|144:174|205:177,1,120,0|8,3:0|0:0,0:0:0:0:
298,213,38640,2,0,P|357:215|408:185,1,120,0|0,3:0|3:0,0:0:0:0:
245,148,39140,1,8,0:0:0:0:
245,148,39307,6,0,B|276:206|229:205|246:263,1,120,6|0,0:0|3:0,0:0:0:0:
207,345,39807,2,0,P|178:355|149:354,1,60,8|0,0:0|0:0,0:0:0:0:
17,305,40140,2,0,L|77:299,1,60,0|0,3:0|3:0,0:0:0:0:
131,227,40473,2,0,P|141:181|134:157,1,60,8|0,0:0|3:0,0:0:0:0:
56,63,40807,2,0,L|60:123,2,60,4|8|8,3:2|3:0|3:0,0:0:0:0:
139,27,41307,1,4,3:0:0:0:
194,96,41473,2,0,P|226:100|253:92,1,60,8|4,3:0|3:0,0:0:0:0:
333,31,41807,2,0,L|342:103,1,60,0|4,3:0|3:0,0:0:0:0:
435,46,42140,6,0,L|423:148,1,96,4|0,3:2|3:0,0:0:0:0:
423,140,42807,2,0,P|382:117|335:121,1,96,8|0,0:0|3:0,0:0:0:0:
257,160,43307,2,0,P|209:164|169:140,1,96,0|0,3:0|0:0,0:0:0:0:
107,80,43807,2,0,B|83:70|83:70|5:86,2,96,0|8|0,3:0|0:0|0:0,0:0:0:0:
107,80,44807,6,0,B|102:131|102:131|111:170|111:170|105:221,1,144,0|0,3:0|0:0,0:0:0:0:
48,286,45473,2,0,L|59:340,2,48,8|0|0,0:0|0:0|3:0,0:0:0:0:
131,308,45973,2,0,L|232:299,1,96,0|0,3:0|0:0,0:0:0:0:
276,228,46473,2,0,P|258:183|261:136,1,96,0|8,3:0|0:0,0:0:0:0:
413,53,47140,1,0,3:0:0:0:
445,275,47473,6,0,L|345:271,1,96,4|0,3:2|3:0,0:0:0:0:
349,271,48140,2,0,P|356:293|355:317,2,48,8|0|0,0:0|0:0|3:0,0:0:0:0:
288,208,48640,2,0,P|239:194|194:210,1,96,4|0,3:2|0:0,0:0:0:0:
118,242,49140,2,0,L|124:144,1,96,0|8,3:0|0:0,0:0:0:0:
173,311,49807,1,0,3:0:0:0:
22,225,50140,6,0,P|-1:178|7:133,1,96,4|0,3:2|3:0,0:0:0:0:
133,19,50807,2,0,L|127:114,1,96,8|0,0:0|3:0,0:0:0:0:
169,190,51307,2,0,P|178:137|224:115,1,96,4|0,3:2|3:0,0:0:0:0:
270,53,51807,2,0,L|322:57,1,48,8|0,0:0|0:0,0:0:0:0:
296,140,52140,2,0,L|391:126,1,96,8|0,0:0|3:0,0:0:0:0:
272,229,52807,6,0,P|213:228|169:190,1,120,4|8,3:2|0:0,0:0:0:0:
114,89,53307,2,0,P|108:142|57:180,1,120,4|0,2:2|3:0,2:0:0:0:
0,24,53807,2,0,L|79:27,1,60,8|0,0:0|3:0,0:0:0:0:
234,78,54140,2,0,L|115:89,1,120,4|8,3:2|0:0,0:0:0:0:
299,138,54640,2,0,P|357:151|414:132,1,120,4|0,3:2|3:0,0:0:0:0:
479,78,55140,2,0,L|484:18,1,60,8|0,0:0|3:0,0:0:0:0:
501,159,55473,6,0,B|523:219|473:220|495:280,2,120,4|8|8,3:2|0:0|0:0,0:0:0:0:
420,186,56307,2,0,P|395:192|361:184,1,60,0|8,0:0|0:0,0:0:0:0:
287,141,56640,2,0,P|229:135|177:163,1,120,4|0,3:2|3:0,0:0:0:0:
128,94,57140,2,0,P|137:66|133:34,1,60,8|0,0:0|0:0,0:0:0:0:
41,82,57473,2,0,L|47:147,1,60,0|0,3:0|3:0,0:0:0:0:
17,235,57807,2,0,B|39:225|39:225|75:226,1,60,8|0,0:0|0:0,0:0:0:0:
144,273,58140,6,0,P|185:276|224:241,1,90,8|0,3:2|0:0,0:0:0:0:
234,233,58473,2,0,L|335:240,1,90,8|0,3:2|0:0,0:0:0:0:
339,248,58807,2,0,P|334:208|370:158,1,90,8|8,3:2|0:0,0:0:0:0:
373,157,59140,2,0,L|445:160,1,60,8|8,0:0|0:0,0:0:0:0:
451,158,59390,1,0,0:0:0:0:
465,147,59473,6,0,P|490:96|445:21,1,132.00000402832,4|10,3:2|0:0,0:0:0:0:
379,55,59973,1,0,0:0:0:0:
295,77,60139,2,0,L|227:67,1,66.0000020141602,0|0,3:0|3:0,0:0:0:0:
148,40,60473,2,0,P|150:80|137:119,1,66.0000020141602,10|0,0:0|0:0,0:0:0:0:
82,166,60806,2,0,P|144:146|200:177,1,132.00000402832,0|10,3:0|0:0,0:0:0:0:
436,312,61473,2,0,P|375:331|319:301,1,132.00000402832,0|10,3:0|0:0,0:0:0:0:
256,242,61973,1,0,0:0:0:0:
193,301,62139,6,0,P|136:331|75:312,1,132.00000402832,0|10,3:0|0:0,0:0:0:0:
29,239,62639,1,0,0:0:0:0:
102,195,62806,2,0,L|178:205,1,66.0000020141602,0|0,3:0|3:0,0:0:0:0:
240,158,63139,1,10,0:0:0:0:
256,242,63306,1,0,0:0:0:0:
321,186,63472,2,0,P|353:180|385:187,1,66.0000020141602,0|0,3:0|0:0,0:0:0:0:
353,296,63806,1,10,0:0:0:0:
256,242,63972,2,0,B|242:179|291:180|261:110,1,132.00000402832,0|0,3:0|3:0,0:0:0:0:
194,61,64472,2,0,L|128:56,1,66.0000020141602,10|0,0:0|0:0,0:0:0:0:
24,149,64806,6,0,P|78:164|158:128,2,132.00000402832,0|10|0,3:0|0:0|3:0,0:0:0:0:
53,68,65639,1,0,3:0:0:0:
126,23,65806,2,0,L|191:27,1,66.0000020141602,10|0,0:0|0:0,0:0:0:0:
272,76,66139,2,0,P|268:43|276:12,2,66.0000020141602,0|0|10,3:0|0:0|0:0,0:0:0:0:
338,131,66639,2,0,P|294:113|209:162,1,132.00000402832,0|0,3:0|3:0,0:0:0:0:
135,126,67139,2,0,P|143:161|146:194,1,66.0000020141602,10|0,0:0|0:0,0:0:0:0:
211,246,67472,6,0,L|79:230,1,132.00000402832,0|10,3:0|0:0,0:0:0:0:
307,352,68139,2,0,L|175:336,1,132.00000402832,0|10,3:0|0:0,0:0:0:0:
370,231,68806,2,0,P|378:260|375:290,1,60,4|0,3:2|0:0,0:0:0:0:
307,352,69139,1,10,0:0:0:0:
375,290,69306,2,0,P|436:282|490:315,1,120,4|0,3:2|3:0,0:0:0:0:
461,210,69806,2,0,P|457:180|465:151,1,60,10|0,0:0|3:0,0:0:0:0:
371,181,70139,6,0,L|233:178,1,132.00000402832,4|10,3:2|0:0,0:0:0:0:
168,128,70639,1,0,0:0:0:0:
101,182,70806,2,0,P|98:213|107:249,1,66.0000020141602,0|0,3:0|3:0,0:0:0:0:
74,326,71139,2,0,L|8:322,1,66.0000020141602,10|0,0:0|0:0,0:0:0:0:
106,246,71472,2,0,L|237:239,1,132.00000402832,0|10,3:0|0:0,0:0:0:0:
459,91,72139,6,0,P|401:64|337:78,1,132.00000402832,0|10,3:0|0:0,0:0:0:0:
264,123,72639,1,0,0:0:0:0:
186,85,72806,2,0,P|122:70|63:98,1,132.00000402832,0|10,3:0|0:0,0:0:0:0:
32,178,73306,1,0,0:0:0:0:
2,258,73472,2,0,L|11:335,1,66.0000020141602,0|0,3:0|3:0,0:0:0:0:
89,255,73806,2,0,B|125:248|125:248|169:257,1,66.0000020141602,10|0,0:0|0:0,0:0:0:0:
204,184,74139,2,0,P|195:153|200:120,1,66.0000020141602,0|0,3:0|0:0,0:0:0:0:
281,146,74472,1,10,0:0:0:0:
268,66,74639,2,0,P|204:37|137:63,1,132.00000402832,0|0,3:0|3:0,0:0:0:0:
281,146,75139,2,0,L|346:144,1,66.0000020141602,10|0,0:0|0:0,0:0:0:0:
428,82,75472,6,0,L|441:213,1,132.00000402832,0|10,3:0|0:0,0:0:0:0:
130,331,76139,2,0,L|143:200,1,132.00000402832,0|10,3:0|0:0,0:0:0:0:
192,129,76639,1,0,0:0:0:0:
273,100,76806,2,0,P|305:95|336:107,1,66.0000020141602,0|0,3:0|0:0,0:0:0:0:
296,183,77139,1,10,0:0:0:0:
192,129,77306,2,0,B|151:127|151:127|105:142|105:142|53:137,1,132.00000402832,0|0,3:0|3:0,0:0:0:0:
38,48,77806,1,10,0:0:0:0:
123,12,77972,1,0,0:0:0:0:
206,52,78139,6,0,L|292:43,1,66.0000020141602,0|0,3:0|0:0,0:0:0:0:
361,22,78472,2,0,L|350:95,1,66.0000020141602,10|0,2:0|0:0,0:0:0:0:
282,204,78806,2,0,L|273:139,1,66.0000020141602,0|0,3:0|3:0,0:0:0:0:
376,34,79139,2,0,L|365:107,1,66.0000020141602,10|0,0:0|0:0,0:0:0:0:
271,212,79472,2,0,L|290:81,1,132.00000402832,4|10,3:2|0:0,0:0:0:0:
81,252,80139,2,0,P|139:279|202:265,1,132.00000402832,4|10,3:2|0:0,0:0:0:0:
476,192,80806,6,0,P|417:164|354:178,1,132.00000402832,4|10,3:2|0:0,0:0:0:0:
277,230,81306,1,0,0:0:0:0:
300,120,81472,2,0,P|298:81|285:50,1,66.0000020141602,0|0,3:0|3:0,0:0:0:0:
196,107,81806,2,0,L|121:101,1,66.0000020141602,10|0,0:0|0:0,0:0:0:0:
24,190,82139,2,0,L|90:185,1,66.0000020141602,0|0,3:0|0:0,0:0:0:0:
164,239,82472,1,10,0:0:0:0:
246,197,82639,1,0,3:0:0:0:
327,240,82806,2,0,P|333:272|328:307,1,66.0000020141602,0|0,0:0|3:0,0:0:0:0:
251,356,83139,1,14,0:0:0:0:
163,324,83306,1,0,0:0:0:0:
163,324,83389,1,0,0:0:0:0:
163,324,83472,6,0,L|24:339,1,132.00000402832,4|10,3:2|0:0,0:0:0:0:
47,246,83972,1,0,0:0:0:0:
12,160,84138,2,0,P|1:129|5:84,1,66.0000020141602,0|0,3:0|3:0,0:0:0:0:
103,40,84472,2,0,L|96:109,1,66.0000020141602,10|0,0:0|0:0,0:0:0:0:
163,170,84805,2,0,B|231:187|228:135|288:142,1,132.00000402832,0|10,3:0|0:0,0:0:0:0:
368,186,85305,1,0,0:0:0:0:
292,296,85472,2,0,L|288:231,1,66.0000020141602,0|0,3:0|3:0,0:0:0:0:
372,120,85805,2,0,L|367:185,1,66.0000020141602,10|0,0:0|0:0,0:0:0:0:
277,310,86138,6,0,L|285:178,1,132.00000402832,0|10,3:0|0:0,0:0:0:0:
234,111,86638,2,0,P|283:139|359:116,1,132.00000402832,0|0,0:0|3:0,0:0:0:0:
254,26,87138,1,10,0:0:0:0:
156,126,87305,2,0,L|167:207,1,66.0000020141602,0|0,0:0|3:0,0:0:0:0:
223,324,87638,2,0,P|231:292|226:260,1,66.0000020141602,0|10,0:0|0:0,0:0:0:0:
100,259,87972,2,0,L|92:251|8:232,1,66.0000020141602,0|0,0:0|3:0,0:0:0:0:
76,166,88305,1,0,3:0:0:0:
100,259,88472,2,0,P|91:296|104:345,1,66.0000020141602,10|0,0:0|0:0,0:0:0:0:
180,370,88805,6,0,L|264:360,1,66.0000020141602,6|0,3:2|0:0,0:0:0:0:
337,350,89138,1,2,0:0:0:0:
203,279,89305,6,0,L|269:272,1,66.0000020141602,4|0,3:2|0:0,0:0:0:0:
360,260,89638,1,2,0:0:0:0:
219,188,89805,6,0,L|284:180,1,66.0000020141602,4|0,3:2|0:0,0:0:0:0:
376,168,90138,1,6,3:2:0:0:
