osu file format v14

[General]
AudioFilename: audio.mp3
AudioLeadIn: 0
PreviewTime: 58635
Countdown: 0
SampleSet: Soft
StackLeniency: 0.7
Mode: 0
LetterboxInBreaks: 0
WidescreenStoryboard: 0

[Editor]
DistanceSpacing: 0.8
BeatDivisor: 4
GridSize: 4
TimelineZoom: 1

[Metadata]
Title:Love Power (TV Size)
TitleUnicode:Love Power (TV Size)
Artist:Aice5
ArtistUnicode:Aice⁵
Creator:bossandy
Version:Insane
Source:乙女はお姉さまに恋してる
Tags:CARAMEL BOX Alchemist Kyle_Y Rukaru 堀江由衣 Horie Yui 高橋智秋 Takahashi Chiaki 神田朱未 Kanda Akemi 淺野真澄 Asano Masumi 木村圓 Kimura Madoka 処女はお姉さまに恋してる Otome wa Onee-sama ni Koishiteru
BeatmapID:1666827
BeatmapSetID:793724

[Difficulty]
HPDrainRate:6
CircleSize:4
OverallDifficulty:8
ApproachRate:9
SliderMultiplier:1.8
SliderTickRate:1

[Events]
//Background and Video events
0,0,"BG.jpg",0,0
Video,-950,"video.avi"
//Break Periods
//Storyboard Layer 0 (Background)
//Storyboard Layer 1 (Fail)
//Storyboard Layer 2 (Pass)
//Storyboard Layer 3 (Foreground)
//Storyboard Sound Samples

[TimingPoints]
1894,800,4,2,1,40,1,0
8294,802.139037433155,4,2,1,40,1,0
13908,-200,4,2,1,20,0,0
14711,-200,4,2,1,5,0,0
15312,-200,4,2,1,20,0,0
15474,333.333333333333,4,2,1,60,1,0
20807,-133.333333333333,4,2,1,60,0,0
42140,-200,4,2,1,60,0,0
47473,-166.666666666667,4,2,1,60,0,0
50140,-142.857142857143,4,2,1,60,0,0
52807,-125,4,2,1,60,0,0
55473,-111.111111111111,4,2,1,60,0,0
59473,333.333333333333,4,2,1,60,1,1
59473,-100,4,2,1,60,0,1
68806,-100,4,2,1,60,0,0
70139,-100,4,2,1,60,0,1
83472,333.333333333333,4,2,1,60,1,1
90138,-100,4,2,1,60,0,0

[Colours]
Combo1 : 255,221,119
Combo2 : 128,255,128
Combo3 : 136,189,255
Combo4 : 248,114,134

[HitObjects]
416,60,1094,6,0,L|313:52,1,90,2|0,0:0|0:0,0:0:0:0:
260,104,1894,2,0,L|157:96,1,90
108,40,2694,2,0,P|96:136|176:180,1,180,2|0,0:0|0:0,0:0:0:0:
404,40,4294,6,0,P|416:136|336:180,1,180,2|0,0:0|0:0,0:0:0:0:
340,96,5494,1,0,0:0:0:0:
256,112,5894,1,2,0:0:0:0:
172,124,6294,1,0,0:0:0:0:
224,192,6694,6,0,P|226:244|216:288,1,90,2|0,0:0|0:0,0:0:0:0:
188,312,7294,2,0,B|231:333|274:312|274:312|317:290|360:312,1,180
400,328,8294,6,0,P|448:328|488:304,1,90,2|0,0:0|0:0,0:0:0:0:
340,228,9096,2,0,P|384:227|423:247,1,90,2|0,0:0|0:0,0:0:0:0:
280,292,9898,1,2,0:0:0:0:
280,292,10098,2,0,P|256:253|255:209,1,90,0|2,0:0|0:0,0:0:0:0:
255,209,11101,1,2,0:0:0:0:
340,116,11502,5,0,0:0:0:0:
172,268,11903,1,0,0:0:0:0:
180,108,12304,1,2,0:0:0:0:
332,276,12705,1,0,0:0:0:0:
180,108,13106,6,0,P|114:110|68:158,1,135,2|0,0:0|0:0,0:0:0:0:
152,192,13908,6,0,B|169:196|169:196|187:187|187:187|205:196|205:196|223:187|223:187|241:196|241:196|259:187|259:187|276:196|276:196|294:192,1,157.5,2|0,0:0|0:0,0:0:0:0:
432,320,15474,6,0,P|488:248|476:164,1,180,4|0,0:0|0:0,0:0:0:0:
428,80,15974,2,0,P|316:96|252:60,1,180,4|0,0:0|0:0,0:0:0:0:
180,8,16474,2,0,B|96:44|96:44|60:124,1,180,4|0,0:0|0:0,0:0:0:0:
16,212,16974,5,8,0:0:0:0:
16,212,17057,1,0,0:0:0:0:
16,212,17140,1,8,0:0:0:0:
92,272,17307,1,0,0:0:0:0:
140,184,17473,2,0,L|176:96,1,90,8|0,0:0|0:0,0:0:0:0:
256,276,17807,2,0,L|220:188,1,90,8|0,0:0|0:0,0:0:0:0:
200,340,18140,6,0,P|256:276|348:280,1,180,4|0,0:0|0:0,0:0:0:0:
432,328,18640,2,0,P|500:280|496:176,1,180,4|0,0:0|0:0,0:0:0:0:
465,96,19140,2,0,B|380:124|380:124|344:132|290:123,1,180,4|0,0:0|0:0,0:0:0:0:
204,72,19640,5,8,0:3:0:0:
204,72,19723,1,0,0:0:0:0:
204,72,19807,1,8,0:3:0:0:
112,112,19973,1,0,0:0:0:0:
20,152,20140,5,4,0:3:0:0:
172,256,20307,1,0,0:0:0:0:
204,72,20473,1,8,0:3:0:0:
392,144,20807,6,0,P|325:152|263:129,1,135.000005149842,4|8,3:1|0:0,0:0:0:0:
204,72,21307,1,0,0:0:0:0:
140,20,21473,2,0,P|104:12|68:16,2,67.5000025749208,0|0|8,3:0|3:0|0:0,0:0:0:0:
96,152,21973,6,0,L|56:288,1,135.000005149842,0|0,3:0|3:0,0:0:0:0:
116,380,22473,2,0,L|136:304,1,67.5000025749208,8|0,0:0|3:0,0:0:0:0:
248,208,22807,2,0,L|208:344,1,135.000005149842,0|8,0:0|0:0,0:0:0:0:
452,232,23473,6,0,B|468:168|468:168|444:104,1,135.000005149842,0|8,3:0|0:0,0:0:0:0:
416,28,23973,1,0,0:0:0:0:
340,60,24140,2,0,L|272:52,2,67.5000025749208,0|0|8,3:0|3:0|0:0,0:0:0:0:
348,200,24640,6,0,P|260:210|210:189,1,135.000005149842,0|0,3:0|3:0,0:0:0:0:
400,136,25140,1,8,0:0:0:0:
432,216,25307,2,0,P|372:280|320:296,1,135.000005149842,0|0,3:0|3:0,0:0:0:0:
400,136,25807,1,8,0:0:0:0:
328,294,25973,1,0,0:0:0:0:
224,156,26140,6,0,P|191:148|157:151,2,67.5000025749208,0|0|8,3:0|0:0|0:0,0:0:0:0:
100,224,26640,2,0,P|64:176|80:92,1,135.000005149842,0|0,0:0|3:0,0:0:0:0:
184,244,27140,2,0,P|172:276|136:304,1,67.5000025749208,8|0,0:0|3:0,0:0:0:0:
260,384,27473,6,0,P|299:330|310:264,1,135.000005149842,0|8,3:0|0:0,0:0:0:0:
272,192,27973,2,0,P|325:232|391:244,1,135.000005149842,0|0,3:0|3:0,0:0:0:0:
444,180,28473,2,0,L|512:172,1,67.5000025749208,8|0,0:0|0:0,0:0:0:0:
392,80,28807,6,0,L|258:59,1,135.000005149842,0|8,3:0|0:0,0:0:0:0:
236,180,29307,2,0,L|102:159,1,135.000005149842,0|0,3:0|3:0,0:0:0:0:
52,224,29807,1,8,0:0:0:0:
80,80,29973,1,0,3:0:0:0:
52,224,30140,5,4,3:1:0:0:
20,368,30307,1,0,3:0:0:0:
160,324,30473,1,8,0:0:0:0:
52,224,30640,1,4,3:1:0:0:
244,308,30973,5,0,3:0:0:0:
52,224,31140,1,8,0:0:0:0:
328,288,31473,6,0,P|400:248|420:184,1,135.000005149842,4|8,3:1|0:0,0:0:0:0:
360,148,31973,1,0,0:0:0:0:
316,80,32140,2,0,P|305:39|308:12,2,67.5000025749208,0|0|8,3:0|3:0|0:0,0:0:0:0:
304,216,32640,6,0,B|240:240|240:240|172:232,1,135.000005149842,0|0,3:0|3:0,0:0:0:0:
92,220,33140,2,0,L|24:208,1,67.5000025749208,8|0,0:0|3:0,0:0:0:0:
124,340,33473,2,0,L|256:316,1,135.000005149842,0|8,0:0|0:0,0:0:0:0:
308,380,33973,1,0,0:0:0:0:
400,276,34140,6,0,B|416:243|400:211|400:211|383:179|400:146,1,135.000005149842,0|8,3:0|0:0,0:0:0:0:
464,96,34640,1,0,0:0:0:0:
308,160,34807,2,0,P|272:160|232:148,1,67.5000025749208,0|0,3:0|3:0,0:0:0:0:
176,108,35140,1,8,0:0:0:0:
329,236,35307,6,0,P|261:236|196:220,1,135.000005149842,0|0,3:0|3:0,0:0:0:0:
128,176,35807,1,8,0:0:0:0:
60,52,35973,2,0,P|60:119|44:184,1,135.000005149842,0|0,3:0|3:0,0:0:0:0:
0,253,36473,2,0,P|0:286|8:319,1,67.5000025749208,8|0,0:0|0:0,0:0:0:0:
140,264,36807,6,0,B|160:196|160:196|152:132,1,135.000005149842,0|8,3:0|0:0,0:0:0:0:
140,52,37307,1,0,0:0:0:0:
235,143,37473,2,0,P|300:159|364:140,1,135.000005149842,0|8,3:0|0:0,0:0:0:0:
428,88,37973,1,0,3:0:0:0:
464,216,38140,6,0,L|428:352,1,135.000005149842,0|8,3:0|0:0,0:0:0:0:
200,273,38640,2,0,L|236:137,1,135.000005149842,0|0,3:0|3:0,0:0:0:0:
316,312,39140,1,8,0:0:0:0:
128,344,39307,6,0,B|92:312|100:260|100:260|112:216,1,135.000005149842,6|0,0:0|3:0,0:0:0:0:
163,75,39807,2,0,P|191:95|207:123,1,67.5000025749208,8|0,0:0|0:0,0:0:0:0:
111,219,40140,2,0,P|108:184|119:154,1,67.5000025749208,0|0,3:0|3:0,0:0:0:0:
260,188,40473,2,0,P|228:202|196:202,1,67.5000025749208,8|0,0:0|3:0,0:0:0:0:
280,98,40807,5,4,3:2:0:0:
400,30,40973,1,8,3:0:0:0:
468,150,41140,1,8,3:0:0:0:
348,218,41307,1,4,3:0:0:0:
280,98,41473,5,8,3:0:0:0:
196,50,41640,1,4,3:0:0:0:
148,134,41807,1,0,3:0:0:0:
232,181,41973,1,4,3:0:0:0:
360,100,42140,6,0,L|460:80,1,90,4|0,3:2|3:0,0:0:0:0:
320,200,42807,2,0,L|231:180,1,90,8|0,0:0|3:0,0:0:0:0:
340,272,43307,6,0,P|380:248|396:204,1,90,0|0,3:0|0:0,0:0:0:0:
260,260,43807,2,0,P|264:306|297:339,2,90,0|8|0,3:0|0:0|0:0,0:0:0:0:
308,104,44807,6,0,L|160:88,1,135,0|0,3:0|0:0,0:0:0:0:
120,144,45473,2,0,L|64:136,1,45,8|0,0:0|0:0,0:0:0:0:
20,192,45807,1,0,3:0:0:0:
168,212,45973,6,0,B|216:216|216:216|256:200,1,90,0|0,3:0|0:0,0:0:0:0:
328,176,46473,1,0,3:0:0:0:
475,76,46807,1,8,0:0:0:0:
315,0,47140,1,0,3:0:0:0:
436,176,47473,6,0,P|442:234|428:284,1,107.999996704102,4|0,3:2|3:0,0:0:0:0:
268,308,48140,2,0,L|204:300,1,53.9999983520508,8|0,0:0|0:0,0:0:0:0:
144,340,48473,1,0,3:0:0:0:
52,220,48640,6,0,L|72:96,1,107.999996704102,4|0,3:2|0:0,0:0:0:0:
161,233,49140,2,0,L|141:357,1,107.999996704102,0|8,3:0|0:0,0:0:0:0:
52,220,49640,1,0,0:0:0:0:
176,136,49807,1,0,3:0:0:0:
288,340,50140,6,0,P|352:352|416:308,1,125.999996154785,4|0,3:2|3:0,0:0:0:0:
496,364,50640,1,0,0:0:0:0:
404,228,50807,2,0,B|388:192|392:156|392:156|408:104,1,125.999996154785,8|0,0:0|3:0,0:0:0:0:
512,36,51307,6,0,B|471:36|471:36|431:15|431:15|391:15,1,125.999996154785,4|0,3:2|3:0,0:0:0:0:
324,80,51807,2,0,L|260:88,1,62.9999980773926,8|0,0:0|0:0,0:0:0:0:
212,168,52140,2,0,L|148:160,1,62.9999980773926,8|0,0:0|3:0,0:0:0:0:
88,232,52473,1,0,3:0:0:0:
104,84,52640,1,0,3:0:0:0:
212,168,52807,6,0,P|224:244|196:316,1,144,4|8,3:2|0:0,0:0:0:0:
104,84,53307,2,0,P|163:35|240:23,1,144,4|0,3:2|3:0,0:0:0:0:
336,104,53807,1,8,0:0:0:0:
336,104,53973,1,0,3:0:0:0:
212,168,54140,6,0,P|259:220|326:245,1,144,4|8,3:2|0:0,0:0:0:0:
228,23,54640,2,0,P|158:38|104:84,1,144,4|0,3:2|3:0,0:0:0:0:
88,232,55140,1,8,0:0:0:0:
88,232,55307,1,0,3:0:0:0:
256,348,55473,6,0,L|436:336,1,161.999995056153,4|8,3:2|0:0,0:0:0:0:
488,240,55973,1,0,0:0:0:0:
408,148,56140,2,0,B|324:136|324:136|250:158,1,161.999995056153,8|8,0:0|0:0,0:0:0:0:
152,312,56640,6,0,P|84:260|64:176,1,161.999995056153,4|0,3:2|3:0,0:0:0:0:
144,96,57140,1,8,0:0:0:0:
144,96,57307,1,0,0:0:0:0:
250,157,57473,2,0,L|328:136,1,80.9999975280763,0|0,3:0|3:0,0:0:0:0:
472,244,57807,2,0,L|394:223,1,80.9999975280763,8|0,0:0|0:0,0:0:0:0:
328,135,58140,5,8,3:2:0:0:
280,248,58307,1,0,3:0:0:0:
252,88,58473,5,8,3:2:0:0:
192,229,58640,1,0,3:0:0:0:
180,44,58807,5,8,3:2:0:0:
108,213,58973,1,0,3:0:0:0:
108,213,59057,1,8,0:0:0:0:
108,213,59140,1,8,0:0:0:0:
292,176,59307,1,8,0:0:0:0:
292,176,59390,1,0,0:0:0:0:
292,176,59473,6,0,P|356:248|344:340,1,180,4|10,3:2|0:0,0:0:0:0:
244,376,59973,1,0,0:0:0:0:
128,352,60139,2,0,B|106:308|128:265|128:265|150:223|128:179,1,180,0|10,3:0|0:0,0:0:0:0:
36,108,60639,1,0,0:0:0:0:
132,40,60806,6,0,P|220:24|304:64,1,180,0|10,3:0|0:0,0:0:0:0:
324,176,61306,1,0,0:0:0:0:
416,107,61473,2,0,P|428:64|420:20,1,90,0|0,3:0|3:0,0:0:0:0:
299,60,61806,2,0,P|254:71|220:100,1,90,10|0,0:0|0:0,0:0:0:0:
324,176,62139,6,0,P|398:222|484:200,1,180,0|10,3:0|0:0,0:0:0:0:
416,107,62639,1,0,0:0:0:0:
221,98,62806,2,0,B|181:162|209:214|209:214|249:274,1,180,0|10,3:0|0:0,0:0:0:0:
312,356,63306,1,0,0:0:0:0:
418,262,63472,6,0,L|483:200,1,90,0|0,3:0|0:0,0:0:0:0:
416,107,63806,1,10,0:0:0:0:
296,172,63972,2,0,P|204:180|116:132,1,180,0|0,3:0|3:0,0:0:0:0:
132,24,64472,1,10,0:0:0:0:
28,76,64639,1,0,0:0:0:0:
68,266,64806,6,0,B|111:287|154:266|154:266|196:243|240:266,1,180,0|10,3:0|0:0,0:0:0:0:
192,372,65306,1,0,0:0:0:0:
112,192,65472,2,0,B|89:148|112:106|112:106|133:63|112:20,1,180,0|10,3:0|0:0,0:0:0:0:
0,60,65973,1,0,0:0:0:0:
184,148,66139,6,0,P|228:146|268:116,2,90,0|0|10,3:0|0:0|0:0,0:0:0:0:
184,280,66639,2,0,P|272:276|345:225,1,180,0|0,3:0|3:0,0:0:0:0:
380,112,67139,2,0,L|368:16,1,90,10|0,0:0|0:0,0:0:0:0:
464,196,67472,6,0,L|441:374,1,180,0|10,3:0|0:0,0:0:0:0:
348,304,67972,1,0,0:0:0:0:
256,232,68139,2,0,B|212:208|160:232|160:232|96:280,1,180,0|10,3:0|0:0,0:0:0:0:
4,352,68639,1,0,0:0:0:0:
28,164,68806,5,4,3:2:0:0:
92,360,68972,1,0,0:0:0:0:
256,232,69139,1,10,0:0:0:0:
192,36,69306,1,4,3:2:0:0:
192,36,69639,5,0,3:0:0:0:
256,232,69806,1,10,0:0:0:0:
92,360,69972,1,0,3:0:0:0:
28,164,70139,6,0,P|104:120|192:136,1,180,4|10,3:2|0:0,0:0:0:0:
256,232,70639,1,0,0:0:0:0:
328,324,70806,2,0,P|414:339|491:295,1,180,0|10,3:0|0:0,0:0:0:0:
512,180,71306,1,0,0:0:0:0:
344,232,71472,6,0,B|301:253|258:232|258:232|216:209|172:232,1,180,0|10,3:0|0:0,0:0:0:0:
80,304,71972,1,0,0:0:0:0:
8,212,72139,2,0,L|4:108,1,90,0|0,3:0|3:0,0:0:0:0:
100,52,72472,2,0,L|103:141,1,90,10|0,0:0|0:0,0:0:0:0:
80,304,72806,6,0,P|136:236|224:256,1,180,0|10,3:0|0:0,0:0:0:0:
288,344,73306,1,0,0:0:0:0:
352,208,73472,2,0,L|324:20,1,180,0|10,3:0|0:0,0:0:0:0:
216,68,73972,1,0,0:0:0:0:
104,104,74139,6,0,P|53:105|8:84,2,90,0|0|10,3:0|0:0|0:0,0:0:0:0:
216,68,74639,2,0,P|305:63|389:94,1,180,0|0,3:0|3:0,0:0:0:0:
332,196,75139,2,0,B|320:240|320:240|324:284,1,90,10|0,0:0|0:0,0:0:0:0:
192,192,75472,6,0,B|216:104|216:104|228:52|192:4,1,180,0|10,3:0|0:0,0:0:0:0:
104,80,75972,1,0,0:0:0:0:
88,224,76139,2,0,P|152:296|236:284,1,180,0|10,3:0|0:0,0:0:0:0:
320,216,76639,1,0,0:0:0:0:
380,116,76806,6,0,P|380:72|352:36,2,90,0|0|10,3:0|0:0|0:0,0:0:0:0:
320,216,77306,2,0,B|261:216|261:216|205:186|205:186|148:186,1,180,0|0,3:0|3:0,0:0:0:0:
290,115,77806,2,0,L|380:116,1,90,10|0,0:0|0:0,0:0:0:0:
180,288,78139,6,0,L|90:287,1,90,0|0,3:0|0:0,0:0:0:0:
147,186,78472,2,0,L|192:108,1,90,10|0,2:0|0:0,0:0:0:0:
251,208,78806,2,0,L|295:285,1,90,0|0,3:0|3:0,0:0:0:0:
180,288,79139,2,0,L|90:287,1,90,10|0,0:0|0:0,0:0:0:0:
148,186,79472,6,0,B|205:186|205:186|261:216|261:216|320:216,1,180,4|10,3:2|0:0,0:0:0:0:
412,144,79972,1,0,0:0:0:0:
324,68,80139,2,0,B|265:68|265:68|209:97|209:97|152:97,1,180,4|10,3:2|0:0,0:0:0:0:
44,144,80639,1,0,0:0:0:0:
44,324,80806,6,0,P|68:360|108:381,1,90,4|0,3:2|0:0,0:0:0:0:
159,275,81139,2,0,P|202:283|245:270,1,90,10|0,0:0|0:0,0:0:0:0:
196,164,81472,2,0,P|269:114|311:35,1,180,0|10,3:0|0:0,0:0:0:0:
200,0,81972,1,0,0:0:0:0:
108,72,82139,6,0,L|92:120,3,45,0|0|0|0,3:0|0:0|0:0|0:0,0:0:0:0:
116,192,82472,2,0,L|100:240,3,45,10|0|0|0,0:0|0:0|3:0|0:0,0:0:0:0:
76,312,82806,5,0,0:0:0:0:
123,329,82889,1,0,0:0:0:0:
173,335,82972,1,0,3:0:0:0:
223,329,83056,1,0,0:0:0:0:
270,311,83139,1,14,0:0:0:0:
317,292,83222,1,0,0:0:0:0:
367,286,83306,1,0,0:0:0:0:
417,293,83389,1,0,0:0:0:0:
464,312,83472,6,0,P|496:224|476:132,1,180,4|10,3:2|0:0,0:0:0:0:
424,36,83972,1,0,0:0:0:0:
328,104,84138,2,0,L|216:92,1,90,0|0,3:0|3:0,0:0:0:0:
152,172,84472,2,0,L|40:160,1,90,10|0,0:0|0:0,0:0:0:0:
272,288,84805,6,0,L|93:268,1,180,0|10,3:0|0:0,0:0:0:0:
152,172,85305,1,0,0:0:0:0:
256,376,85472,2,0,L|434:356,1,180,0|10,3:0|0:0,0:0:0:0:
376,256,85972,1,0,0:0:0:0:
324,152,86138,6,0,L|344:44,1,90,0|0,3:0|0:0,0:0:0:0:
216,124,86472,2,0,L|108:104,1,90,10|0,0:0|0:0,0:0:0:0:
188,232,86805,2,0,L|168:340,1,90,0|0,3:0|3:0,0:0:0:0:
296,260,87138,2,0,L|404:280,1,90,10|0,0:0|0:0,0:0:0:0:
216,124,87472,6,0,L|127:140,1,90,0|0,3:0|0:0,0:0:0:0:
334,191,87805,2,0,L|364:106,1,90,10|0,0:0|0:0,0:0:0:0:
217,260,88138,2,0,L|275:329,1,90,0|0,3:0|3:0,0:0:0:0:
216,124,88472,1,10,0:0:0:0:
334,191,88638,1,0,0:0:0:0:
217,260,88805,6,0,L|97:240,1,90,6|0,3:2|0:0,0:0:0:0:
12,224,89138,1,2,0:0:0:0:
216,124,89305,2,0,L|304:109,1,90,4|0,3:2|0:0,0:0:0:0:
421,88,89638,1,2,0:0:0:0:
217,260,89805,5,4,3:2:0:0:
334,191,89972,1,0,0:0:0:0:
132,48,90138,5,6,3:2:0:0:
