osu file format v14

[General]
AudioFilename: audio.mp3
AudioLeadIn: 0
PreviewTime: 85472
Countdown: 0
SampleSet: Soft
StackLeniency: 0.7
Mode: 3
LetterboxInBreaks: 0
SpecialStyle: 0
WidescreenStoryboard: 1

[Editor]
DistanceSpacing: 1
BeatDivisor: 4
GridSize: 32
TimelineZoom: 1.4

[Metadata]
Title:Nyan Nyan Dive (EmoCosine Remix)
TitleUnicode:Nyan Nyan Dive (EmoCosine Remix)
Artist:Aice room
ArtistUnicode:Aice room
Creator:Critical_Star
Version:Normal
Source:
Tags:lofi lo-fi kawaii futurebass future bass featured artist fa nor エモコサイン electronic instrumental house hyper pop
BeatmapID:4156361
BeatmapSetID:1999339

[Difficulty]
HPDrainRate:6.5
CircleSize:4
OverallDifficulty:6.5
ApproachRate:5
SliderMultiplier:1.4
SliderTickRate:1

[Events]
//Background and Video events
0,0,"BG.jpg",0,0
//Break Periods
//Storyboard Layer 0 (Background)
//Storyboard Layer 1 (Fail)
//Storyboard Layer 2 (Pass)
//Storyboard Layer 3 (Foreground)
//Storyboard Layer 4 (Overlay)
//Storyboard Sound Samples

[TimingPoints]
2972,375,4,2,1,50,1,0
26972,-100,4,2,1,50,0,1
37472,-100,4,2,1,50,0,0
86972,-100,4,2,1,50,0,1
97472,-100,4,2,1,50,0,0

[HitObjects]
320,192,2409,5,0,0:0:0:0:
320,192,2597,128,0,2972:0:0:0:0:
448,192,2972,1,0,0:0:0:0:
64,192,2972,1,0,0:0:0:0:
64,192,3347,1,0,0:0:0:0:
109,192,3722,1,0,0:0:0:0:
64,192,4097,1,0,0:0:0:0:
109,192,4472,1,0,0:0:0:0:
64,192,4847,1,0,0:0:0:0:
109,192,5222,1,0,0:0:0:0:
64,192,5597,1,0,0:0:0:0:
402,192,5972,1,0,0:0:0:0:
448,192,6347,1,0,0:0:0:0:
402,192,6722,1,0,0:0:0:0:
448,192,7097,1,0,0:0:0:0:
402,192,7472,1,0,0:0:0:0:
448,192,7847,1,0,0:0:0:0:
64,192,8222,1,0,0:0:0:0:
192,192,8409,1,0,0:0:0:0:
320,192,8597,1,0,0:0:0:0:
448,192,8784,1,0,0:0:0:0:
182,192,8972,1,0,0:0:0:0:
64,192,8972,1,0,0:0:0:0:
192,192,9347,1,0,0:0:0:0:
182,192,9722,1,0,0:0:0:0:
182,192,10097,1,0,0:0:0:0:
329,192,10472,1,0,0:0:0:0:
182,192,10472,1,0,0:0:0:0:
329,192,10847,1,0,0:0:0:0:
329,192,11222,1,0,0:0:0:0:
329,192,11597,1,0,0:0:0:0:
402,192,11972,1,0,0:0:0:0:
109,192,11972,1,0,0:0:0:0:
256,192,12347,1,0,0:0:0:0:
402,192,12722,1,0,0:0:0:0:
109,192,12722,1,0,0:0:0:0:
192,192,13097,1,0,0:0:0:0:
448,192,13472,1,0,0:0:0:0:
64,192,13472,1,0,0:0:0:0:
320,192,13659,1,0,0:0:0:0:
192,192,13847,1,0,0:0:0:0:
64,192,14034,1,0,0:0:0:0:
320,192,14222,128,0,14597:0:0:0:0:
448,192,14597,1,0,0:0:0:0:
182,192,14972,1,0,0:0:0:0:
36,192,14972,1,0,0:0:0:0:
448,192,15347,1,0,0:0:0:0:
192,192,15347,1,0,0:0:0:0:
64,192,15628,1,0,0:0:0:0:
320,192,15722,1,0,0:0:0:0:
64,192,15909,1,0,0:0:0:0:
448,192,16097,1,0,0:0:0:0:
192,192,16097,1,0,0:0:0:0:
256,192,16472,1,0,0:0:0:0:
192,192,16472,1,0,0:0:0:0:
64,192,16847,1,0,0:0:0:0:
320,192,16847,1,0,0:0:0:0:
448,192,17128,1,0,0:0:0:0:
192,192,17222,1,0,0:0:0:0:
448,192,17409,1,0,0:0:0:0:
109,192,17597,1,0,0:0:0:0:
320,192,17597,1,0,0:0:0:0:
320,192,17972,1,0,0:0:0:0:
192,192,17972,1,0,0:0:0:0:
448,192,18347,1,0,0:0:0:0:
192,192,18347,1,0,0:0:0:0:
64,192,18628,1,0,0:0:0:0:
320,192,18722,1,0,0:0:0:0:
64,192,18909,1,0,0:0:0:0:
475,192,19097,1,0,0:0:0:0:
192,192,19097,1,0,0:0:0:0:
256,192,19472,1,0,0:0:0:0:
192,192,19472,1,0,0:0:0:0:
109,192,19847,1,0,0:0:0:0:
320,192,19847,1,0,0:0:0:0:
448,192,20128,1,0,0:0:0:0:
192,192,20222,1,0,0:0:0:0:
448,192,20409,1,0,0:0:0:0:
36,192,20597,1,0,0:0:0:0:
320,192,20597,1,0,0:0:0:0:
192,192,20784,1,0,0:0:0:0:
329,192,20972,1,0,0:0:0:0:
475,192,20972,1,0,0:0:0:0:
329,192,21347,1,0,0:0:0:0:
64,192,21347,1,0,0:0:0:0:
182,192,21722,1,0,0:0:0:0:
36,192,21722,1,0,0:0:0:0:
182,192,22097,1,0,0:0:0:0:
448,192,22097,1,0,0:0:0:0:
329,192,22472,1,0,0:0:0:0:
475,192,22472,1,0,0:0:0:0:
475,192,22847,1,0,0:0:0:0:
192,192,22847,1,0,0:0:0:0:
182,192,23222,1,0,0:0:0:0:
36,192,23222,1,0,0:0:0:0:
36,192,23597,1,0,0:0:0:0:
320,192,23597,1,0,0:0:0:0:
402,192,23972,1,0,0:0:0:0:
192,192,23972,1,0,0:0:0:0:
64,192,24159,1,0,0:0:0:0:
402,192,24347,1,0,0:0:0:0:
192,192,24347,1,0,0:0:0:0:
320,192,24534,1,0,0:0:0:0:
64,192,24722,1,0,0:0:0:0:
448,192,24722,1,0,0:0:0:0:
192,192,24909,1,0,0:0:0:0:
64,192,25097,1,0,0:0:0:0:
320,192,25097,1,0,0:0:0:0:
448,192,25284,1,0,0:0:0:0:
64,192,25472,128,0,26597:0:0:0:0:
192,192,25472,1,0,0:0:0:0:
320,192,25847,1,0,0:0:0:0:
448,192,26222,1,0,0:0:0:0:
192,192,26597,1,0,0:0:0:0:
36,192,26972,1,0,0:0:0:0:
192,192,26972,128,0,27347:0:0:0:0:
475,192,27347,1,0,0:0:0:0:
64,192,27347,1,0,0:0:0:0:
109,192,27722,1,0,0:0:0:0:
320,192,27722,128,0,28097:0:0:0:0:
475,192,28097,1,0,0:0:0:0:
64,192,28097,1,0,0:0:0:0:
36,192,28472,1,0,0:0:0:0:
192,192,28472,128,0,28847:0:0:0:0:
475,192,28847,1,0,0:0:0:0:
64,192,28847,1,0,0:0:0:0:
109,192,29222,1,0,0:0:0:0:
320,192,29222,128,0,29597:0:0:0:0:
448,192,29597,1,0,0:0:0:0:
64,192,29597,1,0,0:0:0:0:
182,192,29784,1,0,0:0:0:0:
475,192,29972,1,0,0:0:0:0:
320,192,29972,128,0,30347:0:0:0:0:
36,192,30347,1,0,0:0:0:0:
448,192,30347,1,0,0:0:0:0:
402,192,30722,1,0,0:0:0:0:
192,192,30722,128,0,31097:0:0:0:0:
36,192,31097,1,0,0:0:0:0:
448,192,31097,1,0,0:0:0:0:
475,192,31472,1,0,0:0:0:0:
320,192,31472,128,0,31847:0:0:0:0:
36,192,31847,1,0,0:0:0:0:
448,192,31847,1,0,0:0:0:0:
402,192,32222,1,0,0:0:0:0:
192,192,32222,128,0,32597:0:0:0:0:
36,192,32597,1,0,0:0:0:0:
448,192,32597,1,0,0:0:0:0:
182,192,32784,1,0,0:0:0:0:
329,192,32972,1,0,0:0:0:0:
475,192,32972,1,0,0:0:0:0:
475,192,33347,1,0,0:0:0:0:
192,192,33347,1,0,0:0:0:0:
182,192,33722,1,0,0:0:0:0:
36,192,33722,1,0,0:0:0:0:
36,192,34097,1,0,0:0:0:0:
320,192,34097,1,0,0:0:0:0:
64,192,34284,1,0,0:0:0:0:
329,192,34472,1,0,0:0:0:0:
475,192,34472,1,0,0:0:0:0:
329,192,34847,1,0,0:0:0:0:
64,192,34847,1,0,0:0:0:0:
182,192,35222,1,0,0:0:0:0:
36,192,35222,1,0,0:0:0:0:
192,192,35597,1,0,0:0:0:0:
448,192,35597,1,0,0:0:0:0:
192,192,35784,1,0,0:0:0:0:
109,192,35972,1,0,0:0:0:0:
320,192,35972,1,0,0:0:0:0:
448,192,36159,1,0,0:0:0:0:
109,192,36347,1,0,0:0:0:0:
320,192,36347,1,0,0:0:0:0:
192,192,36534,1,0,0:0:0:0:
64,192,36722,1,0,0:0:0:0:
448,192,36722,1,0,0:0:0:0:
320,192,36909,1,0,0:0:0:0:
182,192,37097,1,0,0:0:0:0:
448,192,37097,1,0,0:0:0:0:
64,192,37284,1,0,0:0:0:0:
448,192,37472,128,0,38222:0:0:0:0:
320,192,37472,1,0,0:0:0:0:
192,192,37847,1,0,0:0:0:0:
64,192,38222,1,0,0:0:0:0:
402,192,38972,1,0,0:0:0:0:
182,192,39159,1,0,0:0:0:0:
402,192,39347,1,0,0:0:0:0:
182,192,39534,1,0,0:0:0:0:
64,192,39722,1,0,0:0:0:0:
192,192,40003,1,0,0:0:0:0:
320,192,40284,1,0,0:0:0:0:
448,192,40472,1,0,0:0:0:0:
320,192,40659,1,0,0:0:0:0:
192,192,40847,1,0,0:0:0:0:
64,192,41222,1,0,0:0:0:0:
320,192,41503,1,0,0:0:0:0:
448,192,41784,1,0,0:0:0:0:
109,192,41972,1,0,0:0:0:0:
192,192,42159,1,0,0:0:0:0:
448,192,42347,1,0,0:0:0:0:
320,192,42534,1,0,0:0:0:0:
64,192,42722,1,0,0:0:0:0:
329,192,42909,1,0,0:0:0:0:
448,192,43097,1,0,0:0:0:0:
182,192,43284,1,0,0:0:0:0:
64,192,43472,1,0,0:0:0:0:
329,192,43659,1,0,0:0:0:0:
192,192,43847,1,0,0:0:0:0:
448,192,44034,1,0,0:0:0:0:
64,192,44222,1,0,0:0:0:0:
256,192,44597,1,0,0:0:0:0:
182,192,44784,1,0,0:0:0:0:
109,192,44972,1,0,0:0:0:0:
448,192,45159,1,0,0:0:0:0:
109,192,45347,1,0,0:0:0:0:
192,192,45347,1,0,0:0:0:0:
448,192,45534,1,0,0:0:0:0:
182,192,45722,1,0,0:0:0:0:
64,192,46003,1,0,0:0:0:0:
320,192,46097,1,0,0:0:0:0:
448,192,46097,1,0,0:0:0:0:
192,192,46284,1,0,0:0:0:0:
64,192,46472,1,0,0:0:0:0:
320,192,46659,1,0,0:0:0:0:
448,192,46847,1,0,0:0:0:0:
192,192,46847,1,0,0:0:0:0:
64,192,47222,1,0,0:0:0:0:
448,192,47503,1,0,0:0:0:0:
192,192,47597,1,0,0:0:0:0:
64,192,47597,1,0,0:0:0:0:
320,192,47784,1,0,0:0:0:0:
402,192,47972,1,0,0:0:0:0:
192,192,48159,1,0,0:0:0:0:
64,192,48347,1,0,0:0:0:0:
448,192,48347,1,0,0:0:0:0:
320,192,48534,1,0,0:0:0:0:
36,192,48722,1,0,0:0:0:0:
182,192,48909,1,0,0:0:0:0:
402,192,49097,1,0,0:0:0:0:
64,192,49097,1,0,0:0:0:0:
329,192,49284,1,0,0:0:0:0:
192,192,49472,1,0,0:0:0:0:
448,192,49659,1,0,0:0:0:0:
192,192,49847,1,0,0:0:0:0:
64,192,49847,1,0,0:0:0:0:
320,192,50034,1,0,0:0:0:0:
64,192,50222,128,0,50597:0:0:0:0:
448,192,50222,1,0,0:0:0:0:
192,192,50597,1,0,0:0:0:0:
320,192,50597,1,0,0:0:0:0:
329,192,50972,1,0,0:0:0:0:
475,192,50972,1,0,0:0:0:0:
192,192,51159,1,0,0:0:0:0:
36,192,51347,1,0,0:0:0:0:
448,192,51347,1,0,0:0:0:0:
320,192,51534,1,0,0:0:0:0:
402,192,51722,1,0,0:0:0:0:
192,192,51722,1,0,0:0:0:0:
109,192,52003,1,0,0:0:0:0:
320,192,52097,1,0,0:0:0:0:
448,192,52097,1,0,0:0:0:0:
192,192,52284,1,0,0:0:0:0:
36,192,52472,1,0,0:0:0:0:
448,192,52472,1,0,0:0:0:0:
320,192,52659,1,0,0:0:0:0:
192,192,52847,1,0,0:0:0:0:
64,192,52847,1,0,0:0:0:0:
320,192,53222,1,0,0:0:0:0:
192,192,53222,1,0,0:0:0:0:
448,192,53503,1,0,0:0:0:0:
192,192,53597,1,0,0:0:0:0:
64,192,53597,1,0,0:0:0:0:
320,192,53784,1,0,0:0:0:0:
475,192,53972,1,0,0:0:0:0:
64,192,53972,1,0,0:0:0:0:
320,192,54159,1,0,0:0:0:0:
182,192,54347,1,0,0:0:0:0:
36,192,54347,1,0,0:0:0:0:
320,192,54534,1,0,0:0:0:0:
402,192,54722,1,0,0:0:0:0:
64,192,54722,1,0,0:0:0:0:
192,192,54909,1,0,0:0:0:0:
320,192,55097,1,0,0:0:0:0:
448,192,55097,1,0,0:0:0:0:
192,192,55284,1,0,0:0:0:0:
36,192,55472,1,0,0:0:0:0:
448,192,55472,1,0,0:0:0:0:
320,192,55659,1,0,0:0:0:0:
475,192,55847,1,0,0:0:0:0:
192,192,55847,1,0,0:0:0:0:
320,192,56034,1,0,0:0:0:0:
109,192,56222,1,0,0:0:0:0:
192,192,56222,1,0,0:0:0:0:
64,192,56503,1,0,0:0:0:0:
448,192,56597,1,0,0:0:0:0:
320,192,56597,1,0,0:0:0:0:
192,192,56784,1,0,0:0:0:0:
64,192,56972,1,0,0:0:0:0:
402,192,56972,1,0,0:0:0:0:
320,192,57159,1,0,0:0:0:0:
182,192,57347,1,0,0:0:0:0:
36,192,57347,1,0,0:0:0:0:
192,192,57534,1,0,0:0:0:0:
448,192,57722,1,0,0:0:0:0:
64,192,57722,1,0,0:0:0:0:
192,192,57909,1,0,0:0:0:0:
320,192,58097,1,0,0:0:0:0:
448,192,58097,1,0,0:0:0:0:
329,192,58284,1,0,0:0:0:0:
109,192,58472,1,0,0:0:0:0:
448,192,58472,1,0,0:0:0:0:
320,192,58659,1,0,0:0:0:0:
192,192,58847,1,0,0:0:0:0:
64,192,58847,1,0,0:0:0:0:
64,192,59034,1,0,0:0:0:0:
320,192,59222,1,0,0:0:0:0:
448,192,59222,1,0,0:0:0:0:
192,192,59409,1,0,0:0:0:0:
64,192,59597,1,0,0:0:0:0:
320,192,59597,1,0,0:0:0:0:
320,192,59784,1,0,0:0:0:0:
402,192,59972,1,0,0:0:0:0:
64,192,59972,1,0,0:0:0:0:
320,192,60159,1,0,0:0:0:0:
182,192,60347,1,0,0:0:0:0:
36,192,60347,1,0,0:0:0:0:
320,192,60534,1,0,0:0:0:0:
448,192,60722,1,0,0:0:0:0:
64,192,60722,1,0,0:0:0:0:
192,192,60909,1,0,0:0:0:0:
320,192,61097,1,0,0:0:0:0:
448,192,61097,1,0,0:0:0:0:
192,192,61284,1,0,0:0:0:0:
475,192,61472,1,0,0:0:0:0:
36,192,61472,1,0,0:0:0:0:
320,192,61659,1,0,0:0:0:0:
182,192,61847,1,0,0:0:0:0:
64,192,62034,1,0,0:0:0:0:
448,192,62222,128,0,62409:0:0:0:0:
320,192,62409,1,0,0:0:0:0:
320,192,62597,128,0,62972:0:0:0:0:
182,192,62972,1,0,0:0:0:0:
36,192,62972,1,0,0:0:0:0:
182,192,63347,1,0,0:0:0:0:
182,192,63722,1,0,0:0:0:0:
182,192,64097,1,0,0:0:0:0:
329,192,64472,1,0,0:0:0:0:
329,192,64847,1,0,0:0:0:0:
329,192,65222,1,0,0:0:0:0:
329,192,65597,1,0,0:0:0:0:
109,192,65972,1,0,0:0:0:0:
109,192,66347,1,0,0:0:0:0:
109,192,66722,1,0,0:0:0:0:
109,192,67097,1,0,0:0:0:0:
402,192,67472,1,0,0:0:0:0:
402,192,67847,1,0,0:0:0:0:
64,192,68222,1,0,0:0:0:0:
192,192,68409,1,0,0:0:0:0:
320,192,68597,1,0,0:0:0:0:
448,192,68784,1,0,0:0:0:0:
36,192,68972,1,0,0:0:0:0:
192,192,68972,1,0,0:0:0:0:
36,192,69347,1,0,0:0:0:0:
36,192,69722,1,0,0:0:0:0:
36,192,70097,1,0,0:0:0:0:
475,192,70472,1,0,0:0:0:0:
256,192,70472,1,0,0:0:0:0:
475,192,70847,1,0,0:0:0:0:
475,192,71222,1,0,0:0:0:0:
475,192,71597,1,0,0:0:0:0:
256,192,71972,1,0,0:0:0:0:
109,192,71972,1,0,0:0:0:0:
109,192,72347,1,0,0:0:0:0:
402,192,72722,1,0,0:0:0:0:
256,192,72722,1,0,0:0:0:0:
402,192,73097,1,0,0:0:0:0:
109,192,73472,1,0,0:0:0:0:
475,192,73472,1,0,0:0:0:0:
329,192,73659,1,0,0:0:0:0:
36,192,73847,1,0,0:0:0:0:
182,192,74034,1,0,0:0:0:0:
256,192,74222,128,0,74597:0:0:0:0:
448,192,74597,1,0,0:0:0:0:
64,192,74597,1,0,0:0:0:0:
320,192,74972,1,0,0:0:0:0:
448,192,74972,1,0,0:0:0:0:
64,192,75347,1,0,0:0:0:0:
320,192,75347,1,0,0:0:0:0:
192,192,75722,1,0,0:0:0:0:
448,192,75722,1,0,0:0:0:0:
64,192,76003,1,0,0:0:0:0:
320,192,76097,1,0,0:0:0:0:
448,192,76097,1,0,0:0:0:0:
192,192,76284,1,0,0:0:0:0:
64,192,76472,1,0,0:0:0:0:
448,192,76472,1,0,0:0:0:0:
192,192,76847,1,0,0:0:0:0:
320,192,76847,1,0,0:0:0:0:
320,192,77222,1,0,0:0:0:0:
64,192,77222,1,0,0:0:0:0:
448,192,77503,1,0,0:0:0:0:
64,192,77597,1,0,0:0:0:0:
192,192,77597,1,0,0:0:0:0:
320,192,77784,1,0,0:0:0:0:
192,192,77972,1,0,0:0:0:0:
448,192,77972,1,0,0:0:0:0:
64,192,78347,1,0,0:0:0:0:
192,192,78347,1,0,0:0:0:0:
448,192,78722,1,0,0:0:0:0:
64,192,78722,1,0,0:0:0:0:
448,192,79003,1,0,0:0:0:0:
192,192,79097,1,0,0:0:0:0:
64,192,79097,1,0,0:0:0:0:
320,192,79284,1,0,0:0:0:0:
192,192,79472,1,0,0:0:0:0:
448,192,79472,1,0,0:0:0:0:
448,192,79847,1,0,0:0:0:0:
320,192,79847,1,0,0:0:0:0:
320,192,80222,1,0,0:0:0:0:
64,192,80222,1,0,0:0:0:0:
64,192,80503,1,0,0:0:0:0:
448,192,80597,1,0,0:0:0:0:
320,192,80597,1,0,0:0:0:0:
192,192,80784,1,0,0:0:0:0:
64,192,80972,1,0,0:0:0:0:
448,192,80972,1,0,0:0:0:0:
320,192,81159,1,0,0:0:0:0:
192,192,81347,1,0,0:0:0:0:
64,192,81347,1,0,0:0:0:0:
64,192,81534,1,0,0:0:0:0:
448,192,81722,1,0,0:0:0:0:
320,192,81722,1,0,0:0:0:0:
192,192,81909,1,0,0:0:0:0:
64,192,82097,1,0,0:0:0:0:
448,192,82097,1,0,0:0:0:0:
448,192,82284,1,0,0:0:0:0:
192,192,82472,1,0,0:0:0:0:
64,192,82472,1,0,0:0:0:0:
320,192,82659,1,0,0:0:0:0:
64,192,82847,1,0,0:0:0:0:
448,192,82847,1,0,0:0:0:0:
64,192,83034,1,0,0:0:0:0:
320,192,83222,1,0,0:0:0:0:
448,192,83222,1,0,0:0:0:0:
192,192,83409,1,0,0:0:0:0:
64,192,83597,1,0,0:0:0:0:
320,192,83597,1,0,0:0:0:0:
320,192,83784,1,0,0:0:0:0:
64,192,83972,1,0,0:0:0:0:
448,192,83972,1,0,0:0:0:0:
192,192,84159,1,0,0:0:0:0:
64,192,84347,1,0,0:0:0:0:
320,192,84347,1,0,0:0:0:0:
448,192,84534,1,0,0:0:0:0:
192,192,84722,1,0,0:0:0:0:
64,192,84722,1,0,0:0:0:0:
320,192,84909,1,0,0:0:0:0:
448,192,85097,1,0,0:0:0:0:
64,192,85097,1,0,0:0:0:0:
192,192,85284,1,0,0:0:0:0:
448,192,85472,128,0,86597:0:0:0:0:
320,192,85472,1,0,0:0:0:0:
192,192,85847,1,0,0:0:0:0:
64,192,86222,1,0,0:0:0:0:
192,192,86597,1,0,0:0:0:0:
64,192,86597,1,0,0:0:0:0:
448,192,86972,1,0,0:0:0:0:
320,192,86972,128,0,87347:0:0:0:0:
64,192,87347,1,0,0:0:0:0:
448,192,87347,1,0,0:0:0:0:
448,192,87722,1,0,0:0:0:0:
192,192,87722,128,0,88097:0:0:0:0:
64,192,88097,1,0,0:0:0:0:
448,192,88097,1,0,0:0:0:0:
448,192,88472,1,0,0:0:0:0:
320,192,88472,128,0,88847:0:0:0:0:
64,192,88847,1,0,0:0:0:0:
448,192,88847,1,0,0:0:0:0:
448,192,89222,1,0,0:0:0:0:
192,192,89222,128,0,89597:0:0:0:0:
64,192,89597,1,0,0:0:0:0:
448,192,89597,1,0,0:0:0:0:
320,192,89784,1,0,0:0:0:0:
64,192,89972,1,0,0:0:0:0:
192,192,89972,128,0,90347:0:0:0:0:
448,192,90347,1,0,0:0:0:0:
64,192,90347,1,0,0:0:0:0:
64,192,90722,1,0,0:0:0:0:
320,192,90722,128,0,91097:0:0:0:0:
448,192,91097,1,0,0:0:0:0:
64,192,91097,1,0,0:0:0:0:
64,192,91472,1,0,0:0:0:0:
192,192,91472,128,0,91847:0:0:0:0:
448,192,91847,1,0,0:0:0:0:
64,192,91847,1,0,0:0:0:0:
64,192,92222,1,0,0:0:0:0:
320,192,92222,128,0,92597:0:0:0:0:
448,192,92597,1,0,0:0:0:0:
64,192,92597,1,0,0:0:0:0:
320,192,92784,1,0,0:0:0:0:
192,192,92972,1,0,0:0:0:0:
64,192,92972,1,0,0:0:0:0:
64,192,93347,1,0,0:0:0:0:
320,192,93347,1,0,0:0:0:0:
320,192,93722,1,0,0:0:0:0:
448,192,93722,1,0,0:0:0:0:
448,192,94097,1,0,0:0:0:0:
192,192,94097,1,0,0:0:0:0:
448,192,94284,1,0,0:0:0:0:
192,192,94472,1,0,0:0:0:0:
64,192,94472,1,0,0:0:0:0:
192,192,94847,1,0,0:0:0:0:
448,192,94847,1,0,0:0:0:0:
320,192,95222,1,0,0:0:0:0:
448,192,95222,1,0,0:0:0:0:
320,192,95597,1,0,0:0:0:0:
64,192,95597,1,0,0:0:0:0:
320,192,95784,1,0,0:0:0:0:
64,192,95972,1,0,0:0:0:0:
448,192,95972,1,0,0:0:0:0:
192,192,96159,1,0,0:0:0:0:
64,192,96347,1,0,0:0:0:0:
448,192,96347,1,0,0:0:0:0:
320,192,96534,1,0,0:0:0:0:
448,192,96722,1,0,0:0:0:0:
64,192,96722,1,0,0:0:0:0:
192,192,96909,1,0,0:0:0:0:
448,192,97097,1,0,0:0:0:0:
320,192,97097,1,0,0:0:0:0:
192,192,97284,1,0,0:0:0:0:
448,192,97472,1,0,0:0:0:0:
64,192,97472,128,0,98222:0:0:0:0:
320,192,97847,1,0,0:0:0:0:
192,192,98222,1,0,0:0:0:0:
64,192,98972,1,0,0:0:0:0:
448,192,98972,1,0,0:0:0:0:
192,192,99159,1,0,0:0:0:0:
448,192,99347,1,0,0:0:0:0:
192,192,99534,1,0,0:0:0:0:
448,192,99722,1,0,0:0:0:0:
320,192,99722,1,0,0:0:0:0:
64,192,100003,1,0,0:0:0:0:
320,192,100097,1,0,0:0:0:0:
182,192,100284,1,0,0:0:0:0:
475,192,100472,1,0,0:0:0:0:
64,192,100472,1,0,0:0:0:0:
320,192,100659,1,0,0:0:0:0:
192,192,100847,1,0,0:0:0:0:
320,192,101222,1,0,0:0:0:0:
64,192,101222,1,0,0:0:0:0:
448,192,101503,1,0,0:0:0:0:
192,192,101597,1,0,0:0:0:0:
448,192,101784,1,0,0:0:0:0:
109,192,101972,1,0,0:0:0:0:
192,192,101972,1,0,0:0:0:0:
256,192,102159,1,0,0:0:0:0:
64,192,102347,1,0,0:0:0:0:
182,192,102534,1,0,0:0:0:0:
475,192,102722,1,0,0:0:0:0:
320,192,102722,1,0,0:0:0:0:
192,192,102909,1,0,0:0:0:0:
448,192,103097,1,0,0:0:0:0:
320,192,103284,1,0,0:0:0:0:
64,192,103472,1,0,0:0:0:0:
192,192,103472,1,0,0:0:0:0:
448,192,103659,1,0,0:0:0:0:
320,192,103847,1,0,0:0:0:0:
64,192,104034,1,0,0:0:0:0:
192,192,104222,1,0,0:0:0:0:
448,192,104222,1,0,0:0:0:0:
64,192,104503,1,0,0:0:0:0:
320,192,104597,1,0,0:0:0:0:
192,192,104784,1,0,0:0:0:0:
448,192,104972,1,0,0:0:0:0:
64,192,104972,1,0,0:0:0:0:
320,192,105159,1,0,0:0:0:0:
64,192,105347,1,0,0:0:0:0:
320,192,105534,1,0,0:0:0:0:
192,192,105722,1,0,0:0:0:0:
64,192,105722,1,0,0:0:0:0:
448,192,106003,1,0,0:0:0:0:
192,192,106097,1,0,0:0:0:0:
320,192,106284,1,0,0:0:0:0:
64,192,106472,1,0,0:0:0:0:
448,192,106472,1,0,0:0:0:0:
192,192,106659,1,0,0:0:0:0:
320,192,106847,1,0,0:0:0:0:
192,192,107222,1,0,0:0:0:0:
448,192,107222,1,0,0:0:0:0:
64,192,107503,1,0,0:0:0:0:
320,192,107597,1,0,0:0:0:0:
64,192,107784,1,0,0:0:0:0:
448,192,107972,1,0,0:0:0:0:
320,192,107972,1,0,0:0:0:0:
192,192,108159,1,0,0:0:0:0:
448,192,108347,1,0,0:0:0:0:
320,192,108534,1,0,0:0:0:0:
64,192,108722,1,0,0:0:0:0:
192,192,108722,1,0,0:0:0:0:
320,192,108909,1,0,0:0:0:0:
64,192,109097,1,0,0:0:0:0:
192,192,109284,1,0,0:0:0:0:
448,192,109472,1,0,0:0:0:0:
320,192,109472,1,0,0:0:0:0:
64,192,109659,1,0,0:0:0:0:
320,192,109847,1,0,0:0:0:0:
448,192,109847,1,0,0:0:0:0:
192,192,110034,1,0,0:0:0:0:
64,192,110222,1,0,0:0:0:0:
448,192,110222,128,0,110597:0:0:0:0:
64,192,110597,1,0,0:0:0:0:
192,192,110597,1,0,0:0:0:0:
402,192,110972,1,0,0:0:0:0:
192,192,110972,1,0,0:0:0:0:
64,192,111159,1,0,0:0:0:0:
320,192,111347,1,0,0:0:0:0:
448,192,111347,1,0,0:0:0:0:
192,192,111534,1,0,0:0:0:0:
320,192,111722,1,0,0:0:0:0:
64,192,111722,1,0,0:0:0:0:
64,192,112003,1,0,0:0:0:0:
320,192,112097,1,0,0:0:0:0:
448,192,112097,1,0,0:0:0:0:
182,192,112284,1,0,0:0:0:0:
475,192,112472,1,0,0:0:0:0:
64,192,112472,1,0,0:0:0:0:
192,192,112659,1,0,0:0:0:0:
320,192,112847,1,0,0:0:0:0:
448,192,112847,1,0,0:0:0:0:
192,192,113222,1,0,0:0:0:0:
448,192,113222,1,0,0:0:0:0:
448,192,113503,1,0,0:0:0:0:
64,192,113597,1,0,0:0:0:0:
192,192,113597,1,0,0:0:0:0:
320,192,113784,1,0,0:0:0:0:
109,192,113972,1,0,0:0:0:0:
448,192,113972,1,0,0:0:0:0:
192,192,114159,1,0,0:0:0:0:
448,192,114347,1,0,0:0:0:0:
320,192,114347,1,0,0:0:0:0:
182,192,114534,1,0,0:0:0:0:
64,192,114722,1,0,0:0:0:0:
320,192,114722,1,0,0:0:0:0:
192,192,114909,1,0,0:0:0:0:
448,192,115097,1,0,0:0:0:0:
64,192,115097,1,0,0:0:0:0:
320,192,115284,1,0,0:0:0:0:
64,192,115472,1,0,0:0:0:0:
192,192,115472,1,0,0:0:0:0:
448,192,115659,1,0,0:0:0:0:
192,192,115847,1,0,0:0:0:0:
64,192,115847,1,0,0:0:0:0:
320,192,116034,1,0,0:0:0:0:
448,192,116222,1,0,0:0:0:0:
64,192,116222,1,0,0:0:0:0:
448,192,116503,1,0,0:0:0:0:
192,192,116597,1,0,0:0:0:0:
64,192,116597,1,0,0:0:0:0:
320,192,116784,1,0,0:0:0:0:
448,192,116972,1,0,0:0:0:0:
64,192,116972,1,0,0:0:0:0:
192,192,117159,1,0,0:0:0:0:
320,192,117347,1,0,0:0:0:0:
448,192,117347,1,0,0:0:0:0:
192,192,117534,1,0,0:0:0:0:
320,192,117722,1,0,0:0:0:0:
64,192,117722,1,0,0:0:0:0:
448,192,118003,1,0,0:0:0:0:
192,192,118097,1,0,0:0:0:0:
64,192,118097,1,0,0:0:0:0:
320,192,118284,1,0,0:0:0:0:
64,192,118472,1,0,0:0:0:0:
448,192,118472,1,0,0:0:0:0:
192,192,118659,1,0,0:0:0:0:
320,192,118847,1,0,0:0:0:0:
448,192,118847,1,0,0:0:0:0:
64,192,119034,1,0,0:0:0:0:
192,192,119222,1,0,0:0:0:0:
448,192,119222,1,0,0:0:0:0:
448,192,119503,1,0,0:0:0:0:
64,192,119597,1,0,0:0:0:0:
192,192,119597,1,0,0:0:0:0:
320,192,119784,1,0,0:0:0:0:
448,192,119972,1,0,0:0:0:0:
64,192,119972,1,0,0:0:0:0:
192,192,120159,1,0,0:0:0:0:
448,192,120347,1,0,0:0:0:0:
64,192,120347,1,0,0:0:0:0:
320,192,120534,1,0,0:0:0:0:
64,192,120722,1,0,0:0:0:0:
192,192,120722,1,0,0:0:0:0:
320,192,120909,1,0,0:0:0:0:
448,192,121097,1,0,0:0:0:0:
64,192,121097,1,0,0:0:0:0:
192,192,121284,1,0,0:0:0:0:
448,192,121472,1,0,0:0:0:0:
320,192,121472,1,0,0:0:0:0:
64,192,121659,1,0,0:0:0:0:
192,192,121847,1,0,0:0:0:0:
320,192,122034,1,0,0:0:0:0:
448,192,122222,128,0,122409:0:0:0:0:
64,192,122409,1,0,0:0:0:0:
64,192,122597,128,0,122972:0:0:0:0:
448,192,122972,1,0,0:0:0:0:
320,192,122972,1,0,0:0:0:0:
320,192,123347,1,0,0:0:0:0:
320,192,123722,5,0,0:0:0:0:
320,192,124097,1,0,0:0:0:0:
192,192,124472,1,0,0:0:0:0:
192,192,124847,1,0,0:0:0:0:
192,192,125222,1,0,0:0:0:0:
192,192,125597,1,0,0:0:0:0:
109,192,125972,1,0,0:0:0:0:
64,192,126347,1,0,0:0:0:0:
109,192,126722,1,0,0:0:0:0:
64,192,127097,1,0,0:0:0:0:
402,192,127472,1,0,0:0:0:0:
448,192,127847,1,0,0:0:0:0:
402,192,128222,1,0,0:0:0:0:
448,192,128597,1,0,0:0:0:0:
36,192,128972,1,0,0:0:0:0:
256,192,128972,1,0,0:0:0:0:
64,192,129347,1,0,0:0:0:0:
36,192,129722,1,0,0:0:0:0:
64,192,130097,1,0,0:0:0:0:
475,192,130472,1,0,0:0:0:0:
256,192,130472,1,0,0:0:0:0:
448,192,130847,1,0,0:0:0:0:
475,192,131222,1,0,0:0:0:0:
448,192,131597,1,0,0:0:0:0:
256,192,131972,1,0,0:0:0:0:
109,192,131972,1,0,0:0:0:0:
109,192,132347,1,0,0:0:0:0:
402,192,132722,1,0,0:0:0:0:
256,192,132722,1,0,0:0:0:0:
402,192,133097,1,0,0:0:0:0:
109,192,133472,1,0,0:0:0:0:
475,192,133472,1,0,0:0:0:0:
329,192,133659,1,0,0:0:0:0:
182,192,133847,1,0,0:0:0:0:
36,192,134034,1,0,0:0:0:0:
448,192,134222,128,0,134409:0:0:0:0:
192,192,134409,1,0,0:0:0:0:
192,192,134597,128,0,134972:0:0:0:0:
