osu file format v14

[General]
AudioFilename: audio.mp3
AudioLeadIn: 0
PreviewTime: 85472
Countdown: 0
SampleSet: Soft
StackLeniency: 0.7
Mode: 3
LetterboxInBreaks: 0
SpecialStyle: 0
WidescreenStoryboard: 0

[Editor]
DistanceSpacing: 1
BeatDivisor: 4
GridSize: 32
TimelineZoom: 1.7

[Metadata]
Title:Nyan Nyan Dive (EmoCosine Remix)
TitleUnicode:Nyan Nyan Dive (EmoCosine Remix)
Artist:Aice room
ArtistUnicode:Aice room
Creator:Critical_Star
Version:Hard
Source:
Tags:lofi lo-fi kawaii futurebass future bass featured artist fa nor エモコサイン electronic instrumental house hyper pop
BeatmapID:4156359
BeatmapSetID:1999339

[Difficulty]
HPDrainRate:7
CircleSize:4
OverallDifficulty:7
ApproachRate:5
SliderMultiplier:1.4
SliderTickRate:1

[Events]
//Background and Video events
0,0,"BG.jpg",0,0
//Break Periods
//Storyboard Layer 0 (Background)
//Storyboard Layer 1 (Fail)
//Storyboard Layer 2 (Pass)
//Storyboard Layer 3 (Foreground)
//Storyboard Layer 4 (Overlay)
//Storyboard Sound Samples

[TimingPoints]
2972,375,4,2,1,50,1,0
26972,-100,4,2,1,50,0,1
37472,-100,4,2,1,50,0,0
86972,-100,4,2,1,50,0,1
97472,-100,4,2,1,50,0,0

[HitObjects]
256,192,2409,5,0,0:0:0:0:
320,192,2597,128,0,2972:0:0:0:0:
448,192,2972,1,0,0:0:0:0:
64,192,2972,1,0,0:0:0:0:
320,192,3159,1,0,0:0:0:0:
109,192,3347,1,0,0:0:0:0:
448,192,3534,1,0,0:0:0:0:
109,192,3722,1,0,0:0:0:0:
320,192,4003,1,0,0:0:0:0:
64,192,4097,1,0,0:0:0:0:
192,192,4284,1,0,0:0:0:0:
402,192,4472,1,0,0:0:0:0:
320,192,4659,1,0,0:0:0:0:
402,192,4847,1,0,0:0:0:0:
192,192,5034,1,0,0:0:0:0:
64,192,5222,1,0,0:0:0:0:
448,192,5222,1,0,0:0:0:0:
256,192,5597,1,0,0:0:0:0:
192,192,5597,1,0,0:0:0:0:
182,192,5972,1,0,0:0:0:0:
448,192,6159,1,0,0:0:0:0:
182,192,6347,1,0,0:0:0:0:
64,192,6534,1,0,0:0:0:0:
182,192,6722,1,0,0:0:0:0:
64,192,7003,1,0,0:0:0:0:
256,192,7097,1,0,0:0:0:0:
448,192,7284,1,0,0:0:0:0:
329,192,7472,1,0,0:0:0:0:
192,192,7659,1,0,0:0:0:0:
329,192,7847,1,0,0:0:0:0:
64,192,8034,1,0,0:0:0:0:
448,192,8222,1,0,0:0:0:0:
192,192,8222,1,0,0:0:0:0:
64,192,8315,1,0,0:0:0:0:
320,192,8409,1,0,0:0:0:0:
192,192,8503,1,0,0:0:0:0:
448,192,8597,1,0,0:0:0:0:
320,192,8690,1,0,0:0:0:0:
64,192,8784,1,0,0:0:0:0:
192,192,8878,1,0,0:0:0:0:
36,192,8972,1,0,0:0:0:0:
475,192,8972,1,0,0:0:0:0:
320,192,9159,1,0,0:0:0:0:
36,192,9347,1,0,0:0:0:0:
192,192,9534,1,0,0:0:0:0:
36,192,9722,1,0,0:0:0:0:
320,192,10003,1,0,0:0:0:0:
36,192,10097,1,0,0:0:0:0:
192,192,10284,1,0,0:0:0:0:
36,192,10472,1,0,0:0:0:0:
475,192,10472,1,0,0:0:0:0:
320,192,10659,1,0,0:0:0:0:
475,192,10847,1,0,0:0:0:0:
192,192,11034,1,0,0:0:0:0:
475,192,11222,1,0,0:0:0:0:
320,192,11222,1,0,0:0:0:0:
64,192,11409,1,0,0:0:0:0:
64,192,11597,1,0,0:0:0:0:
320,192,11597,1,0,0:0:0:0:
109,192,11972,1,0,0:0:0:0:
402,192,11972,1,0,0:0:0:0:
320,192,12159,1,0,0:0:0:0:
109,192,12347,1,0,0:0:0:0:
192,192,12534,1,0,0:0:0:0:
109,192,12722,1,0,0:0:0:0:
402,192,12722,1,0,0:0:0:0:
192,192,13003,1,0,0:0:0:0:
448,192,13097,1,0,0:0:0:0:
320,192,13284,1,0,0:0:0:0:
448,192,13472,1,0,0:0:0:0:
64,192,13472,128,0,13659:0:0:0:0:
192,192,13659,128,0,13847:0:0:0:0:
320,192,13847,128,0,14034:0:0:0:0:
448,192,14034,128,0,14222:0:0:0:0:
64,192,14222,128,0,14409:0:0:0:0:
192,192,14222,1,0,0:0:0:0:
320,192,14409,1,0,0:0:0:0:
402,192,14597,1,0,0:0:0:0:
109,192,14597,1,0,0:0:0:0:
192,192,14722,1,0,0:0:0:0:
320,192,14847,1,0,0:0:0:0:
36,192,14972,1,0,0:0:0:0:
475,192,14972,1,0,0:0:0:0:
192,192,15159,1,0,0:0:0:0:
475,192,15347,1,0,0:0:0:0:
320,192,15347,1,0,0:0:0:0:
36,192,15628,1,0,0:0:0:0:
192,192,15628,1,0,0:0:0:0:
402,192,15722,1,0,0:0:0:0:
182,192,15909,1,0,0:0:0:0:
36,192,15909,1,0,0:0:0:0:
475,192,16097,1,0,0:0:0:0:
64,192,16097,1,0,0:0:0:0:
320,192,16284,1,0,0:0:0:0:
448,192,16472,1,0,0:0:0:0:
64,192,16472,1,0,0:0:0:0:
192,192,16659,1,0,0:0:0:0:
64,192,16847,1,0,0:0:0:0:
320,192,16847,1,0,0:0:0:0:
448,192,17128,1,0,0:0:0:0:
320,192,17128,1,0,0:0:0:0:
64,192,17222,1,0,0:0:0:0:
320,192,17409,1,0,0:0:0:0:
448,192,17409,1,0,0:0:0:0:
448,192,17597,1,0,0:0:0:0:
64,192,17597,1,0,0:0:0:0:
192,192,17784,1,0,0:0:0:0:
320,192,17878,1,0,0:0:0:0:
448,192,17972,1,0,0:0:0:0:
64,192,17972,1,0,0:0:0:0:
320,192,18159,1,0,0:0:0:0:
64,192,18347,1,0,0:0:0:0:
192,192,18347,1,0,0:0:0:0:
448,192,18628,1,0,0:0:0:0:
320,192,18628,1,0,0:0:0:0:
64,192,18722,1,0,0:0:0:0:
320,192,18909,1,0,0:0:0:0:
448,192,18909,1,0,0:0:0:0:
64,192,19097,1,0,0:0:0:0:
448,192,19097,1,0,0:0:0:0:
192,192,19284,1,0,0:0:0:0:
64,192,19472,1,0,0:0:0:0:
448,192,19472,1,0,0:0:0:0:
320,192,19659,1,0,0:0:0:0:
448,192,19847,1,0,0:0:0:0:
192,192,19847,1,0,0:0:0:0:
64,192,20128,1,0,0:0:0:0:
192,192,20128,1,0,0:0:0:0:
448,192,20222,1,0,0:0:0:0:
192,192,20409,1,0,0:0:0:0:
64,192,20409,1,0,0:0:0:0:
64,192,20597,1,0,0:0:0:0:
448,192,20597,1,0,0:0:0:0:
320,192,20784,1,0,0:0:0:0:
192,192,20878,1,0,0:0:0:0:
448,192,20972,1,0,0:0:0:0:
64,192,20972,1,0,0:0:0:0:
448,192,21159,1,0,0:0:0:0:
192,192,21347,1,0,0:0:0:0:
64,192,21347,1,0,0:0:0:0:
192,192,21534,1,0,0:0:0:0:
320,192,21722,1,0,0:0:0:0:
448,192,21722,1,0,0:0:0:0:
320,192,21909,1,0,0:0:0:0:
192,192,22097,1,0,0:0:0:0:
64,192,22097,1,0,0:0:0:0:
64,192,22284,1,0,0:0:0:0:
320,192,22284,1,0,0:0:0:0:
448,192,22472,1,0,0:0:0:0:
192,192,22472,1,0,0:0:0:0:
402,192,22659,1,0,0:0:0:0:
192,192,22847,1,0,0:0:0:0:
109,192,22847,1,0,0:0:0:0:
192,192,23034,1,0,0:0:0:0:
36,192,23222,1,0,0:0:0:0:
448,192,23222,1,0,0:0:0:0:
448,192,23409,1,0,0:0:0:0:
192,192,23597,1,0,0:0:0:0:
109,192,23597,1,0,0:0:0:0:
329,192,23784,1,0,0:0:0:0:
475,192,23784,1,0,0:0:0:0:
475,192,23972,1,0,0:0:0:0:
192,192,23972,1,0,0:0:0:0:
64,192,24065,1,0,0:0:0:0:
320,192,24159,1,0,0:0:0:0:
192,192,24253,1,0,0:0:0:0:
448,192,24347,1,0,0:0:0:0:
64,192,24347,1,0,0:0:0:0:
320,192,24440,1,0,0:0:0:0:
64,192,24534,1,0,0:0:0:0:
192,192,24628,1,0,0:0:0:0:
475,192,24722,1,0,0:0:0:0:
320,192,24722,1,0,0:0:0:0:
192,192,24815,1,0,0:0:0:0:
64,192,24909,1,0,0:0:0:0:
448,192,25003,1,0,0:0:0:0:
192,192,25097,1,0,0:0:0:0:
64,192,25097,1,0,0:0:0:0:
320,192,25190,1,0,0:0:0:0:
64,192,25284,1,0,0:0:0:0:
448,192,25284,1,0,0:0:0:0:
192,192,25378,1,0,0:0:0:0:
448,192,25472,128,0,25659:0:0:0:0:
320,192,25472,1,0,0:0:0:0:
64,192,25659,128,0,25847:0:0:0:0:
192,192,25847,128,0,26034:0:0:0:0:
320,192,26034,128,0,26222:0:0:0:0:
448,192,26222,128,0,26409:0:0:0:0:
64,192,26222,1,0,0:0:0:0:
192,192,26409,1,0,0:0:0:0:
448,192,26597,1,0,0:0:0:0:
64,192,26597,1,0,0:0:0:0:
320,192,26722,1,0,0:0:0:0:
192,192,26847,1,0,0:0:0:0:
64,192,26972,1,0,0:0:0:0:
320,192,26972,128,0,27159:0:0:0:0:
448,192,26972,1,0,0:0:0:0:
192,192,27347,128,0,27534:0:0:0:0:
448,192,27347,1,0,0:0:0:0:
320,192,27347,1,0,0:0:0:0:
64,192,27628,1,0,0:0:0:0:
320,192,27722,128,0,27909:0:0:0:0:
448,192,27722,1,0,0:0:0:0:
64,192,27909,1,0,0:0:0:0:
192,192,27909,1,0,0:0:0:0:
192,192,28097,128,0,28284:0:0:0:0:
64,192,28097,1,0,0:0:0:0:
448,192,28097,1,0,0:0:0:0:
320,192,28472,128,0,28659:0:0:0:0:
448,192,28472,1,0,0:0:0:0:
192,192,28472,1,0,0:0:0:0:
192,192,28847,128,0,29034:0:0:0:0:
64,192,28847,1,0,0:0:0:0:
320,192,28847,1,0,0:0:0:0:
448,192,29128,1,0,0:0:0:0:
320,192,29222,128,0,29409:0:0:0:0:
192,192,29222,1,0,0:0:0:0:
64,192,29409,1,0,0:0:0:0:
448,192,29409,1,0,0:0:0:0:
64,192,29597,1,0,0:0:0:0:
320,192,29597,1,0,0:0:0:0:
448,192,29597,1,0,0:0:0:0:
192,192,29784,1,0,0:0:0:0:
320,192,29878,1,0,0:0:0:0:
448,192,29972,1,0,0:0:0:0:
192,192,29972,128,0,30159:0:0:0:0:
64,192,29972,1,0,0:0:0:0:
320,192,30347,128,0,30534:0:0:0:0:
64,192,30347,1,0,0:0:0:0:
192,192,30347,1,0,0:0:0:0:
448,192,30628,1,0,0:0:0:0:
192,192,30722,128,0,30909:0:0:0:0:
64,192,30722,1,0,0:0:0:0:
448,192,30909,1,0,0:0:0:0:
320,192,30909,1,0,0:0:0:0:
320,192,31097,128,0,31284:0:0:0:0:
448,192,31097,1,0,0:0:0:0:
64,192,31097,1,0,0:0:0:0:
192,192,31472,128,0,31659:0:0:0:0:
64,192,31472,1,0,0:0:0:0:
320,192,31472,1,0,0:0:0:0:
320,192,31847,128,0,32034:0:0:0:0:
448,192,31847,1,0,0:0:0:0:
192,192,31847,1,0,0:0:0:0:
64,192,32128,1,0,0:0:0:0:
192,192,32222,128,0,32409:0:0:0:0:
320,192,32222,1,0,0:0:0:0:
448,192,32409,1,0,0:0:0:0:
64,192,32409,1,0,0:0:0:0:
192,192,32597,1,0,0:0:0:0:
64,192,32597,1,0,0:0:0:0:
320,192,32597,1,0,0:0:0:0:
448,192,32784,1,0,0:0:0:0:
320,192,32878,1,0,0:0:0:0:
64,192,32972,128,0,33159:0:0:0:0:
448,192,32972,1,0,0:0:0:0:
192,192,32972,1,0,0:0:0:0:
320,192,33159,1,0,0:0:0:0:
448,192,33347,128,0,33534:0:0:0:0:
64,192,33347,1,0,0:0:0:0:
192,192,33347,1,0,0:0:0:0:
320,192,33534,1,0,0:0:0:0:
64,192,33722,128,0,33909:0:0:0:0:
448,192,33722,1,0,0:0:0:0:
192,192,33722,1,0,0:0:0:0:
320,192,33909,1,0,0:0:0:0:
448,192,34097,128,0,34284:0:0:0:0:
64,192,34097,1,0,0:0:0:0:
192,192,34097,1,0,0:0:0:0:
320,192,34284,1,0,0:0:0:0:
64,192,34284,1,0,0:0:0:0:
320,192,34472,128,0,34659:0:0:0:0:
448,192,34472,1,0,0:0:0:0:
192,192,34472,1,0,0:0:0:0:
64,192,34659,1,0,0:0:0:0:
192,192,34847,128,0,35034:0:0:0:0:
320,192,34847,1,0,0:0:0:0:
448,192,34847,1,0,0:0:0:0:
64,192,35034,1,0,0:0:0:0:
320,192,35222,128,0,35409:0:0:0:0:
192,192,35222,1,0,0:0:0:0:
448,192,35222,1,0,0:0:0:0:
64,192,35409,1,0,0:0:0:0:
192,192,35597,128,0,35784:0:0:0:0:
320,192,35597,1,0,0:0:0:0:
448,192,35597,1,0,0:0:0:0:
64,192,35784,1,0,0:0:0:0:
448,192,35784,1,0,0:0:0:0:
448,192,35972,1,0,0:0:0:0:
320,192,35972,1,0,0:0:0:0:
192,192,36065,1,0,0:0:0:0:
64,192,36159,1,0,0:0:0:0:
448,192,36253,1,0,0:0:0:0:
192,192,36347,1,0,0:0:0:0:
320,192,36347,1,0,0:0:0:0:
64,192,36440,1,0,0:0:0:0:
448,192,36534,1,0,0:0:0:0:
320,192,36628,1,0,0:0:0:0:
64,192,36722,1,0,0:0:0:0:
192,192,36722,1,0,0:0:0:0:
320,192,36815,1,0,0:0:0:0:
448,192,36909,1,0,0:0:0:0:
64,192,37003,1,0,0:0:0:0:
192,192,37097,1,0,0:0:0:0:
320,192,37097,1,0,0:0:0:0:
448,192,37190,1,0,0:0:0:0:
64,192,37284,1,0,0:0:0:0:
192,192,37378,1,0,0:0:0:0:
448,192,37472,1,0,0:0:0:0:
320,192,37472,128,0,37659:0:0:0:0:
192,192,37659,128,0,37847:0:0:0:0:
64,192,37847,128,0,38034:0:0:0:0:
448,192,38034,128,0,38409:0:0:0:0:
320,192,38222,128,0,38409:0:0:0:0:
36,192,38972,1,0,0:0:0:0:
448,192,38972,128,0,39159:0:0:0:0:
192,192,39159,128,0,39347:0:0:0:0:
109,192,39347,1,0,0:0:0:0:
448,192,39347,128,0,39534:0:0:0:0:
192,192,39534,128,0,39722:0:0:0:0:
36,192,39722,1,0,0:0:0:0:
320,192,39722,128,0,39909:0:0:0:0:
448,192,40003,1,0,0:0:0:0:
192,192,40097,1,0,0:0:0:0:
64,192,40097,1,0,0:0:0:0:
329,192,40284,1,0,0:0:0:0:
475,192,40472,1,0,0:0:0:0:
64,192,40472,128,0,40659:0:0:0:0:
192,192,40659,128,0,40847:0:0:0:0:
448,192,40847,1,0,0:0:0:0:
320,192,40847,128,0,41034:0:0:0:0:
192,192,41222,1,0,0:0:0:0:
448,192,41222,128,0,41409:0:0:0:0:
64,192,41503,1,0,0:0:0:0:
320,192,41597,1,0,0:0:0:0:
448,192,41597,1,0,0:0:0:0:
192,192,41784,1,0,0:0:0:0:
475,192,41972,1,0,0:0:0:0:
320,192,41972,128,0,42347:0:0:0:0:
182,192,42159,128,0,42347:0:0:0:0:
36,192,42347,1,0,0:0:0:0:
448,192,42347,128,0,42722:0:0:0:0:
256,192,42534,128,0,42722:0:0:0:0:
64,192,42722,1,0,0:0:0:0:
192,192,42722,128,0,43097:0:0:0:0:
64,192,42909,128,0,43097:0:0:0:0:
448,192,43097,1,0,0:0:0:0:
320,192,43097,128,0,43472:0:0:0:0:
448,192,43284,128,0,43472:0:0:0:0:
109,192,43472,128,0,43659:0:0:0:0:
192,192,43472,1,0,0:0:0:0:
448,192,43659,128,0,43847:0:0:0:0:
64,192,43847,128,0,44034:0:0:0:0:
192,192,43847,1,0,0:0:0:0:
448,192,44034,128,0,44222:0:0:0:0:
192,192,44222,128,0,44409:0:0:0:0:
320,192,44222,1,0,0:0:0:0:
182,192,44597,1,0,0:0:0:0:
36,192,44597,1,0,0:0:0:0:
256,192,44784,1,0,0:0:0:0:
64,192,44972,1,0,0:0:0:0:
448,192,44972,128,0,45159:0:0:0:0:
192,192,45159,128,0,45347:0:0:0:0:
36,192,45347,1,0,0:0:0:0:
402,192,45347,1,0,0:0:0:0:
320,192,45347,128,0,45534:0:0:0:0:
64,192,45534,128,0,45722:0:0:0:0:
448,192,45722,128,0,45909:0:0:0:0:
192,192,45722,1,0,0:0:0:0:
64,192,46003,1,0,0:0:0:0:
402,192,46097,1,0,0:0:0:0:
320,192,46097,1,0,0:0:0:0:
192,192,46284,1,0,0:0:0:0:
36,192,46472,1,0,0:0:0:0:
448,192,46472,128,0,46659:0:0:0:0:
320,192,46659,128,0,46847:0:0:0:0:
402,192,46847,1,0,0:0:0:0:
192,192,46847,128,0,47034:0:0:0:0:
64,192,46847,1,0,0:0:0:0:
475,192,47222,1,0,0:0:0:0:
320,192,47222,128,0,47409:0:0:0:0:
36,192,47503,1,0,0:0:0:0:
402,192,47597,1,0,0:0:0:0:
192,192,47597,1,0,0:0:0:0:
329,192,47784,1,0,0:0:0:0:
109,192,47972,128,0,48159:0:0:0:0:
475,192,47972,1,0,0:0:0:0:
256,192,48159,128,0,48347:0:0:0:0:
402,192,48347,128,0,48534:0:0:0:0:
36,192,48347,1,0,0:0:0:0:
192,192,48347,1,0,0:0:0:0:
182,192,48534,128,0,48722:0:0:0:0:
109,192,48722,128,0,48909:0:0:0:0:
475,192,48722,1,0,0:0:0:0:
329,192,48909,128,0,49097:0:0:0:0:
475,192,49097,128,0,49284:0:0:0:0:
109,192,49097,1,0,0:0:0:0:
192,192,49097,1,0,0:0:0:0:
256,192,49284,128,0,49472:0:0:0:0:
36,192,49472,128,0,49659:0:0:0:0:
402,192,49472,1,0,0:0:0:0:
256,192,49659,128,0,49847:0:0:0:0:
402,192,49847,128,0,50034:0:0:0:0:
109,192,49847,1,0,0:0:0:0:
192,192,49847,1,0,0:0:0:0:
182,192,50034,128,0,50222:0:0:0:0:
109,192,50222,128,0,50597:0:0:0:0:
402,192,50222,1,0,0:0:0:0:
320,192,50409,1,0,0:0:0:0:
475,192,50597,1,0,0:0:0:0:
320,192,50597,1,0,0:0:0:0:
320,192,50972,1,0,0:0:0:0:
448,192,50972,1,0,0:0:0:0:
64,192,50972,128,0,51159:0:0:0:0:
320,192,51159,128,0,51347:0:0:0:0:
182,192,51347,1,0,0:0:0:0:
475,192,51347,1,0,0:0:0:0:
64,192,51347,128,0,51534:0:0:0:0:
192,192,51534,128,0,51722:0:0:0:0:
36,192,51722,1,0,0:0:0:0:
320,192,51722,1,0,0:0:0:0:
448,192,51722,128,0,51909:0:0:0:0:
256,192,52003,1,0,0:0:0:0:
402,192,52003,1,0,0:0:0:0:
109,192,52097,1,0,0:0:0:0:
192,192,52097,1,0,0:0:0:0:
448,192,52284,1,0,0:0:0:0:
192,192,52284,1,0,0:0:0:0:
402,192,52472,1,0,0:0:0:0:
64,192,52472,1,0,0:0:0:0:
320,192,52472,128,0,52659:0:0:0:0:
192,192,52659,128,0,52847:0:0:0:0:
448,192,52847,1,0,0:0:0:0:
64,192,52847,128,0,53034:0:0:0:0:
320,192,52847,1,0,0:0:0:0:
402,192,53222,1,0,0:0:0:0:
192,192,53222,1,0,0:0:0:0:
320,192,53222,128,0,53409:0:0:0:0:
192,192,53503,1,0,0:0:0:0:
64,192,53503,1,0,0:0:0:0:
320,192,53597,1,0,0:0:0:0:
448,192,53597,1,0,0:0:0:0:
320,192,53784,1,0,0:0:0:0:
64,192,53784,1,0,0:0:0:0:
36,192,53972,1,0,0:0:0:0:
448,192,53972,128,0,54159:0:0:0:0:
192,192,53972,1,0,0:0:0:0:
329,192,54159,128,0,54347:0:0:0:0:
109,192,54347,128,0,54534:0:0:0:0:
475,192,54347,1,0,0:0:0:0:
182,192,54347,1,0,0:0:0:0:
256,192,54534,128,0,54722:0:0:0:0:
402,192,54722,128,0,54909:0:0:0:0:
36,192,54722,1,0,0:0:0:0:
192,192,54722,1,0,0:0:0:0:
182,192,54909,128,0,55097:0:0:0:0:
64,192,55097,128,0,55284:0:0:0:0:
256,192,55097,1,0,0:0:0:0:
448,192,55097,1,0,0:0:0:0:
320,192,55284,128,0,55472:0:0:0:0:
182,192,55472,1,0,0:0:0:0:
64,192,55472,1,0,0:0:0:0:
448,192,55472,128,0,55659:0:0:0:0:
36,192,55659,128,0,55847:0:0:0:0:
256,192,55847,1,0,0:0:0:0:
192,192,55847,1,0,0:0:0:0:
448,192,55847,128,0,56034:0:0:0:0:
109,192,56034,128,0,56222:0:0:0:0:
475,192,56222,1,0,0:0:0:0:
192,192,56222,1,0,0:0:0:0:
320,192,56222,128,0,56409:0:0:0:0:
36,192,56503,1,0,0:0:0:0:
182,192,56503,1,0,0:0:0:0:
402,192,56597,1,0,0:0:0:0:
320,192,56597,1,0,0:0:0:0:
192,192,56784,1,0,0:0:0:0:
448,192,56784,1,0,0:0:0:0:
109,192,56972,1,0,0:0:0:0:
192,192,56972,1,0,0:0:0:0:
320,192,56972,128,0,57159:0:0:0:0:
64,192,57159,128,0,57347:0:0:0:0:
320,192,57347,1,0,0:0:0:0:
448,192,57347,1,0,0:0:0:0:
192,192,57347,128,0,57534:0:0:0:0:
320,192,57534,128,0,57722:0:0:0:0:
192,192,57722,1,0,0:0:0:0:
64,192,57722,1,0,0:0:0:0:
448,192,57722,1,0,0:0:0:0:
448,192,57909,1,0,0:0:0:0:
192,192,58003,1,0,0:0:0:0:
64,192,58003,1,0,0:0:0:0:
448,192,58097,1,0,0:0:0:0:
320,192,58097,1,0,0:0:0:0:
192,192,58284,1,0,0:0:0:0:
64,192,58284,1,0,0:0:0:0:
448,192,58472,1,0,0:0:0:0:
64,192,58472,1,0,0:0:0:0:
320,192,58472,128,0,58659:0:0:0:0:
192,192,58659,128,0,58847:0:0:0:0:
64,192,58847,128,0,59034:0:0:0:0:
320,192,58847,1,0,0:0:0:0:
448,192,58847,1,0,0:0:0:0:
192,192,59034,1,0,0:0:0:0:
64,192,59222,1,0,0:0:0:0:
320,192,59222,1,0,0:0:0:0:
448,192,59222,128,0,59409:0:0:0:0:
64,192,59409,1,0,0:0:0:0:
320,192,59503,1,0,0:0:0:0:
448,192,59503,1,0,0:0:0:0:
192,192,59597,1,0,0:0:0:0:
64,192,59597,1,0,0:0:0:0:
192,192,59784,1,0,0:0:0:0:
320,192,59784,1,0,0:0:0:0:
64,192,59972,1,0,0:0:0:0:
448,192,59972,1,0,0:0:0:0:
192,192,60065,1,0,0:0:0:0:
448,192,60159,1,0,0:0:0:0:
320,192,60253,1,0,0:0:0:0:
192,192,60347,1,0,0:0:0:0:
64,192,60347,1,0,0:0:0:0:
448,192,60440,1,0,0:0:0:0:
320,192,60534,1,0,0:0:0:0:
64,192,60628,1,0,0:0:0:0:
448,192,60722,1,0,0:0:0:0:
192,192,60722,1,0,0:0:0:0:
320,192,60815,1,0,0:0:0:0:
64,192,60909,1,0,0:0:0:0:
448,192,61003,1,0,0:0:0:0:
192,192,61003,1,0,0:0:0:0:
320,192,61097,1,0,0:0:0:0:
192,192,61190,1,0,0:0:0:0:
64,192,61284,1,0,0:0:0:0:
448,192,61284,1,0,0:0:0:0:
320,192,61378,1,0,0:0:0:0:
192,192,61472,1,0,0:0:0:0:
448,192,61472,128,0,61659:0:0:0:0:
192,192,61659,128,0,61847:0:0:0:0:
64,192,61847,128,0,62034:0:0:0:0:
320,192,62034,128,0,62222:0:0:0:0:
192,192,62222,128,0,62784:0:0:0:0:
448,192,62409,1,0,0:0:0:0:
448,192,62597,128,0,62972:0:0:0:0:
320,192,62972,1,0,0:0:0:0:
64,192,62972,1,0,0:0:0:0:
192,192,62972,1,0,0:0:0:0:
448,192,63159,1,0,0:0:0:0:
64,192,63347,1,0,0:0:0:0:
320,192,63534,1,0,0:0:0:0:
64,192,63722,1,0,0:0:0:0:
448,192,64003,1,0,0:0:0:0:
64,192,64097,1,0,0:0:0:0:
192,192,64284,1,0,0:0:0:0:
448,192,64472,1,0,0:0:0:0:
320,192,64659,1,0,0:0:0:0:
448,192,64847,1,0,0:0:0:0:
64,192,65034,1,0,0:0:0:0:
448,192,65222,1,0,0:0:0:0:
320,192,65222,1,0,0:0:0:0:
64,192,65597,1,0,0:0:0:0:
320,192,65597,1,0,0:0:0:0:
448,192,65972,1,0,0:0:0:0:
320,192,66159,1,0,0:0:0:0:
64,192,66347,1,0,0:0:0:0:
192,192,66534,1,0,0:0:0:0:
320,192,66722,1,0,0:0:0:0:
448,192,67003,1,0,0:0:0:0:
192,192,67097,1,0,0:0:0:0:
64,192,67284,1,0,0:0:0:0:
320,192,67472,1,0,0:0:0:0:
192,192,67659,1,0,0:0:0:0:
448,192,67847,1,0,0:0:0:0:
320,192,68034,1,0,0:0:0:0:
64,192,68222,1,0,0:0:0:0:
448,192,68222,1,0,0:0:0:0:
192,192,68315,1,0,0:0:0:0:
320,192,68409,1,0,0:0:0:0:
448,192,68503,1,0,0:0:0:0:
64,192,68597,1,0,0:0:0:0:
192,192,68690,1,0,0:0:0:0:
448,192,68784,1,0,0:0:0:0:
320,192,68878,1,0,0:0:0:0:
192,192,68972,1,0,0:0:0:0:
64,192,68972,1,0,0:0:0:0:
448,192,69159,1,0,0:0:0:0:
64,192,69347,1,0,0:0:0:0:
192,192,69534,1,0,0:0:0:0:
64,192,69722,1,0,0:0:0:0:
320,192,70003,1,0,0:0:0:0:
64,192,70097,1,0,0:0:0:0:
192,192,70284,1,0,0:0:0:0:
448,192,70472,1,0,0:0:0:0:
64,192,70472,1,0,0:0:0:0:
320,192,70659,1,0,0:0:0:0:
448,192,70847,1,0,0:0:0:0:
64,192,71034,1,0,0:0:0:0:
448,192,71222,1,0,0:0:0:0:
320,192,71222,1,0,0:0:0:0:
192,192,71409,1,0,0:0:0:0:
448,192,71597,1,0,0:0:0:0:
192,192,71597,1,0,0:0:0:0:
320,192,71972,1,0,0:0:0:0:
64,192,71972,1,0,0:0:0:0:
192,192,72159,1,0,0:0:0:0:
448,192,72347,1,0,0:0:0:0:
320,192,72534,1,0,0:0:0:0:
64,192,72722,1,0,0:0:0:0:
192,192,72722,1,0,0:0:0:0:
448,192,72909,1,0,0:0:0:0:
192,192,73003,1,0,0:0:0:0:
64,192,73097,1,0,0:0:0:0:
320,192,73097,1,0,0:0:0:0:
448,192,73284,1,0,0:0:0:0:
64,192,73472,1,0,0:0:0:0:
192,192,73472,128,0,73659:0:0:0:0:
448,192,73659,128,0,73847:0:0:0:0:
320,192,73847,128,0,74034:0:0:0:0:
192,192,73847,1,0,0:0:0:0:
64,192,74034,128,0,74222:0:0:0:0:
448,192,74222,1,0,0:0:0:0:
320,192,74315,1,0,0:0:0:0:
64,192,74409,1,0,0:0:0:0:
192,192,74503,1,0,0:0:0:0:
448,192,74597,1,0,0:0:0:0:
320,192,74597,1,0,0:0:0:0:
64,192,74722,1,0,0:0:0:0:
192,192,74847,1,0,0:0:0:0:
64,192,74972,1,0,0:0:0:0:
320,192,74972,1,0,0:0:0:0:
448,192,74972,128,0,75159:0:0:0:0:
320,192,75347,1,0,0:0:0:0:
448,192,75347,1,0,0:0:0:0:
192,192,75347,128,0,75534:0:0:0:0:
64,192,75722,1,0,0:0:0:0:
320,192,75722,128,0,75909:0:0:0:0:
448,192,75722,1,0,0:0:0:0:
192,192,76003,1,0,0:0:0:0:
64,192,76003,1,0,0:0:0:0:
320,192,76097,1,0,0:0:0:0:
448,192,76097,1,0,0:0:0:0:
192,192,76284,1,0,0:0:0:0:
320,192,76284,1,0,0:0:0:0:
448,192,76472,1,0,0:0:0:0:
192,192,76472,1,0,0:0:0:0:
64,192,76472,128,0,76659:0:0:0:0:
320,192,76847,128,0,77034:0:0:0:0:
448,192,76847,1,0,0:0:0:0:
192,192,76847,1,0,0:0:0:0:
192,192,77222,128,0,77409:0:0:0:0:
64,192,77222,1,0,0:0:0:0:
448,192,77222,1,0,0:0:0:0:
320,192,77503,1,0,0:0:0:0:
448,192,77503,1,0,0:0:0:0:
192,192,77597,1,0,0:0:0:0:
64,192,77597,1,0,0:0:0:0:
448,192,77784,1,0,0:0:0:0:
320,192,77878,1,0,0:0:0:0:
64,192,77972,1,0,0:0:0:0:
448,192,77972,128,0,78159:0:0:0:0:
192,192,77972,1,0,0:0:0:0:
192,192,78347,128,0,78534:0:0:0:0:
448,192,78347,1,0,0:0:0:0:
320,192,78347,1,0,0:0:0:0:
320,192,78722,128,0,78909:0:0:0:0:
448,192,78722,1,0,0:0:0:0:
64,192,78722,1,0,0:0:0:0:
192,192,79003,1,0,0:0:0:0:
64,192,79003,1,0,0:0:0:0:
448,192,79097,1,0,0:0:0:0:
320,192,79097,1,0,0:0:0:0:
192,192,79284,1,0,0:0:0:0:
448,192,79284,1,0,0:0:0:0:
64,192,79472,128,0,79659:0:0:0:0:
320,192,79472,1,0,0:0:0:0:
192,192,79472,1,0,0:0:0:0:
320,192,79847,128,0,80034:0:0:0:0:
448,192,79847,1,0,0:0:0:0:
192,192,79847,1,0,0:0:0:0:
448,192,80222,1,0,0:0:0:0:
192,192,80222,128,0,80409:0:0:0:0:
64,192,80222,1,0,0:0:0:0:
448,192,80503,1,0,0:0:0:0:
320,192,80503,1,0,0:0:0:0:
64,192,80597,1,0,0:0:0:0:
192,192,80597,1,0,0:0:0:0:
320,192,80784,1,0,0:0:0:0:
192,192,80878,1,0,0:0:0:0:
64,192,80972,1,0,0:0:0:0:
320,192,80972,1,0,0:0:0:0:
448,192,80972,128,0,81159:0:0:0:0:
64,192,81159,1,0,0:0:0:0:
448,192,81347,128,0,81534:0:0:0:0:
192,192,81347,1,0,0:0:0:0:
320,192,81347,1,0,0:0:0:0:
192,192,81534,1,0,0:0:0:0:
448,192,81722,128,0,81909:0:0:0:0:
320,192,81722,1,0,0:0:0:0:
64,192,81722,1,0,0:0:0:0:
64,192,81909,1,0,0:0:0:0:
320,192,82003,1,0,0:0:0:0:
448,192,82003,1,0,0:0:0:0:
192,192,82097,1,0,0:0:0:0:
64,192,82097,1,0,0:0:0:0:
320,192,82284,1,0,0:0:0:0:
192,192,82284,1,0,0:0:0:0:
64,192,82472,128,0,82659:0:0:0:0:
448,192,82472,1,0,0:0:0:0:
320,192,82472,1,0,0:0:0:0:
448,192,82659,1,0,0:0:0:0:
64,192,82847,128,0,83034:0:0:0:0:
320,192,82847,1,0,0:0:0:0:
192,192,82847,1,0,0:0:0:0:
320,192,83034,1,0,0:0:0:0:
64,192,83222,128,0,83409:0:0:0:0:
192,192,83222,1,0,0:0:0:0:
448,192,83222,1,0,0:0:0:0:
448,192,83409,1,0,0:0:0:0:
192,192,83503,1,0,0:0:0:0:
64,192,83503,1,0,0:0:0:0:
320,192,83597,1,0,0:0:0:0:
448,192,83597,1,0,0:0:0:0:
320,192,83784,1,0,0:0:0:0:
64,192,83784,1,0,0:0:0:0:
192,192,83972,1,0,0:0:0:0:
448,192,83972,128,0,84159:0:0:0:0:
64,192,84065,1,0,0:0:0:0:
320,192,84159,1,0,0:0:0:0:
192,192,84253,1,0,0:0:0:0:
64,192,84347,128,0,84534:0:0:0:0:
448,192,84347,1,0,0:0:0:0:
320,192,84440,1,0,0:0:0:0:
192,192,84534,1,0,0:0:0:0:
320,192,84628,1,0,0:0:0:0:
64,192,84722,1,0,0:0:0:0:
448,192,84722,128,0,84909:0:0:0:0:
192,192,84815,1,0,0:0:0:0:
320,192,84909,1,0,0:0:0:0:
192,192,85003,1,0,0:0:0:0:
64,192,85097,1,0,0:0:0:0:
448,192,85097,1,0,0:0:0:0:
320,192,85190,1,0,0:0:0:0:
64,192,85284,1,0,0:0:0:0:
192,192,85284,1,0,0:0:0:0:
320,192,85378,1,0,0:0:0:0:
64,192,85472,1,0,0:0:0:0:
448,192,85472,128,0,85659:0:0:0:0:
320,192,85659,128,0,85847:0:0:0:0:
192,192,85847,128,0,86034:0:0:0:0:
64,192,86034,128,0,86222:0:0:0:0:
448,192,86222,1,0,0:0:0:0:
320,192,86315,1,0,0:0:0:0:
192,192,86409,1,0,0:0:0:0:
320,192,86503,1,0,0:0:0:0:
64,192,86597,1,0,0:0:0:0:
448,192,86597,1,0,0:0:0:0:
192,192,86722,1,0,0:0:0:0:
320,192,86847,1,0,0:0:0:0:
448,192,86972,1,0,0:0:0:0:
192,192,86972,128,0,87159:0:0:0:0:
64,192,86972,1,0,0:0:0:0:
320,192,87347,128,0,87534:0:0:0:0:
64,192,87347,1,0,0:0:0:0:
192,192,87347,1,0,0:0:0:0:
448,192,87628,1,0,0:0:0:0:
192,192,87722,128,0,87909:0:0:0:0:
64,192,87722,1,0,0:0:0:0:
448,192,87909,1,0,0:0:0:0:
320,192,87909,1,0,0:0:0:0:
320,192,88097,128,0,88284:0:0:0:0:
448,192,88097,1,0,0:0:0:0:
64,192,88097,1,0,0:0:0:0:
192,192,88472,128,0,88659:0:0:0:0:
64,192,88472,1,0,0:0:0:0:
320,192,88472,1,0,0:0:0:0:
320,192,88847,128,0,89034:0:0:0:0:
448,192,88847,1,0,0:0:0:0:
192,192,88847,1,0,0:0:0:0:
64,192,89128,1,0,0:0:0:0:
192,192,89222,128,0,89409:0:0:0:0:
320,192,89222,1,0,0:0:0:0:
448,192,89409,1,0,0:0:0:0:
64,192,89409,1,0,0:0:0:0:
448,192,89597,1,0,0:0:0:0:
192,192,89597,1,0,0:0:0:0:
64,192,89597,1,0,0:0:0:0:
320,192,89784,1,0,0:0:0:0:
192,192,89878,1,0,0:0:0:0:
64,192,89972,1,0,0:0:0:0:
320,192,89972,128,0,90159:0:0:0:0:
448,192,89972,1,0,0:0:0:0:
192,192,90347,128,0,90534:0:0:0:0:
448,192,90347,1,0,0:0:0:0:
320,192,90347,1,0,0:0:0:0:
64,192,90628,1,0,0:0:0:0:
320,192,90722,128,0,90909:0:0:0:0:
448,192,90722,1,0,0:0:0:0:
64,192,90909,1,0,0:0:0:0:
192,192,90909,1,0,0:0:0:0:
192,192,91097,128,0,91284:0:0:0:0:
64,192,91097,1,0,0:0:0:0:
448,192,91097,1,0,0:0:0:0:
320,192,91472,128,0,91659:0:0:0:0:
448,192,91472,1,0,0:0:0:0:
192,192,91472,1,0,0:0:0:0:
192,192,91847,128,0,92034:0:0:0:0:
64,192,91847,1,0,0:0:0:0:
320,192,91847,1,0,0:0:0:0:
448,192,92128,1,0,0:0:0:0:
320,192,92222,128,0,92409:0:0:0:0:
192,192,92222,1,0,0:0:0:0:
64,192,92409,1,0,0:0:0:0:
448,192,92409,1,0,0:0:0:0:
320,192,92597,1,0,0:0:0:0:
448,192,92597,1,0,0:0:0:0:
192,192,92597,1,0,0:0:0:0:
64,192,92784,1,0,0:0:0:0:
192,192,92878,1,0,0:0:0:0:
448,192,92972,128,0,93159:0:0:0:0:
64,192,92972,1,0,0:0:0:0:
320,192,92972,1,0,0:0:0:0:
192,192,93159,1,0,0:0:0:0:
64,192,93347,128,0,93534:0:0:0:0:
448,192,93347,1,0,0:0:0:0:
320,192,93347,1,0,0:0:0:0:
192,192,93534,1,0,0:0:0:0:
448,192,93722,128,0,93909:0:0:0:0:
64,192,93722,1,0,0:0:0:0:
320,192,93722,1,0,0:0:0:0:
192,192,93909,1,0,0:0:0:0:
64,192,94097,128,0,94284:0:0:0:0:
448,192,94097,1,0,0:0:0:0:
320,192,94097,1,0,0:0:0:0:
192,192,94284,1,0,0:0:0:0:
448,192,94284,1,0,0:0:0:0:
192,192,94472,128,0,94659:0:0:0:0:
64,192,94472,1,0,0:0:0:0:
320,192,94472,1,0,0:0:0:0:
448,192,94659,1,0,0:0:0:0:
320,192,94847,128,0,95034:0:0:0:0:
192,192,94847,1,0,0:0:0:0:
64,192,94847,1,0,0:0:0:0:
448,192,95034,1,0,0:0:0:0:
192,192,95222,128,0,95409:0:0:0:0:
320,192,95222,1,0,0:0:0:0:
64,192,95222,1,0,0:0:0:0:
448,192,95409,1,0,0:0:0:0:
320,192,95597,128,0,95784:0:0:0:0:
192,192,95597,1,0,0:0:0:0:
64,192,95597,1,0,0:0:0:0:
448,192,95784,1,0,0:0:0:0:
64,192,95784,1,0,0:0:0:0:
64,192,95972,1,0,0:0:0:0:
192,192,95972,1,0,0:0:0:0:
320,192,96065,1,0,0:0:0:0:
448,192,96159,1,0,0:0:0:0:
64,192,96253,1,0,0:0:0:0:
320,192,96347,1,0,0:0:0:0:
192,192,96347,1,0,0:0:0:0:
448,192,96440,1,0,0:0:0:0:
64,192,96534,1,0,0:0:0:0:
192,192,96628,1,0,0:0:0:0:
448,192,96722,1,0,0:0:0:0:
320,192,96722,1,0,0:0:0:0:
192,192,96815,1,0,0:0:0:0:
64,192,96909,1,0,0:0:0:0:
448,192,97003,1,0,0:0:0:0:
192,192,97097,1,0,0:0:0:0:
64,192,97097,1,0,0:0:0:0:
320,192,97190,1,0,0:0:0:0:
448,192,97284,1,0,0:0:0:0:
64,192,97284,1,0,0:0:0:0:
192,192,97378,1,0,0:0:0:0:
448,192,97472,1,0,0:0:0:0:
320,192,97472,128,0,97659:0:0:0:0:
192,192,97659,128,0,97847:0:0:0:0:
64,192,97847,128,0,98034:0:0:0:0:
448,192,98034,128,0,98409:0:0:0:0:
320,192,98222,128,0,98409:0:0:0:0:
64,192,98972,1,0,0:0:0:0:
448,192,98972,1,0,0:0:0:0:
192,192,98972,1,0,0:0:0:0:
320,192,99159,1,0,0:0:0:0:
64,192,99253,1,0,0:0:0:0:
192,192,99347,1,0,0:0:0:0:
448,192,99347,1,0,0:0:0:0:
320,192,99534,1,0,0:0:0:0:
192,192,99534,1,0,0:0:0:0:
448,192,99722,1,0,0:0:0:0:
64,192,99722,128,0,99909:0:0:0:0:
448,192,100003,1,0,0:0:0:0:
320,192,100003,1,0,0:0:0:0:
192,192,100097,1,0,0:0:0:0:
64,192,100097,1,0,0:0:0:0:
320,192,100284,1,0,0:0:0:0:
64,192,100284,1,0,0:0:0:0:
448,192,100472,1,0,0:0:0:0:
192,192,100472,1,0,0:0:0:0:
320,192,100659,1,0,0:0:0:0:
448,192,100753,1,0,0:0:0:0:
192,192,100847,1,0,0:0:0:0:
64,192,100847,1,0,0:0:0:0:
192,192,101034,1,0,0:0:0:0:
320,192,101034,1,0,0:0:0:0:
64,192,101222,1,0,0:0:0:0:
448,192,101222,128,0,101409:0:0:0:0:
64,192,101503,1,0,0:0:0:0:
192,192,101503,1,0,0:0:0:0:
320,192,101597,1,0,0:0:0:0:
448,192,101597,1,0,0:0:0:0:
320,192,101784,1,0,0:0:0:0:
192,192,101784,1,0,0:0:0:0:
448,192,101972,1,0,0:0:0:0:
64,192,101972,128,0,102159:0:0:0:0:
320,192,102159,128,0,102347:0:0:0:0:
192,192,102159,1,0,0:0:0:0:
448,192,102347,128,0,102534:0:0:0:0:
64,192,102347,1,0,0:0:0:0:
192,192,102534,128,0,102722:0:0:0:0:
320,192,102534,1,0,0:0:0:0:
64,192,102722,128,0,102909:0:0:0:0:
448,192,102722,1,0,0:0:0:0:
320,192,102909,128,0,103097:0:0:0:0:
192,192,102909,1,0,0:0:0:0:
192,192,103097,128,0,103284:0:0:0:0:
448,192,103097,1,0,0:0:0:0:
448,192,103284,128,0,103472:0:0:0:0:
320,192,103284,1,0,0:0:0:0:
64,192,103472,128,0,103659:0:0:0:0:
192,192,103472,1,0,0:0:0:0:
320,192,103659,128,0,103847:0:0:0:0:
448,192,103659,1,0,0:0:0:0:
64,192,103847,128,0,104034:0:0:0:0:
192,192,103847,1,0,0:0:0:0:
448,192,104034,128,0,104222:0:0:0:0:
320,192,104034,1,0,0:0:0:0:
192,192,104222,128,0,104409:0:0:0:0:
64,192,104222,1,0,0:0:0:0:
320,192,104503,1,0,0:0:0:0:
448,192,104503,1,0,0:0:0:0:
192,192,104597,1,0,0:0:0:0:
64,192,104597,1,0,0:0:0:0:
192,192,104784,1,0,0:0:0:0:
448,192,104784,1,0,0:0:0:0:
64,192,104972,1,0,0:0:0:0:
320,192,104972,1,0,0:0:0:0:
192,192,105159,1,0,0:0:0:0:
448,192,105253,1,0,0:0:0:0:
320,192,105347,1,0,0:0:0:0:
64,192,105347,1,0,0:0:0:0:
192,192,105534,1,0,0:0:0:0:
320,192,105534,1,0,0:0:0:0:
64,192,105722,1,0,0:0:0:0:
448,192,105722,128,0,105909:0:0:0:0:
64,192,106003,1,0,0:0:0:0:
192,192,106003,1,0,0:0:0:0:
320,192,106097,1,0,0:0:0:0:
448,192,106097,1,0,0:0:0:0:
192,192,106284,1,0,0:0:0:0:
448,192,106284,1,0,0:0:0:0:
64,192,106472,1,0,0:0:0:0:
320,192,106472,1,0,0:0:0:0:
192,192,106659,1,0,0:0:0:0:
64,192,106753,1,0,0:0:0:0:
320,192,106847,1,0,0:0:0:0:
448,192,106847,1,0,0:0:0:0:
320,192,107034,1,0,0:0:0:0:
192,192,107034,1,0,0:0:0:0:
448,192,107222,1,0,0:0:0:0:
64,192,107222,128,0,107409:0:0:0:0:
448,192,107503,1,0,0:0:0:0:
320,192,107503,1,0,0:0:0:0:
192,192,107597,1,0,0:0:0:0:
64,192,107597,1,0,0:0:0:0:
192,192,107784,1,0,0:0:0:0:
320,192,107784,1,0,0:0:0:0:
64,192,107972,1,0,0:0:0:0:
448,192,107972,128,0,108159:0:0:0:0:
192,192,108159,128,0,108347:0:0:0:0:
320,192,108159,1,0,0:0:0:0:
64,192,108347,128,0,108534:0:0:0:0:
448,192,108347,1,0,0:0:0:0:
320,192,108534,128,0,108722:0:0:0:0:
192,192,108534,1,0,0:0:0:0:
448,192,108722,128,0,108909:0:0:0:0:
64,192,108722,1,0,0:0:0:0:
192,192,108909,128,0,109097:0:0:0:0:
320,192,108909,1,0,0:0:0:0:
320,192,109097,128,0,109284:0:0:0:0:
64,192,109097,1,0,0:0:0:0:
64,192,109284,128,0,109472:0:0:0:0:
192,192,109284,1,0,0:0:0:0:
448,192,109472,128,0,109659:0:0:0:0:
320,192,109472,1,0,0:0:0:0:
192,192,109659,128,0,109847:0:0:0:0:
64,192,109659,1,0,0:0:0:0:
448,192,109847,128,0,110034:0:0:0:0:
320,192,109847,1,0,0:0:0:0:
64,192,110034,128,0,110222:0:0:0:0:
192,192,110034,1,0,0:0:0:0:
448,192,110222,1,0,0:0:0:0:
320,192,110222,128,0,110597:0:0:0:0:
64,192,110409,1,0,0:0:0:0:
448,192,110597,1,0,0:0:0:0:
64,192,110597,1,0,0:0:0:0:
64,192,110972,1,0,0:0:0:0:
448,192,110972,1,0,0:0:0:0:
192,192,110972,1,0,0:0:0:0:
320,192,111159,1,0,0:0:0:0:
192,192,111253,1,0,0:0:0:0:
64,192,111347,1,0,0:0:0:0:
448,192,111347,1,0,0:0:0:0:
448,192,111534,1,0,0:0:0:0:
192,192,111534,1,0,0:0:0:0:
192,192,111722,1,0,0:0:0:0:
64,192,111722,128,0,111909:0:0:0:0:
320,192,112003,1,0,0:0:0:0:
192,192,112003,1,0,0:0:0:0:
448,192,112097,1,0,0:0:0:0:
64,192,112097,1,0,0:0:0:0:
320,192,112284,1,0,0:0:0:0:
448,192,112284,1,0,0:0:0:0:
64,192,112472,1,0,0:0:0:0:
320,192,112472,1,0,0:0:0:0:
192,192,112659,1,0,0:0:0:0:
320,192,112753,1,0,0:0:0:0:
448,192,112847,1,0,0:0:0:0:
64,192,112847,1,0,0:0:0:0:
192,192,113034,1,0,0:0:0:0:
320,192,113034,1,0,0:0:0:0:
192,192,113222,1,0,0:0:0:0:
448,192,113222,128,0,113409:0:0:0:0:
320,192,113503,1,0,0:0:0:0:
192,192,113503,1,0,0:0:0:0:
64,192,113597,1,0,0:0:0:0:
448,192,113597,1,0,0:0:0:0:
192,192,113784,1,0,0:0:0:0:
320,192,113878,1,0,0:0:0:0:
448,192,113972,1,0,0:0:0:0:
192,192,113972,128,0,114159:0:0:0:0:
64,192,114159,128,0,114347:0:0:0:0:
320,192,114159,1,0,0:0:0:0:
192,192,114347,1,0,0:0:0:0:
448,192,114347,128,0,114534:0:0:0:0:
320,192,114534,128,0,114722:0:0:0:0:
64,192,114534,1,0,0:0:0:0:
64,192,114722,128,0,114909:0:0:0:0:
448,192,114722,1,0,0:0:0:0:
192,192,114909,128,0,115097:0:0:0:0:
320,192,114909,1,0,0:0:0:0:
64,192,115097,128,0,115284:0:0:0:0:
448,192,115097,1,0,0:0:0:0:
448,192,115284,128,0,115472:0:0:0:0:
320,192,115284,1,0,0:0:0:0:
64,192,115472,128,0,115659:0:0:0:0:
192,192,115472,1,0,0:0:0:0:
320,192,115659,128,0,115847:0:0:0:0:
448,192,115659,1,0,0:0:0:0:
64,192,115847,128,0,116034:0:0:0:0:
192,192,115847,1,0,0:0:0:0:
320,192,116034,128,0,116222:0:0:0:0:
448,192,116034,1,0,0:0:0:0:
192,192,116222,128,0,116409:0:0:0:0:
64,192,116222,1,0,0:0:0:0:
320,192,116503,1,0,0:0:0:0:
448,192,116503,1,0,0:0:0:0:
192,192,116597,1,0,0:0:0:0:
64,192,116597,1,0,0:0:0:0:
64,192,116784,1,0,0:0:0:0:
320,192,116784,1,0,0:0:0:0:
192,192,116972,1,0,0:0:0:0:
448,192,116972,1,0,0:0:0:0:
448,192,117159,1,0,0:0:0:0:
192,192,117253,1,0,0:0:0:0:
64,192,117253,1,0,0:0:0:0:
448,192,117347,1,0,0:0:0:0:
320,192,117347,1,0,0:0:0:0:
64,192,117534,1,0,0:0:0:0:
320,192,117534,1,0,0:0:0:0:
448,192,117722,128,0,117909:0:0:0:0:
192,192,117722,1,0,0:0:0:0:
320,192,117909,1,0,0:0:0:0:
64,192,118003,1,0,0:0:0:0:
192,192,118003,1,0,0:0:0:0:
320,192,118097,1,0,0:0:0:0:
448,192,118097,1,0,0:0:0:0:
192,192,118284,1,0,0:0:0:0:
448,192,118284,1,0,0:0:0:0:
64,192,118472,1,0,0:0:0:0:
320,192,118472,1,0,0:0:0:0:
64,192,118659,1,0,0:0:0:0:
320,192,118753,1,0,0:0:0:0:
448,192,118753,1,0,0:0:0:0:
192,192,118847,1,0,0:0:0:0:
64,192,118847,1,0,0:0:0:0:
192,192,119034,1,0,0:0:0:0:
448,192,119034,1,0,0:0:0:0:
64,192,119222,128,0,119409:0:0:0:0:
448,192,119222,1,0,0:0:0:0:
192,192,119409,1,0,0:0:0:0:
448,192,119503,1,0,0:0:0:0:
320,192,119503,1,0,0:0:0:0:
192,192,119597,1,0,0:0:0:0:
64,192,119597,1,0,0:0:0:0:
192,192,119784,1,0,0:0:0:0:
320,192,119784,1,0,0:0:0:0:
448,192,119972,1,0,0:0:0:0:
64,192,119972,1,0,0:0:0:0:
320,192,120065,1,0,0:0:0:0:
192,192,120159,1,0,0:0:0:0:
448,192,120253,1,0,0:0:0:0:
64,192,120347,1,0,0:0:0:0:
320,192,120347,1,0,0:0:0:0:
448,192,120440,1,0,0:0:0:0:
192,192,120534,1,0,0:0:0:0:
64,192,120534,1,0,0:0:0:0:
320,192,120628,1,0,0:0:0:0:
448,192,120722,1,0,0:0:0:0:
64,192,120722,1,0,0:0:0:0:
192,192,120815,1,0,0:0:0:0:
320,192,120909,1,0,0:0:0:0:
192,192,121003,1,0,0:0:0:0:
64,192,121097,1,0,0:0:0:0:
448,192,121097,1,0,0:0:0:0:
320,192,121190,1,0,0:0:0:0:
192,192,121284,1,0,0:0:0:0:
64,192,121284,1,0,0:0:0:0:
320,192,121378,1,0,0:0:0:0:
448,192,121472,128,0,121659:0:0:0:0:
192,192,121472,1,0,0:0:0:0:
64,192,121659,128,0,121847:0:0:0:0:
448,192,121847,128,0,122034:0:0:0:0:
192,192,122034,128,0,122222:0:0:0:0:
320,192,122222,128,0,122597:0:0:0:0:
64,192,122409,1,0,0:0:0:0:
64,192,122597,128,0,122972:0:0:0:0:
320,192,122972,1,0,0:0:0:0:
448,192,122972,1,0,0:0:0:0:
192,192,123159,1,0,0:0:0:0:
448,192,123347,1,0,0:0:0:0:
64,192,123534,1,0,0:0:0:0:
448,192,123722,1,0,0:0:0:0:
192,192,124003,1,0,0:0:0:0:
448,192,124097,1,0,0:0:0:0:
320,192,124284,1,0,0:0:0:0:
64,192,124472,1,0,0:0:0:0:
192,192,124659,1,0,0:0:0:0:
64,192,124847,1,0,0:0:0:0:
320,192,125034,1,0,0:0:0:0:
448,192,125222,1,0,0:0:0:0:
64,192,125222,1,0,0:0:0:0:
192,192,125597,1,0,0:0:0:0:
64,192,125597,1,0,0:0:0:0:
320,192,125972,1,0,0:0:0:0:
64,192,126159,1,0,0:0:0:0:
320,192,126347,1,0,0:0:0:0:
448,192,126534,1,0,0:0:0:0:
320,192,126722,1,0,0:0:0:0:
448,192,127003,1,0,0:0:0:0:
192,192,127097,1,0,0:0:0:0:
64,192,127284,1,0,0:0:0:0:
192,192,127472,1,0,0:0:0:0:
320,192,127659,1,0,0:0:0:0:
192,192,127847,1,0,0:0:0:0:
448,192,128034,1,0,0:0:0:0:
64,192,128222,1,0,0:0:0:0:
320,192,128222,1,0,0:0:0:0:
192,192,128409,1,0,0:0:0:0:
192,192,128597,1,0,0:0:0:0:
448,192,128597,1,0,0:0:0:0:
448,192,128972,1,0,0:0:0:0:
64,192,128972,1,0,0:0:0:0:
192,192,129159,1,0,0:0:0:0:
448,192,129347,1,0,0:0:0:0:
320,192,129534,1,0,0:0:0:0:
448,192,129722,1,0,0:0:0:0:
192,192,130003,1,0,0:0:0:0:
448,192,130097,1,0,0:0:0:0:
320,192,130284,1,0,0:0:0:0:
448,192,130472,1,0,0:0:0:0:
64,192,130472,1,0,0:0:0:0:
192,192,130659,1,0,0:0:0:0:
64,192,130847,1,0,0:0:0:0:
320,192,131034,1,0,0:0:0:0:
64,192,131222,1,0,0:0:0:0:
192,192,131222,1,0,0:0:0:0:
448,192,131409,1,0,0:0:0:0:
448,192,131597,1,0,0:0:0:0:
192,192,131597,1,0,0:0:0:0:
448,192,131972,1,0,0:0:0:0:
64,192,131972,1,0,0:0:0:0:
192,192,132159,1,0,0:0:0:0:
448,192,132347,1,0,0:0:0:0:
320,192,132534,1,0,0:0:0:0:
448,192,132722,1,0,0:0:0:0:
64,192,132722,1,0,0:0:0:0:
320,192,133003,1,0,0:0:0:0:
64,192,133097,1,0,0:0:0:0:
192,192,133284,1,0,0:0:0:0:
64,192,133472,1,0,0:0:0:0:
448,192,133472,128,0,133659:0:0:0:0:
320,192,133659,128,0,133847:0:0:0:0:
192,192,133847,128,0,134034:0:0:0:0:
64,192,134034,128,0,134222:0:0:0:0:
448,192,134222,128,0,134409:0:0:0:0:
192,192,134409,1,0,0:0:0:0:
192,192,134597,128,0,134972:0:0:0:0:
