osu file format v14

[General]
AudioFilename: audio.mp3
AudioLeadIn: 0
PreviewTime: 50394
Countdown: 0
SampleSet: Soft
StackLeniency: 0.7
Mode: 0
LetterboxInBreaks: 0
WidescreenStoryboard: 1

[Editor]
Bookmarks: 13387,26019,38650,51282,63913,76545,89177,101808,114440,127071,139703,152334,164966,177598,190229
DistanceSpacing: 1
BeatDivisor: 4
GridSize: 32
TimelineZoom: 1.299999

[Metadata]
Title:For U
TitleUnicode:For U
Artist:Aice room
ArtistUnicode:Aice room
Creator:Hinsvar
Version:Normal
Source:
Tags:Nor For You Electronic Dance Music EDM kawaii future bass lo-fi lofi Instrumental IT's U EP its you Featured Artist FA Mappers' Guild MG MPG
BeatmapID:4226664
BeatmapSetID:2025686

[Difficulty]
HPDrainRate:3
CircleSize:2.7
OverallDifficulty:4
ApproachRate:5.4
SliderMultiplier:1.2
SliderTickRate:1

[Events]
//Background and Video events
0,0,"BG.jpg",0,0
//Break Periods
2,102008,112906
//Storyboard Layer 0 (Background)
//Storyboard Layer 1 (Fail)
//Storyboard Layer 2 (Pass)
//Storyboard Layer 3 (Foreground)
//Storyboard Layer 4 (Overlay)
//Storyboard Sound Samples

[TimingPoints]
756,394.736842105263,4,2,1,40,1,0
13387,-111.111111111111,4,2,1,40,0,0
26019,-105.263157894737,4,2,1,50,0,0
38650,-100,4,2,1,60,0,0
49505,-111.111111111111,4,2,1,50,0,0
50690,-100,4,2,1,60,0,0
51282,-95.2380952380952,4,2,1,70,0,1
51380,-95.2380952380952,4,2,1,70,0,0
52663,-95.2380952380952,4,2,1,70,0,1
52762,-95.2380952380952,4,2,1,70,0,0
54440,-95.2380952380952,4,2,1,70,0,1
54538,-95.2380952380952,4,2,1,70,0,0
55821,-95.2380952380952,4,2,1,70,0,1
55920,-95.2380952380952,4,2,1,70,0,0
57598,-95.2380952380952,4,2,1,70,0,1
57696,-95.2380952380952,4,2,1,70,0,0
58979,-95.2380952380952,4,2,1,70,0,1
59078,-95.2380952380952,4,2,1,70,0,0
60755,-95.2380952380952,4,2,1,70,0,1
60854,-95.2380952380952,4,2,1,70,0,0
62137,-95.2380952380952,4,2,1,70,0,1
62236,-95.2380952380952,4,2,1,70,0,0
63913,-95.2380952380952,4,2,1,70,0,1
64012,-95.2380952380952,4,2,1,70,0,0
65295,-95.2380952380952,4,2,1,70,0,1
65394,-95.2380952380952,4,2,1,70,0,0
67071,-95.2380952380952,4,2,1,70,0,1
67170,-95.2380952380952,4,2,1,70,0,0
68453,-95.2380952380952,4,2,1,70,0,1
68552,-95.2380952380952,4,2,1,70,0,0
70229,-95.2380952380952,4,2,1,70,0,1
70328,-95.2380952380952,4,2,1,70,0,0
71611,-95.2380952380952,4,2,1,70,0,1
71709,-95.2380952380952,4,2,1,70,0,0
73387,-95.2380952380952,4,2,1,70,0,1
73486,-95.2380952380952,4,2,1,70,0,0
74769,-95.2380952380952,4,2,1,70,0,1
74867,-95.2380952380952,4,2,1,70,0,0
76545,-90.9090909090909,4,2,1,80,0,1
82466,-90.9090909090909,4,2,1,80,0,0
82861,-90.9090909090909,4,2,1,80,0,1
88782,-90.9090909090909,4,2,1,80,0,0
89177,-90.9090909090909,4,2,1,80,0,1
95098,-90.9090909090909,4,2,1,80,0,0
95492,-90.9090909090909,4,2,1,80,0,1
100032,-111.111111111111,4,2,1,70,0,0
101808,-111.111111111111,4,2,1,50,0,0
114440,-100,4,2,1,60,0,0
127071,-105.263157894737,4,2,1,50,0,0
139703,-95.2380952380952,4,2,1,70,0,1
139802,-95.2380952380952,4,2,1,70,0,0
141084,-95.2380952380952,4,2,1,70,0,1
141183,-95.2380952380952,4,2,1,70,0,0
142861,-95.2380952380952,4,2,1,70,0,1
142959,-95.2380952380952,4,2,1,70,0,0
144242,-95.2380952380952,4,2,1,70,0,1
144341,-95.2380952380952,4,2,1,70,0,0
146019,-95.2380952380952,4,2,1,70,0,1
146117,-95.2380952380952,4,2,1,70,0,0
147400,-95.2380952380952,4,2,1,70,0,1
147499,-95.2380952380952,4,2,1,70,0,0
149177,-95.2380952380952,4,2,1,70,0,1
149275,-95.2380952380952,4,2,1,70,0,0
150558,-95.2380952380952,4,2,1,70,0,1
150657,-95.2380952380952,4,2,1,70,0,0
152334,-95.2380952380952,4,2,1,70,0,1
152433,-95.2380952380952,4,2,1,70,0,0
153716,-95.2380952380952,4,2,1,70,0,1
153815,-95.2380952380952,4,2,1,70,0,0
155492,-95.2380952380952,4,2,1,70,0,1
156479,-95.2380952380952,4,2,1,70,0,0
156874,-95.2380952380952,4,2,1,70,0,1
156973,-95.2380952380952,4,2,1,70,0,0
158650,-95.2380952380952,4,2,1,70,0,1
158749,-95.2380952380952,4,2,1,70,0,0
160032,-95.2380952380952,4,2,1,70,0,1
160130,-95.2380952380952,4,2,1,70,0,0
161808,-95.2380952380952,4,2,1,70,0,1
161907,-95.2380952380952,4,2,1,70,0,0
164966,-90.9090909090909,4,2,1,80,0,1
170887,-90.9090909090909,4,2,1,80,0,0
171282,-90.9090909090909,4,2,1,80,0,1
177203,-90.9090909090909,4,2,1,80,0,0
177598,-90.9090909090909,4,2,1,80,0,1
183519,-90.9090909090909,4,2,1,80,0,0
183913,-90.9090909090909,4,2,1,80,0,1
188453,-111.111111111111,4,2,1,70,0,0
190229,-111.111111111111,4,2,1,50,0,0

[Colours]
Combo1 : 145,201,217
Combo2 : 232,183,207
Combo3 : 160,239,211
Combo4 : 244,134,214

[HitObjects]
40,84,13387,5,2,0:3:0:0:
148,34,13782,1,2,0:3:0:0:
137,152,14177,2,0,P|146:237|213:300,1,161.999995056152,2|0,0:3|0:0,0:0:0:0:
316,291,15163,1,0,0:0:0:0:
316,291,15361,2,0,P|351:251|355:198,2,107.999996704102,2|2|2,0:3|0:3|0:3,0:0:0:0:
256,188,16545,5,2,0:3:0:0:
297,79,16940,1,2,0:3:0:0:
297,79,17137,1,0,0:0:0:0:
413,84,17532,1,0,0:0:0:0:
443,196,17927,1,0,0:0:0:0:
347,260,18322,1,0,0:0:0:0:
347,260,18519,1,2,0:3:0:0:
254,188,18913,2,0,P|242:210|232:253,2,53.9999983520508,2|0|2,0:3|0:0|0:3,0:0:0:0:
297,79,19703,5,2,0:3:0:0:
188,38,20098,1,2,0:3:0:0:
147,147,20492,2,0,P|53:163|21:226,1,161.999995056153,2|0,0:3|0:0,0:0:0:0:
99,313,21479,1,0,0:0:0:0:
99,313,21677,2,0,P|161:302|182:260,1,107.999996704102,2|2,0:3|0:3,0:0:0:0:
147,147,22466,1,2,0:3:0:0:
223,56,22861,6,0,L|341:70,1,107.999996704102,2|2,0:3|0:3,0:0:0:0:
437,132,23650,1,2,0:3:0:0:
437,132,23848,2,0,L|496:139,2,53.9999983520508,0|2|0,0:0|0:3|0:0,0:0:0:0:
338,196,24637,1,0,0:0:0:0:
338,196,24834,1,0,0:0:0:0:
318,313,25229,2,0,L|311:372,2,53.9999983520508,2|0|2,1:2|1:0|0:0,0:0:0:0:
204,323,26019,6,0,P|114:331|44:277,1,170.999995433807,6|0,3:2|0:0,0:0:0:0:
29,234,26808,2,0,P|67:152|148:118,1,170.999995433807,8|0,0:0|3:0,0:0:0:0:
193,126,27598,2,0,P|244:199|233:287,1,170.999995433807,2|0,0:0|0:0,0:0:0:0:
204,323,28387,1,10,0:0:0:0:
307,371,28782,1,0,3:0:0:0:
416,338,29177,6,0,L|505:169,1,170.999995433807,2|0,3:2|0:0,0:0:0:0:
497,129,29966,2,0,L|306:136,1,170.999995433807,8|0,0:0|3:0,0:0:0:0:
276,164,30755,2,0,L|377:325,1,170.999995433807,2|0,0:0|0:0,0:0:0:0:
416,338,31545,1,8,0:0:0:0:
495,255,31940,2,0,P|504:221|500:184,1,56.9999984779358,2|2,0:0|0:0,0:0:0:0:
482,146,32334,6,0,P|407:89|380:16,1,170.999995433807,0|0,3:0|0:0,0:0:0:0:
323,23,33124,2,0,P|325:117|286:184,1,170.999995433807,8|0,0:0|3:0,0:0:0:0:
318,229,33913,2,0,P|404:192|481:205,1,170.999995433807,2|0,0:0|0:0,0:0:0:0:
482,146,34703,1,8,0:0:0:0:
437,40,35098,1,0,3:0:0:0:
323,23,35492,5,0,3:0:0:0:
323,23,35690,2,0,P|268:24|206:53,1,113.999996955872,2|0,0:0|0:0,0:0:0:0:
200,102,36282,2,0,L|210:163,1,56.9999984779358,8|2,0:0|0:3,0:0:0:0:
119,228,36874,1,2,3:2:0:0:
9,194,37269,1,2,0:3:0:0:
99,124,37664,2,0,L|89:67,2,56.9999984779358,2|8|0,0:3|0:0|3:0,0:0:0:0:
155,118,38255,1,2,0:0:0:0:
264,166,38650,6,0,P|260:280|224:358,1,180,6|0,3:2|0:0,0:0:0:0:
286,373,39440,2,0,P|387:319|472:310,1,180,8|0,0:0|3:0,0:0:0:0:
455,251,40229,2,0,P|357:190|307:120,1,180,2|2,0:3|0:3,0:0:0:0:
264,166,41019,1,8,0:0:0:0:
147,139,41413,2,0,P|123:114|121:81,1,60,2|2,3:0|0:3,0:0:0:0:
136,32,41808,6,0,L|317:25,1,180,2|0,0:3|0:0,0:0:0:0:
376,25,42598,2,0,L|291:185,1,180,8|0,0:0|3:0,0:0:0:0:
262,236,43387,2,0,L|165:82,1,180,2|2,0:3|0:3,0:0:0:0:
136,32,44177,2,0,P|113:21|77:21,1,60,8|2,0:0|0:3,0:0:0:0:
31,57,44571,1,0,1:0:0:0:
52,175,44966,6,0,P|64:238|59:308,1,120,2|2,0:3|0:3,0:0:0:0:
107,341,45558,1,0,0:3:0:0:
107,341,45755,2,0,P|170:329|240:334,1,120,8|2,0:0|0:3,0:0:0:0:
269,290,46347,1,0,3:0:0:0:
269,290,46545,1,2,0:3:0:0:
366,360,46940,1,2,0:3:0:0:
445,270,47334,2,0,L|393:238,1,60,8|2,0:0|0:3,0:0:0:0:
348,200,47729,1,0,3:0:0:0:
290,101,48124,5,0,3:0:0:0:
290,101,48321,2,0,P|350:87|409:106,1,120,0|2,0:0|0:0,0:0:0:0:
462,135,48913,1,8,0:0:0:0:
462,135,49111,1,2,0:0:0:0:
486,250,49505,1,2,3:2:0:0:
486,250,50492,6,0,L|496:328,2,53.9999983520508,2|2|0,0:0|0:0|1:0,0:0:0:0:
428,233,51084,5,2,3:2:0:0:
428,233,51282,2,0,B|368:231|319:278|322:303|275:342|197:328,1,251.999992309571,6|0,3:2|1:0,0:0:0:0:
144,310,52269,1,2,0:0:0:0:
48,225,52663,2,0,P|37:166|60:106,1,125.999996154785,6|2,3:2|0:0,0:0:0:0:
98,55,53255,1,0,3:0:0:0:
223,41,53650,2,0,P|228:71|216:100,1,62.9999980773926,0|2,1:0|0:0,0:0:0:0:
179,152,54045,1,4,3:2:0:0:
303,170,54440,6,0,P|364:156|438:158,1,125.999996154785,6|0,3:2|0:0,0:0:0:0:
490,157,55032,2,0,P|504:218|502:292,1,125.999996154785,2|2,0:0|0:0,0:0:0:0:
401,355,55821,2,0,P|347:337|318:263,1,125.999996154785,6|2,3:2|0:0,0:0:0:0:
307,220,56413,1,2,0:0:0:0:
307,220,56611,1,0,0:0:0:0:
339,98,57005,2,0,P|351:75|383:35,2,62.9999980773926,2|0|2,0:0|3:0|0:0,0:0:0:0:
275,105,57598,6,0,B|222:124|153:72|164:66|98:14|34:30,1,251.999992309571,6|0,3:2|1:0,0:0:0:0:
16,85,58584,1,2,0:0:0:0:
27,210,58979,2,0,P|84:226|155:226,1,125.999996154785,6|2,3:2|0:0,0:0:0:0:
211,209,59571,1,0,3:0:0:0:
327,161,59966,2,0,P|335:130|335:99,1,62.9999980773926,0|2,1:0|0:0,0:0:0:0:
318,38,60361,1,4,3:2:0:0:
443,34,60755,6,0,P|496:64|495:140,1,125.999996154785,6|0,3:2|0:0,0:0:0:0:
495,187,61348,2,0,P|465:240|389:239,1,125.999996154785,2|2,0:0|0:0,0:0:0:0:
342,239,61940,1,8,0:3:0:0:
342,239,62137,2,0,B|300:237|285:259|288:263|269:286|220:284,1,125.999996154785,6|2,3:2|0:0,0:0:0:0:
114,337,62927,2,0,P|103:306|106:270,1,62.9999980773926,2|0,0:0|1:0,0:0:0:0:
111,212,63321,2,0,P|83:196|53:191,2,62.9999980773926,2|0|2,0:0|1:0|0:0,0:0:0:0:
163,177,63913,6,0,P|277:180|419:196,1,251.999992309571,2|0,3:2|1:0,0:0:0:0:
476,205,64900,1,2,0:0:0:0:
488,78,65295,2,0,P|440:39|357:42,1,125.999996154785,6|2,3:2|0:0,0:0:0:0:
339,85,65887,1,0,3:0:0:0:
231,19,66282,2,0,P|200:22|172:52,1,62.9999980773926,0|2,1:0|0:0,0:0:0:0:
138,93,66677,1,4,3:2:0:0:
32,161,67071,6,0,P|26:222|40:291,1,125.999996154785,6|0,3:2|0:0,0:0:0:0:
83,329,67663,2,0,P|144:335|213:321,1,125.999996154785,2|2,0:0|0:0,0:0:0:0:
249,203,68453,2,0,L|264:68,1,125.999996154785,6|2,3:2|0:0,0:0:0:0:
274,19,69045,1,2,0:0:0:0:
274,19,69242,1,0,0:0:0:0:
387,73,69637,2,0,L|393:10,2,62.9999980773926,2|0|2,0:0|3:0|0:0,0:0:0:0:
381,135,70229,6,0,P|454:154|504:315,1,251.999992309571,6|0,3:2|1:0,0:0:0:0:
473,360,71216,1,2,0:0:0:0:
347,364,71611,2,0,P|292:337|283:277,1,125.999996154785,6|2,3:2|0:0,0:0:0:0:
318,225,72203,1,0,3:0:0:0:
308,99,72598,2,0,L|299:21,1,62.9999980773926,0|2,1:0|0:0,0:0:0:0:
238,27,72992,1,6,3:2:0:0:
111,25,73387,6,0,P|47:67|26:117,1,125.999996154785,6|0,3:2|0:0,0:0:0:0:
23,173,73979,2,0,P|65:237|115:258,1,125.999996154785,2|2,0:0|0:0,0:0:0:0:
172,242,74571,1,8,0:3:0:0:
172,242,74769,2,0,B|189:270|182:303|176:300|173:331|193:365,1,125.999996154785,6|8,3:2|0:3,0:0:0:0:
319,363,75558,2,0,B|329:347|327:331|324:333|321:316|329:302,2,62.9999980773926,8|8|0,0:3|0:3|1:0,0:0:0:0:
381,376,76150,1,2,0:0:0:0:
498,315,76545,6,0,P|485:258|422:219,1,132.00000402832,6|0,3:2|3:0,0:0:0:0:
408,88,77334,2,0,P|450:78|480:30,2,99.0000030212403,0|0|2,1:0|3:0|3:2,0:0:0:0:
301,164,78321,1,2,0:3:0:0:
301,164,78519,1,0,3:0:0:0:
194,240,78913,2,0,P|151:249|122:297,2,99.0000030212403,0|0|0,1:0|3:0|3:0,0:0:0:0:
189,173,79703,6,0,P|180:106|181:40,1,132.00000402832,6|0,3:2|3:0,0:0:0:0:
312,35,80492,2,0,P|362:28|411:29,2,99.0000030212403,0|0|2,1:0|3:0|3:2,0:0:0:0:
371,159,81479,1,2,0:3:0:0:
371,159,81677,1,0,3:0:0:0:
430,283,82071,2,0,P|379:289|330:289,2,99.0000030212403,0|0|0,1:0|3:0|3:0,0:0:0:0:
493,302,82861,6,0,P|510:250|490:178,1,132.00000402832,6|0,3:2|3:0,0:0:0:0:
359,198,83650,2,0,P|343:151|356:104,2,99.0000030212403,0|0|2,1:0|3:0|3:2,0:0:0:0:
260,285,84637,1,2,0:3:0:0:
260,285,84834,1,0,3:0:0:0:
153,198,85229,2,0,P|168:151|155:104,2,99.0000030212403,0|0|0,1:0|3:0|3:0,0:0:0:0:
87,206,86019,6,0,P|21:230|12:287,1,132.00000402832,6|0,3:2|3:0,0:0:0:0:
118,361,86808,2,0,P|167:343|174:300,2,99.0000030212403,0|0|2,1:0|3:0|3:2,0:0:0:0:
11,284,87795,5,2,0:3:0:0:
11,284,87992,2,0,L|15:216,1,66.0000020141602,0|2,1:0|0:0,0:0:0:0:
21,152,88387,1,0,1:0:0:0:
149,120,88782,2,0,L|145:188,1,66.0000020141602,2|0,1:2|3:0,0:0:0:0:
139,252,89177,6,0,P|206:254|258:210,1,132.00000402832,6|0,3:2|3:0,0:0:0:0:
293,89,89966,2,0,P|331:59|379:61,2,99.0000030212403,0|0|2,1:0|3:0|3:2,0:0:0:0:
380,195,90953,1,2,0:3:0:0:
380,195,91150,1,0,3:0:0:0:
442,311,91545,2,0,P|486:329|509:372,2,99.0000030212403,0|0|0,1:0|3:0|3:0,0:0:0:0:
383,342,92334,6,0,L|241:325,1,132.00000402832,6|0,3:2|3:0,0:0:0:0:
205,202,93124,2,0,L|217:95,2,99.0000030212403,0|0|2,1:0|3:0|3:2,0:0:0:0:
128,310,94111,1,2,0:3:0:0:
128,310,94308,1,0,3:0:0:0:
82,185,94703,2,0,L|94:78,2,99.0000030212403,0|0|0,1:0|3:0|3:0,0:0:0:0:
145,202,95492,6,0,P|202:201|264:147,1,132.00000402832,6|0,3:2|3:0,0:0:0:0:
384,114,96282,2,0,P|375:66|397:22,2,99.0000030212403,0|0|2,1:0|3:0|3:2,0:0:0:0:
259,156,97269,1,2,0:3:0:0:
259,156,97466,1,0,3:0:0:0:
357,242,97861,2,0,P|402:258|429:298,2,99.0000030212403,0|0|0,1:0|3:0|3:0,0:0:0:0:
303,279,98650,6,0,L|194:358,1,132.00000402832,6|0,3:2|3:0,0:0:0:0:
64,344,99440,2,0,L|53:243,1,99.0000030212403,0|0,1:0|3:0,0:0:0:0:
44,148,100032,6,0,B|98:76|274:128|237:251|405:279|480:190,1,485.999985168458,6|6,3:2|0:0,0:0:0:0:
256,192,114045,5,2,0:0:0:0:
205,82,114440,6,0,P|111:85|43:160,1,180,6|2,3:2|0:0,0:0:0:0:
39,199,115229,2,0,P|88:278|187:300,1,180,0|2,3:0|0:0,0:0:0:0:
224,285,116019,2,0,P|268:202|237:105,1,180,0|2,3:0|0:0,0:0:0:0:
205,82,116808,1,0,3:0:0:0:
310,24,117203,2,0,L|380:20,1,60,2|2,0:3|0:0,0:0:0:0:
406,68,117598,6,0,L|512:217,1,180,0|2,3:0|0:0,0:0:0:0:
498,272,118387,2,0,L|315:289,1,180,0|2,3:0|0:0,0:0:0:0:
275,249,119177,2,0,L|350:82,1,180,0|2,3:0|0:0,0:0:0:0:
406,68,119966,2,0,P|407:40|401:9,2,60,0|2|2,3:0|0:0|0:3,0:0:0:0:
300,10,120755,6,0,P|205:46|128:34,1,180,0|2,3:0|0:0,0:0:0:0:
85,76,121545,2,0,P|163:140|191:212,1,180,0|2,3:0|0:0,0:0:0:0:
250,230,122334,2,0,P|266:129|315:69,1,180,0|2,3:0|0:0,0:0:0:0:
300,10,123124,1,0,3:0:0:0:
415,44,123519,2,0,L|478:65,1,60,2|2,0:3|0:0,0:0:0:0:
498,122,123913,5,0,3:0:0:0:
498,122,124111,1,0,0:0:0:0:
383,156,124505,2,0,L|269:193,1,120,2|0,0:0|0:0,0:0:0:0:
242,254,125098,1,0,0:3:0:0:
242,254,125295,2,0,L|279:367,1,120,0|2,3:0|0:0,0:0:0:0:
397,332,126084,1,0,3:0:0:0:
397,332,126282,2,0,L|415:275,2,60,2|0|2,0:3|3:0|0:3,0:0:0:0:
299,272,127071,6,0,P|223:238|131:264,1,170.999995433807,0|0,3:0|0:0,0:0:0:0:
109,209,127861,2,0,P|176:160|199:67,1,170.999995433807,2|0,0:0|0:0,0:0:0:0:
258,76,128650,2,0,P|266:158|335:225,1,170.999995433807,2|0,0:0|0:0,0:0:0:0:
299,272,129440,1,2,0:0:0:0:
225,358,129834,1,8,0:0:0:0:
139,284,130229,6,0,L|6:167,1,170.999995433807,2|0,0:0|0:0,0:0:0:0:
10,113,131019,2,0,L|177:56,1,170.999995433807,2|0,0:0|0:0,0:0:0:0:
222,86,131808,2,0,L|187:259,1,170.999995433807,2|0,0:0|0:0,0:0:0:0:
139,284,132598,1,2,0:0:0:0:
223,359,132992,2,0,P|258:362|291:348,1,56.9999984779358,8|2,0:0|0:0,0:0:0:0:
310,307,133387,6,0,P|389:301|474:347,1,170.999995433807,8|0,0:0|0:0,0:0:0:0:
502,295,134177,2,0,P|457:229|454:132,1,170.999995433807,2|0,0:0|0:0,0:0:0:0:
399,135,134966,2,0,P|364:206|282:257,1,170.999995433807,2|0,0:0|0:0,0:0:0:0:
310,307,135755,1,8,0:0:0:0:
214,369,136150,1,8,0:0:0:0:
102,345,136545,6,0,P|30:268|74:107,1,284.999992389679,6|0,3:2|0:0,0:0:0:0:
171,48,137927,2,0,P|242:124|198:285,1,284.999992389679,2|2,3:2|0:0,0:0:0:0:
292,350,139308,2,0,L|364:340,1,56.9999984779358,2|0,1:2|3:0,0:0:0:0:
411,336,139703,6,0,P|428:257|464:141,1,188.999994232178,6|2,3:2|0:0,0:0:0:0:
483,95,140492,1,0,1:2:0:0:
381,31,140887,1,2,0:3:0:0:
381,31,141084,2,0,P|320:49|259:63,1,125.999996154785,6|2,3:2|0:0,0:0:0:0:
197,72,141676,1,0,3:0:0:0:
205,197,142071,2,0,P|251:239|294:285,1,125.999996154785,2|6,1:2|3:2,0:0:0:0:
191,359,142861,6,0,P|71:348|22:225,1,251.999992309571,6|0,3:2|1:0,0:0:0:0:
32,177,143848,1,2,0:0:0:0:
139,112,144242,2,0,P|198:117|224:171,1,125.999996154785,6|2,3:2|0:0,0:0:0:0:
213,234,144834,1,2,0:3:0:0:
321,307,145229,1,0,1:0:0:0:
321,307,145427,2,0,L|317:372,2,62.9999980773926,0|2|2,3:0|0:0|0:0,0:0:0:0:
320,243,146019,6,0,P|427:239|480:160,1,188.999994232178,6|2,3:2|0:0,0:0:0:0:
482,117,146808,1,0,1:0:0:0:
407,22,147203,1,2,0:3:0:0:
407,22,147400,2,0,P|345:19|303:63,1,125.999996154785,6|2,3:2|0:0,0:0:0:0:
296,126,147992,1,0,3:0:0:0:
167,74,148387,2,0,P|168:43|146:22,2,62.9999980773926,0|2|4,1:0|0:0|3:2,0:0:0:0:
42,96,149177,6,0,P|74:210|204:190,1,251.999992309571,6|0,3:2|1:0,0:0:0:0:
240,169,150163,1,2,0:0:0:0:
328,78,150558,2,0,P|312:21|254:23,1,125.999996154785,6|2,3:2|0:0,0:0:0:0:
203,59,151150,1,8,0:0:0:0:
83,18,151545,2,0,L|73:84,1,62.9999980773926,0|0,1:0|3:0,0:0:0:0:
64,142,151940,1,2,1:2:0:0:
26,262,152334,6,0,B|79:278|122:249|117:242|155:205|217:231,1,188.999994232178,6|2,3:2|0:0,0:0:0:0:
264,247,153124,1,0,1:0:0:0:
280,125,153519,1,2,0:3:0:0:
280,125,153716,2,0,B|315:114|343:133|340:138|365:162|399:148,1,125.999996154785,6|2,3:2|0:0,0:0:0:0:
458,128,154309,1,0,3:0:0:0:
489,249,154703,2,0,B|499:284|480:312|475:309|451:334|465:368,1,125.999996154785,2|6,1:2|3:2,0:0:0:0:
339,380,155492,6,0,P|315:303|270:259,1,125.999996154785,6|0,3:2|0:0,0:0:0:0:
303,209,156084,2,0,P|224:191|163:208,1,125.999996154785,6|2,3:2|0:0,0:0:0:0:
136,154,156677,1,8,0:3:0:0:
136,154,156874,2,0,P|61:234|40:317,1,188.999994232178,6|2,3:2|0:3,0:0:0:0:
141,383,157861,1,2,1:2:0:0:
266,378,158255,1,2,0:0:0:0:
206,266,158650,6,0,P|210:179|229:68,1,188.999994232178,6|2,3:2|0:0,0:0:0:0:
244,21,159440,1,0,1:0:0:0:
244,21,159637,1,2,0:0:0:0:
369,36,160032,2,0,P|365:98|355:160,1,125.999996154785,6|2,3:2|0:0,0:0:0:0:
338,218,160624,1,0,3:2:0:0:
338,218,160821,1,0,0:0:0:0:
405,324,161216,2,0,P|438:313|479:315,2,62.9999980773926,2|4|0,0:0|3:2|0:0,0:0:0:0:
353,360,161808,6,0,P|227:361|108:321,1,251.999992309571,6|0,3:2|1:0,0:0:0:0:
52,291,162795,1,2,0:0:0:0:
0,176,163190,1,4,3:2:0:0:
92,93,163584,2,0,L|108:33,2,62.9999980773926,8|0|8,0:3|1:0|0:3,0:0:0:0:
150,212,164374,1,0,1:0:0:0:
150,212,164571,1,2,0:0:0:0:
229,106,164966,6,0,P|300:102|350:150,1,132.00000402832,6|0,3:2|3:0,0:0:0:0:
471,103,165755,2,0,P|468:49|504:12,2,99.0000030212403,0|0|2,1:0|3:0|3:2,0:0:0:0:
507,230,166742,1,2,0:3:0:0:
507,230,166940,1,0,3:0:0:0:
380,266,167334,2,0,P|383:319|347:356,2,99.0000030212403,0|0|0,1:0|3:0|3:0,0:0:0:0:
337,215,168124,6,0,P|302:161|274:91,1,132.00000402832,6|0,3:2|3:0,0:0:0:0:
145,79,168913,2,0,P|115:118|92:162,2,99.0000030212403,0|0|2,1:0|3:0|3:2,0:0:0:0:
207,201,169900,1,2,0:3:0:0:
207,201,170098,1,0,3:0:0:0:
102,281,170492,2,0,P|121:327|148:368,2,99.0000030212403,0|0|0,1:0|3:0|3:0,0:0:0:0:
90,215,171282,6,0,L|76:74,1,132.00000402832,6|0,3:2|3:0,0:0:0:0:
196,27,172071,2,0,L|293:71,2,99.0000030212403,0|0|2,1:0|3:0|3:2,0:0:0:0:
209,164,173058,1,2,0:3:0:0:
209,164,173255,1,0,3:0:0:0:
325,226,173650,2,0,L|239:288,2,99.0000030212403,0|0|0,1:0|3:0|3:0,0:0:0:0:
391,230,174440,6,0,P|414:164|382:109,1,132.00000402832,6|0,3:2|3:0,0:0:0:0:
266,57,175229,2,0,P|249:107|273:147,2,99.0000030212403,0|0|2,1:0|3:0|3:2,0:0:0:0:
396,22,176216,1,2,0:3:0:0:
396,22,176413,2,0,P|425:8|455:20,2,66.0000020141602,0|2|0,1:0|0:0|1:0,0:0:0:0:
396,154,177203,2,0,P|426:166|455:152,1,66.0000020141602,2|0,1:2|3:0,0:0:0:0:
507,112,177598,6,0,L|503:263,1,132.00000402832,6|0,3:2|3:0,0:0:0:0:
408,335,178387,2,0,L|309:332,2,99.0000030212403,0|0|2,1:0|3:0|3:2,0:0:0:0:
362,217,179374,1,2,0:3:0:0:
362,217,179571,1,2,3:2:0:0:
229,213,179966,2,0,L|130:210,2,99.0000030212403,0|0|0,1:0|3:0|3:0,0:0:0:0:
258,153,180755,6,0,P|264:68|215:34,1,132.00000402832,6|0,3:2|3:0,0:0:0:0:
102,27,181545,2,0,P|45:55|41:100,2,99.0000030212403,0|0|2,1:0|3:0|3:2,0:0:0:0:
133,160,182532,1,2,0:3:0:0:
133,160,182729,1,0,3:0:0:0:
164,293,183124,2,0,P|221:265|225:220,2,99.0000030212403,0|0|0,1:0|3:0|3:0,0:0:0:0:
146,355,183913,6,0,P|73:338|11:295,1,132.00000402832,6|0,3:2|3:0,0:0:0:0:
24,175,184703,2,0,P|37:120|69:74,2,99.0000030212403,0|0|2,1:0|3:0|3:2,0:0:0:0:
160,175,185690,1,2,0:3:0:0:
160,175,185887,1,0,3:0:0:0:
296,175,186282,2,0,P|283:230|251:276,2,99.0000030212403,0|0|0,1:0|3:0|3:0,0:0:0:0:
305,109,187071,6,0,P|366:86|437:105,1,132.00000402832,4|0,3:2|3:0,0:0:0:0:
487,219,187861,2,0,P|504:265|490:318,1,99.0000030212403,0|0,1:0|3:0,0:0:0:0:
405,353,188453,6,0,B|317:360|206:241|276:165|175:48|65:48,1,485.999985168458,4|6,3:2|0:0,0:0:0:0:
