osu file format v14

[General]
AudioFilename: audio.mp3
AudioLeadIn: 0
PreviewTime: 50394
Countdown: 0
SampleSet: Soft
StackLeniency: 0.7
Mode: 0
LetterboxInBreaks: 0
WidescreenStoryboard: 0

[Editor]
Bookmarks: 13387,26019,38650,51282,63913,76545,89177,101808,114440,127071,139703,152334,164966,177598,190229
DistanceSpacing: 1.4
BeatDivisor: 8
GridSize: 32
TimelineZoom: 3.499999

[Metadata]
Title:For U
TitleUnicode:For U
Artist:Aice room
ArtistUnicode:Aice room
Creator:Hinsvar
Version:Loving U
Source:
Tags:Nor For You Electronic Dance Music EDM kawaii future bass lo-fi lofi Instrumental IT's U EP its you Featured Artist FA Mappers' Guild MG MPG
BeatmapID:4220385
BeatmapSetID:2025686

[Difficulty]
HPDrainRate:6
CircleSize:2.8
OverallDifficulty:8.2
ApproachRate:9.2
SliderMultiplier:1.92
SliderTickRate:1

[Events]
//Background and Video events
0,0,"BG.jpg",0,0
//Break Periods
2,102008,113475
//Storyboard Layer 0 (Background)
//Storyboard Layer 1 (Fail)
//Storyboard Layer 2 (Pass)
//Storyboard Layer 3 (Foreground)
//Storyboard Layer 4 (Overlay)
//Storyboard Sound Samples

[TimingPoints]
756,394.736842105263,4,2,1,40,1,0
13387,-250,4,2,1,40,0,0
26019,-166.666666666667,4,2,1,50,0,0
38650,-125,4,2,1,60,0,0
49505,-1000,4,2,1,50,0,0
50690,-125,4,2,1,60,0,0
51282,-62.5,4,2,1,70,0,1
51380,-62.5,4,2,1,70,0,0
52269,-100,4,2,1,70,0,0
52663,-62.5,4,2,1,70,0,1
52762,-62.5,4,2,1,70,0,0
53058,-100,4,2,1,70,0,0
54440,-62.5,4,2,1,70,0,1
54538,-62.5,4,2,1,70,0,0
55427,-100,4,2,1,70,0,0
55821,-62.5,4,2,1,70,0,1
55920,-62.5,4,2,1,70,0,0
56216,-100,4,2,1,70,0,0
57598,-62.5,4,2,1,70,0,1
57696,-62.5,4,2,1,70,0,0
58584,-100,4,2,1,70,0,0
58979,-62.5,4,2,1,70,0,1
59078,-62.5,4,2,1,70,0,0
59374,-100,4,2,1,70,0,0
60755,-62.5,4,2,1,70,0,1
60854,-62.5,4,2,1,70,0,0
61742,-100,4,2,1,70,0,0
62137,-62.5,4,2,1,70,0,1
62236,-62.5,4,2,1,70,0,0
62532,-100,4,2,1,70,0,0
63913,-62.5,4,2,1,70,0,1
64012,-62.5,4,2,1,70,0,0
64703,-100,4,2,1,70,0,0
65295,-62.5,4,2,1,70,0,1
65394,-62.5,4,2,1,70,0,0
65690,-100,4,2,1,70,0,0
67071,-62.5,4,2,1,70,0,1
67170,-62.5,4,2,1,70,0,0
68058,-100,4,2,1,70,0,0
68453,-62.5,4,2,1,70,0,1
68552,-62.5,4,2,1,70,0,0
68848,-100,4,2,1,70,0,0
70229,-62.5,4,2,1,70,0,1
70328,-62.5,4,2,1,70,0,0
71216,-100,4,2,1,70,0,0
71611,-62.5,4,2,1,70,0,1
71709,-62.5,4,2,1,70,0,0
72005,-100,4,2,1,70,0,0
73387,-62.5,4,2,1,70,0,1
73486,-62.5,4,2,1,70,0,0
74374,-100,4,2,1,70,0,0
74769,-62.5,4,2,1,70,0,1
74867,-62.5,4,2,1,70,0,0
75163,-100,4,2,1,70,0,0
76150,-250,4,2,1,70,0,0
76545,-41.6666666666667,4,2,1,80,0,1
77334,-62.5,4,2,1,80,0,1
78321,-125,4,2,1,80,0,1
78913,-62.5,4,2,1,80,0,1
79703,-41.6666666666667,4,2,1,80,0,1
80492,-62.5,4,2,1,80,0,1
81479,-125,4,2,1,80,0,1
82071,-62.5,4,2,1,80,0,1
82466,-62.5,4,2,1,80,0,0
82861,-41.6666666666667,4,2,1,80,0,1
83650,-62.5,4,2,1,80,0,1
84637,-125,4,2,1,80,0,1
85229,-62.5,4,2,1,80,0,1
86019,-41.6666666666667,4,2,1,80,0,1
86808,-62.5,4,2,1,80,0,1
87795,-125,4,2,1,80,0,1
88387,-62.5,4,2,1,80,0,1
88782,-62.5,4,2,1,80,0,0
89177,-41.6666666666667,4,2,1,80,0,1
89966,-62.5,4,2,1,80,0,1
90953,-125,4,2,1,80,0,1
91545,-62.5,4,2,1,80,0,1
92334,-41.6666666666667,4,2,1,80,0,1
93124,-62.5,4,2,1,80,0,1
94111,-125,4,2,1,80,0,1
94703,-62.5,4,2,1,80,0,1
95098,-62.5,4,2,1,80,0,0
95492,-41.6666666666667,4,2,1,80,0,1
96282,-62.5,4,2,1,80,0,1
97269,-125,4,2,1,80,0,1
97861,-62.5,4,2,1,80,0,1
98650,-41.6666666666667,4,2,1,80,0,1
99440,-62.5,4,2,1,80,0,1
100032,-250,4,2,1,70,0,0
101808,-250,4,2,1,50,0,0
114440,-125,4,2,1,60,0,0
127071,-166.666666666667,4,2,1,50,0,0
139703,-62.5,4,2,1,70,0,1
139802,-62.5,4,2,1,70,0,0
140690,-100,4,2,1,70,0,0
141084,-62.5,4,2,1,70,0,1
141183,-62.5,4,2,1,70,0,0
141479,-100,4,2,1,70,0,0
142861,-62.5,4,2,1,70,0,1
142959,-62.5,4,2,1,70,0,0
143848,-100,4,2,1,70,0,0
144242,-62.5,4,2,1,70,0,1
144341,-62.5,4,2,1,70,0,0
144637,-100,4,2,1,70,0,0
146019,-62.5,4,2,1,70,0,1
146117,-62.5,4,2,1,70,0,0
147005,-100,4,2,1,70,0,0
147400,-62.5,4,2,1,70,0,1
147499,-62.5,4,2,1,70,0,0
147795,-100,4,2,1,70,0,0
149177,-62.5,4,2,1,70,0,1
149275,-62.5,4,2,1,70,0,0
150163,-100,4,2,1,70,0,0
150558,-62.5,4,2,1,70,0,1
150657,-62.5,4,2,1,70,0,0
150953,-100,4,2,1,70,0,0
152334,-62.5,4,2,1,70,0,1
152433,-62.5,4,2,1,70,0,0
153321,-100,4,2,1,70,0,0
153716,-62.5,4,2,1,70,0,1
153815,-62.5,4,2,1,70,0,0
154111,-100,4,2,1,70,0,0
155492,-62.5,4,2,1,70,0,1
156479,-100,4,2,1,70,0,0
156874,-62.5,4,2,1,70,0,1
156973,-62.5,4,2,1,70,0,0
157269,-100,4,2,1,70,0,0
157861,-166.666666666667,4,2,1,70,0,0
158650,-62.5,4,2,1,70,0,1
158749,-62.5,4,2,1,70,0,0
159637,-100,4,2,1,70,0,0
160032,-62.5,4,2,1,70,0,1
160130,-62.5,4,2,1,70,0,0
160427,-100,4,2,1,70,0,0
161808,-62.5,4,2,1,70,0,1
161907,-62.5,4,2,1,70,0,0
162795,-100,4,2,1,70,0,0
164571,-250,4,2,1,70,0,0
164966,-41.6666666666667,4,2,1,80,0,1
165755,-62.5,4,2,1,80,0,1
166742,-125,4,2,1,80,0,1
167334,-62.5,4,2,1,80,0,1
168124,-41.6666666666667,4,2,1,80,0,1
168913,-62.5,4,2,1,80,0,1
169900,-125,4,2,1,80,0,1
170492,-62.5,4,2,1,80,0,1
170887,-62.5,4,2,1,80,0,0
171282,-41.6666666666667,4,2,1,80,0,1
172071,-62.5,4,2,1,80,0,1
173058,-125,4,2,1,80,0,1
173650,-62.5,4,2,1,80,0,1
174440,-41.6666666666667,4,2,1,80,0,1
175229,-62.5,4,2,1,80,0,1
176216,-125,4,2,1,80,0,1
176808,-62.5,4,2,1,80,0,1
177203,-62.5,4,2,1,80,0,0
177598,-41.6666666666667,4,2,1,80,0,1
178387,-62.5,4,2,1,80,0,1
179374,-125,4,2,1,80,0,1
179966,-62.5,4,2,1,80,0,1
180755,-41.6666666666667,4,2,1,80,0,1
181545,-62.5,4,2,1,80,0,1
182532,-125,4,2,1,80,0,1
183124,-62.5,4,2,1,80,0,1
183519,-62.5,4,2,1,80,0,0
183913,-41.6666666666667,4,2,1,80,0,1
184703,-62.5,4,2,1,80,0,1
185690,-125,4,2,1,80,0,1
186282,-62.5,4,2,1,80,0,1
187071,-41.6666666666667,4,2,1,80,0,1
187861,-62.5,4,2,1,80,0,1
188453,-250,4,2,1,70,0,0
190229,-250,4,2,1,50,0,0

[Colours]
Combo1 : 145,201,217
Combo2 : 232,183,207
Combo3 : 160,239,211
Combo4 : 244,134,214

[HitObjects]
78,271,13387,5,2,0:3:0:0:
78,271,13782,1,2,0:3:0:0:
78,271,14177,2,0,B|118:282|123:300|123:295|135:319|178:326,1,115.2,2|0,0:3|0:0,0:0:0:0:
335,325,15163,1,0,0:0:0:0:
335,325,15361,2,0,B|363:320|368:306|371:307|374:295|401:288,2,76.8,2|2|2,0:3|0:3|0:3,0:0:0:0:
256,192,16545,5,2,0:3:0:0:
335,59,16940,1,2,0:3:0:0:
335,59,17137,1,0,0:0:0:0:
177,59,17532,1,0,0:0:0:0:
102,192,17927,5,0,0:0:0:0:
256,192,18321,1,0,0:0:0:0:
256,192,18519,1,2,0:3:0:0:
410,192,18913,6,0,L|417:141,1,38.4,2|0,0:3|0:0,0:0:0:0:
448,272,19308,2,0,L|488:303,1,38.4,2|0,0:3|0:0,0:0:0:0:
359,264,19703,1,2,0:3:0:0:
359,264,20098,2,0,L|311:283,1,38.4,2|0,0:3|0:0,0:0:0:0:
136,353,20492,6,0,P|180:330|195:269,1,115.2,2|0,0:3|0:0,0:0:0:0:
62,194,21479,1,0,0:0:0:0:
62,194,21677,2,0,P|32:210|22:251,1,76.8,2|2,0:3|0:3,0:0:0:0:
136,353,22466,1,2,0:3:0:0:
355,23,22861,6,0,L|353:71,1,38.4,2|0,0:3|0:0,0:0:0:0:
438,68,23255,2,0,L|440:20,1,38.4,2|0,0:3|0:0,0:0:0:0:
245,81,23650,1,2,0:3:0:0:
382,205,23848,2,0,P|380:185|371:168,1,38.4,0|2,0:0|0:3,0:0:0:0:
155,210,24242,6,0,P|157:248|175:282,1,76.8
174,281,24834,1,0,0:0:0:0:
270,217,25032,5,2,0:0:0:0:
110,142,25229,1,2,1:2:0:0:
35,300,25427,1,0,1:0:0:0:
195,374,25624,1,2,0:0:0:0:
195,374,26019,6,0,P|240:324|347:318,1,172.799994726563,6|0,3:2|0:0,0:0:0:0:
505,277,26808,2,0,P|439:263|380:173,1,172.799994726563,8|0,0:0|3:0,0:0:0:0:
266,58,27598,2,0,P|286:121|238:217,1,172.799994726563,2|0,0:0|0:0,0:0:0:0:
55,131,28387,6,0,L|66:71,1,57.5999982421876,10|0,0:0|0:0,0:0:0:0:
150,91,28782,2,0,L|139:151,1,57.5999982421876,0|0,3:0|0:0,0:0:0:0:
365,14,29177,6,0,L|331:194,1,172.799994726563,2|0,3:2|0:0,0:0:0:0:
424,377,29966,2,0,L|284:258,1,172.799994726563,8|0,0:0|3:0,0:0:0:0:
80,246,30755,2,0,L|252:184,1,172.799994726563,2|0,0:0|0:0,0:0:0:0:
386,266,31545,6,0,L|443:245,1,57.5999982421876,8|0,0:0|0:0,0:0:0:0:
298,122,31940,5,2,0:0:0:0:
318,8,32137,1,2,0:0:0:0:
129,126,32334,6,0,P|90:59|1:29,1,172.799994726563,0|0,3:0|0:0,0:0:0:0:
222,89,33124,2,0,P|299:88|370:26,1,172.799994726563,8|0,0:0|3:0,0:0:0:0:
207,188,33913,2,0,P|168:255|186:347,1,172.799994726563,2|0,0:0|0:0,0:0:0:0:
63,255,34703,6,0,L|53:186,1,57.5999982421876,8|0,0:0|0:0,0:0:0:0:
298,250,35098,2,0,L|291:307,1,57.5999982421876,0|0,3:0|0:0,0:0:0:0:
16,354,35492,5,0,3:0:0:0:
186,372,35690,2,0,P|185:316|179:255,1,115.199996484375,2|0,0:0|0:0,0:0:0:0:
160,25,36282,1,8,0:0:0:0:
50,102,36479,6,0,P|43:102|35:102,2,14.3999995605469,2|2|2,0:3|0:3|0:3,0:0:0:0:
43,116,36677,5,2,0:3:0:0:
289,180,36874,2,0,L|379:168,1,86.3999973632813,2|0,3:2|0:0,0:0:0:0:
444,121,37269,6,0,L|458:122,2,14.3999995605469,2|2|2,0:3|0:3|0:3,0:0:0:0:
439,104,37466,5,2,0:3:0:0:
229,106,37663,1,2,0:3:0:0:
163,83,37762,1,2,0:3:0:0:
117,30,37861,1,8,0:0:0:0:
9,221,38058,1,0,3:0:0:0:
121,297,38255,2,0,P|128:324|132:367,1,57.5999982421876,2|0,0:0|0:0,0:0:0:0:
296,218,38650,6,0,B|309:156|360:133|351:130|416:102|425:19,1,230.4,6|0,3:2|0:0,0:0:0:0:
260,66,39440,2,0,B|330:73|358:138|362:128|384:180|446:193,1,230.4,8|0,0:0|3:0,0:0:0:0:
488,371,40229,2,0,P|397:317|269:303,1,230.4,2|2,0:3|0:3,0:0:0:0:
43,358,41019,1,8,0:0:0:0:
102,325,41117,1,2,0:3:0:0:
148,273,41216,1,2,0:3:0:0:
9,162,41413,2,0,P|8:197|25:236,1,76.8,2|2,3:0|0:3,0:0:0:0:
243,220,41808,6,0,B|235:149|295:120|286:117|345:62|334:-4,1,230.4,2|0,0:3|0:0,0:0:0:0:
471,169,42598,2,0,B|479:240|419:269|428:272|369:327|380:393,1,230.4,8|0,0:0|3:0,0:0:0:0:
133,379,43387,2,0,P|96:281|5:187,1,230.4,2|2,0:3|0:3,0:0:0:0:
56,60,44177,6,0,P|49:52|46:43,2,19.2,8|2|2,0:0|0:3|0:3,0:0:0:0:
77,67,44374,5,2,0:3:0:0:
142,43,44473,1,2,0:3:0:0:
195,87,44572,5,0,1:0:0:0:
263,144,44703,5,2,0:3:0:0:
353,148,44835,5,2,0:3:0:0:
424,93,44966,6,0,P|432:53|430:17,1,76.8,2|2,0:3|0:3,0:0:0:0:
306,268,45361,2,0,P|336:294|368:311,1,76.8,2|0,0:3|0:3,0:0:0:0:
213,78,45755,2,0,P|174:91|144:110,2,76.8,8|2|2,0:0|0:3|0:3,0:0:0:0:
314,146,46348,1,0,3:0:0:0:
126,290,46545,5,2,0:3:0:0:
143,273,46743,1,2,0:3:0:0:
121,268,46940,1,2,0:3:0:0:
11,308,47137,5,2,0:0:0:0:
272,328,47334,5,8,0:0:0:0:
280,259,47432,1,2,0:3:0:0:
258,194,47531,1,2,0:3:0:0:
42,38,47729,2,0,P|37:56|51:77,1,38.4,0|0,3:0|0:0,0:0:0:0:
132,57,47927,6,0,P|134:48|127:37,3,19.2,2|2|2|2,0:3|0:3|0:3|0:3,0:0:0:0:
129,39,48124,5,0,3:0:0:0:
220,50,48321,1,0,0:0:0:0:
37,166,48519,5,2,0:3:0:0:
181,143,48716,1,2,0:0:0:0:
57,322,48913,5,8,0:0:0:0:
247,236,49110,1,2,0:0:0:0:
451,289,49308,1,2,0:3:0:0:
261,375,49505,6,0,P|253:349|253:328,1,48,2|2,3:2|0:0,0:0:0:0:
251,8,50690,6,0,P|258:32|258:51,1,38.4,2|0,0:0|0:0,0:0:0:0:
256,192,50887,1,0,1:0:0:0:
382,58,51084,6,0,P|370:80|357:93,1,38.4,2|0,3:2|0:0,0:0:0:0:
143,161,51282,6,0,B|114:47|-65:91|-2:420|193:386|167:260,1,460.8,6|0,3:2|0:0,0:0:0:0:
441,163,52071,1,0,1:0:0:0:
342,6,52269,6,0,L|345:37,1,24,2|0,0:0|0:0,0:0:0:0:
350,5,52367,2,0,L|353:36,1,24,2|0,0:3|0:0,0:0:0:0:
352,112,52466,1,2,0:3:0:0:
325,371,52663,6,0,B|416:356|464:259|378:203|356:296,1,230.4,6|0,3:2|0:0,0:0:0:0:
274,287,53058,6,0,L|243:290,1,24,2|0,0:0|0:0,0:0:0:0:
275,295,53156,2,0,L|244:298,1,24,2|0,0:3|0:0,0:0:0:0:
168,297,53255,6,0,L|44:309,1,96,0|0,3:0|0:0,0:0:0:0:
159,67,53650,1,0,1:0:0:0:
277,33,53848,2,0,L|283:95,1,48,2|0,0:0|0:0,0:0:0:0:
43,125,54045,2,0,L|31:1,1,96,4|0,3:2|0:0,0:0:0:0:
399,48,54440,6,0,B|445:87|443:172|364:201|353:288|394:334,1,307.2,6|0,3:2|0:0,0:0:0:0:
117,334,55032,2,0,B|148:299|139:234|80:212|78:149|114:119,1,230.4,2|0,0:0|0:0,0:0:0:0:
93,36,55427,6,0,L|124:33,1,24,2|0,0:0|0:0,0:0:0:0:
92,28,55525,2,0,L|123:25,1,24,2|0,0:3|0:0,0:0:0:0:
199,26,55624,1,8,0:3:0:0:
364,223,55821,6,0,B|406:262|494:247|499:184|420:145|374:159,1,230.4,6|0,3:2|0:0,0:0:0:0:
293,173,56216,6,0,L|290:142,1,24,2|0,0:0|0:0,0:0:0:0:
285,174,56314,2,0,L|282:143,1,24,2|0,0:3|0:0,0:0:0:0:
283,67,56413,6,0,P|331:56|350:1,1,96,2|0,0:0|0:0,0:0:0:0:
92,28,56808,1,0,1:0:0:0:
53,219,57005,2,0,P|29:224|19:252,1,48,2|0,0:0|0:0,0:0:0:0:
86,299,57203,1,0,3:0:0:0:
244,258,57400,2,0,P|249:282|277:291,1,48,2|0,0:0|0:0,0:0:0:0:
455,349,57598,6,0,B|530:313|528:244|477:174|336:192|264:115|318:22|395:22,1,460.8,6|0,3:2|0:0,0:0:0:0:
133,114,58387,1,0,1:0:0:0:
365,273,58584,6,0,L|359:305,1,24,2|0,0:0|0:0,0:0:0:0:
378,277,58683,2,0,L|372:309,1,24,2|0,0:3|0:0,0:0:0:0:
352,381,58782,1,2,0:3:0:0:
122,232,58979,6,0,B|145:173|208:206|168:292|72:289|25:217,1,230.4,6|0,3:2|0:0,0:0:0:0:
48,141,59374,6,0,L|54:109,1,24,2|0,0:0|0:0,0:0:0:0:
36,138,59473,2,0,L|42:106,1,24,2|0,0:3|0:0,0:0:0:0:
62,34,59571,6,0,P|92:77|150:92,1,96,0|0,3:0|0:0,0:0:0:0:
386,182,59966,1,0,1:0:0:0:
476,104,60163,2,0,P|461:82|432:75,1,48,2|0,0:0|0:0,0:0:0:0:
283,27,60361,2,0,P|260:74|276:132,1,96,4|0,3:2|0:0,0:0:0:0:
484,322,60755,6,0,B|384:272|337:323|340:329|283:387|184:345,1,307.2,6|0,3:2|0:0,0:0:0:0:
28,170,61348,2,0,B|102:206|137:168|135:164|178:121|252:152,1,230.4,2|0,0:0|0:0,0:0:0:0:
324,182,61742,6,0,L|356:188,1,24,2|0,0:0|0:0,0:0:0:0:
328,169,61841,2,0,L|360:175,1,24,2|0,0:3|0:0,0:0:0:0:
432,195,61940,1,8,0:3:0:0:
138,38,62137,6,0,B|101:112|139:147|143:145|186:188|155:262,1,230.4,6|0,3:2|0:0,0:0:0:0:
116,331,62532,6,0,L|84:325,1,24,2|0,0:0|0:0,0:0:0:0:
112,344,62631,2,0,L|80:338,1,24,2|0,0:3|0:0,0:0:0:0:
8,318,62730,5,2,0:3:0:0:
75,211,62927,1,2,0:0:0:0:
214,102,63124,1,0,1:0:0:0:
447,25,63321,6,0,P|471:39|478:62,1,48,2|0,0:0|0:0,0:0:0:0:
461,364,63519,1,0,1:0:0:0:
398,99,63716,6,0,P|384:123|361:130,1,48,2|0,0:0|0:0,0:0:0:0:
59,113,63913,6,0,B|30:98|-12:42|91:7|226:50|148:189|22:151|-41:134|-16:288|48:343|161:292|171:236|130:204,1,460.8,2|0,3:2|0:0,0:0:0:0:
406,289,64703,1,0,1:0:0:0:
331,84,64900,6,0,L|359:87,1,24,2|0,0:0|0:0,0:0:0:0:
329,95,64999,2,0,L|357:98,1,24,2|0,0:3|0:0,0:0:0:0:
436,102,65098,1,2,0:3:0:0:
336,353,65295,6,0,B|238:269|261:192|269:173|325:215|287:258,1,230.4,6|0,3:2|0:0,0:0:0:0:
207,352,65690,6,0,L|179:349,1,24,2|0,0:0|0:0,0:0:0:0:
209,341,65789,2,0,L|181:338,1,24,2|0,0:3|0:0,0:0:0:0:
102,334,65887,6,0,P|53:330|14:364,1,96,0|0,3:0|0:0,0:0:0:0:
189,191,66282,1,0,1:0:0:0:
233,57,66479,2,0,P|235:32|217:13,1,48,2|0,0:0|0:0,0:0:0:0:
38,34,66677,2,0,P|34:83|68:121,1,96,4|0,3:2|0:0,0:0:0:0:
300,378,67071,6,0,B|282:298|394:276|397:287|513:260|495:183,1,307.2,6|0,3:2|0:0,0:0:0:0:
220,15,67663,2,0,B|233:75|149:91|147:83|60:103|73:161,1,230.4,2|0,0:0|0:0,0:0:0:0:
65,246,68058,6,0,L|62:274,1,24,2|0,0:0|0:0,0:0:0:0:
54,244,68157,2,0,L|51:272,1,24,2|0,0:3|0:0,0:0:0:0:
47,351,68256,1,8,0:3:0:0:
407,383,68453,6,0,P|405:267|387:143,1,230.4,6|0,3:2|0:0,0:0:0:0:
292,134,68848,6,0,L|295:106,1,24,2|0,0:0|0:0,0:0:0:0:
303,136,68947,2,0,L|306:108,1,24,2|0,0:3|0:0,0:0:0:0:
309,29,69045,6,0,P|276:61|229:58,1,96,2|0,0:0|0:0,0:0:0:0:
37,92,69440,1,0,1:0:0:0:
69,283,69637,2,0,P|85:266|109:268,1,48,2|0,0:0|0:0,0:0:0:0:
117,354,69834,1,0,3:0:0:0:
260,251,70032,2,0,P|243:234|245:210,1,48,2|0,0:0|0:0,0:0:0:0:
494,49,70229,6,0,B|468:124|388:157|297:128|302:80|284:36|186:-11|150:16|106:99|183:144|208:88,1,460.8,6|0,3:2|0:0,0:0:0:0:
392,1,71019,1,0,1:0:0:0:
414,238,71216,6,0,L|419:278,1,24,2|0,0:0|0:0,0:0:0:0:
403,239,71315,2,0,L|408:279,1,24,2|0,0:3|0:0,0:0:0:0:
420,345,71413,1,2,0:3:0:0:
122,363,71611,6,0,B|135:302|77:261|73:268|18:210|33:160,1,230.4,6|0,3:2|0:0,0:0:0:0:
117,149,72005,6,0,L|157:144,1,24,2|0,0:0|0:0,0:0:0:0:
118,160,72104,2,0,L|158:155,1,24,2|0,0:3|0:0,0:0:0:0:
224,143,72203,6,0,P|237:104|210:51,1,96,0|0,3:0|0:0,0:0:0:0:
74,28,72598,1,0,1:0:0:0:
293,222,72795,2,0,P|311:212|320:184,1,48,2|0,0:0|0:0,0:0:0:0:
490,297,72992,2,0,P|453:315|434:371,1,96,6|0,3:2|0:0,0:0:0:0:
32,217,73387,6,0,B|106:217|171:298|153:299|214:365|296:364,1,307.2,6|0,3:2|0:0,0:0:0:0:
406,29,73979,2,0,B|358:57|345:134|357:128|343:194|289:223,1,230.4,2|0,0:0|0:0,0:0:0:0:
199,204,74374,6,0,L|194:164,1,24,2|0,0:0|0:0,0:0:0:0:
210,203,74473,2,0,L|205:163,1,24,2|0,0:3|0:0,0:0:0:0:
193,97,74571,1,8,0:3:0:0:
433,363,74769,6,0,P|321:362|207:303,1,230.4,6|0,3:2|0:0,0:0:0:0:
134,324,75163,6,0,L|94:329,1,24,8|0,0:3|0:0,0:0:0:0:
133,313,75262,2,0,L|93:318,1,24,8|0,0:3|0:0,0:0:0:0:
27,330,75360,5,0,1:0:0:0:
300,259,75558,1,8,0:3:0:0:
103,59,75755,6,0,L|97:23,2,24,8|0|8,0:3|0:0|0:3,0:0:0:0:
116,141,75953,5,0,1:0:0:0:
15,220,76150,6,0,P|42:233|55:230,1,38.4,2|0,0:0|0:0,0:0:0:0:
374,33,76545,6,0,B|460:28|527:223|499:333|468:307,1,345.599989453125,6|0,3:2|0:0,0:0:0:0:
328,353,76940,2,0,B|242:358|175:163|203:53|234:79,1,345.599989453125,0|0,3:0|0:0,0:0:0:0:
371,145,77334,5,0,1:0:0:0:
393,229,77433,2,0,P|357:231|311:207,1,76.8,2|0,0:0|0:0,0:0:0:0:
38,74,77630,1,0,3:0:0:0:
99,12,77729,2,0,P|119:40|121:93,1,76.8,2|0,1:2|0:0,0:0:0:0:
58,376,77927,2,0,P|90:311|178:255,1,153.6,2|0,3:2|0:0,0:0:0:0:
153,263,78321,6,0,L|158:235,2,19.2,2|2|2,0:3|0:3|0:3,0:0:0:0:
173,347,78519,6,0,L|299:366,1,115.2,0|0,3:0|0:0,0:0:0:0:
429,243,78913,5,0,1:0:0:0:
412,327,79012,2,0,P|446:327|487:305,1,76.8,2|0,0:0|0:0,0:0:0:0:
235,62,79209,1,0,3:0:0:0:
299,118,79308,2,0,P|316:88|317:42,1,76.8,2|0,0:0|0:0,0:0:0:0:
61,111,79505,2,0,P|44:81|4:57,1,76.8,0|0,3:0|0:0,0:0:0:0:
24,350,79703,6,0,B|94:385|184:304|158:276|241:197|323:229,1,345.599989453125,6|0,3:2|0:0,0:0:0:0:
336,360,80098,2,0,B|300:279|186:276|184:314|63:308|39:234,1,345.599989453125,0|0,3:0|0:0,0:0:0:0:
67,22,80492,5,0,1:0:0:0:
131,83,80591,2,0,P|97:103|51:109,1,76.8,2|0,0:0|0:0,0:0:0:0:
401,48,80788,1,0,3:0:0:0:
340,112,80887,2,0,P|319:78|313:32,1,76.8,2|0,1:2|0:0,0:0:0:0:
241,348,81084,2,0,P|307:307|400:294,1,153.6,2|0,3:2|0:0,0:0:0:0:
381,293,81479,6,0,L|385:325,2,19.2,2|2|2,0:3|0:3|0:3,0:0:0:0:
474,349,81677,6,0,L|459:234,1,115.2,0|0,3:0|0:0,0:0:0:0:
501,136,82071,5,0,1:0:0:0:
459,61,82170,2,0,P|428:87|415:147,1,76.8,2|0,0:0|0:0,0:0:0:0:
293,39,82367,1,0,3:0:0:0:
211,15,82466,2,0,P|208:55|241:107,1,76.8,2|0,0:0|0:0,0:0:0:0:
3,157,82663,2,0,P|29:187|89:200,1,76.8,0|0,3:0|0:0,0:0:0:0:
237,372,82861,6,0,B|296:308|293:222|282:225|287:133|349:52,1,345.599989453125,6|0,3:2|0:0,0:0:0:0:
455,256,83255,2,0,B|391:197|305:200|308:211|216:206|135:144,1,345.599989453125,0|0,3:0|0:0,0:0:0:0:
19,33,83650,5,0,1:0:0:0:
96,68,83749,2,0,P|132:55|168:19,1,76.8,2|0,0:0|0:0,0:0:0:0:
433,0,83946,1,0,3:0:0:0:
364,49,84045,2,0,P|357:86|370:135,1,76.8,2|0,1:2|0:0,0:0:0:0:
311,325,84242,2,0,P|253:276|157:250,1,153.6,2|0,3:2|0:0,0:0:0:0:
179,252,84637,6,0,L|189:282,2,19.2,2|2|2,0:3|0:3|0:3,0:0:0:0:
164,165,84834,6,0,L|130:54,1,115.2,0|0,3:0|0:0,0:0:0:0:
59,212,85229,5,0,1:0:0:0:
31,292,85328,2,0,L|8:365,1,76.8,2|0,0:0|0:0,0:0:0:0:
280,129,85525,1,0,3:0:0:0:
273,213,85624,2,0,L|270:289,1,76.8,2|0,0:0|0:0,0:0:0:0:
486,74,85821,2,0,L|503:148,1,76.8,0|0,3:0|0:0,0:0:0:0:
416,313,86019,6,0,B|401:342|486:353|496:302|475:241|325:101|379:49,1,345.599989453125,6|0,3:2|0:0,0:0:0:0:
137,56,86413,2,0,B|186:101|36:241|15:302|25:353|110:342|96:313,1,345.599989453125,0|0,3:0|0:0,0:0:0:0:
211,167,86808,5,0,1:0:0:0:
262,238,86907,2,0,P|297:240|347:217,1,76.8,2|0,0:0|0:0,0:0:0:0:
509,80,87104,1,0,3:0:0:0:
441,25,87203,2,0,P|406:32|364:67,1,76.8,2|0,1:2|2:0,2:0:0:0:
88,25,87400,2,0,P|146:63|256:73,1,153.6,2|2,3:2|0:0,0:0:0:0:
291,289,87795,6,0,L|287:266,2,19.2,2|2|2,0:3|0:3|0:3,0:0:0:0:
305,375,87992,5,0,1:0:0:0:
404,148,88190,1,2,0:0:0:0:
158,176,88387,6,0,L|4:194,1,153.6,0|0,1:0|3:0,0:0:0:0:
307,95,88683,1,0,3:0:0:0:
245,34,88782,2,0,L|161:23,1,76.8,2|0,1:2|0:0,0:0:0:0:
491,266,88979,2,0,L|414:275,1,76.8,0|0,3:0|0:0,0:0:0:0:
44,91,89177,6,0,B|119:72|196:142|160:226|247:267|312:229|322:177,1,345.599989453125,6|0,3:2|0:0,0:0:0:0:
481,155,89571,2,0,B|405:173|328:103|364:19|278:-21|212:16|202:68,1,345.599989453125,0|0,3:0|0:0,0:0:0:0:
35,201,89966,5,0,1:0:0:0:
40,287,90065,2,0,P|41:320|56:369,1,76.8,2|0,0:0|0:0,0:0:0:0:
325,327,90262,1,0,3:0:0:0:
320,241,90361,2,0,P|318:207|303:158,1,76.8,2|0,1:2|0:0,0:0:0:0:
150,19,90558,2,0,P|152:86|183:184,1,153.6,2|0,3:2|0:0,0:0:0:0:
175,168,90953,6,0,L|163:196,2,19.2,2|2|2,0:3|0:3|0:3,0:0:0:0:
116,101,91150,6,0,L|-3:110,1,115.2,0|0,3:0|0:0,0:0:0:0:
230,42,91545,5,0,1:0:0:0:
325,75,91644,2,0,P|318:35|320:-8,1,76.8,2|0,0:0|0:0,0:0:0:0:
411,250,91841,1,0,3:0:0:0:
334,317,91940,2,0,P|373:331|410:354,1,76.8,2|0,0:0|0:0,0:0:0:0:
121,203,92137,2,0,P|89:230|51:250,1,76.8,0|0,3:0|0:0,0:0:0:0:
490,85,92334,6,0,B|308:192|264:105|288:-8|427:2|407:83,1,345.599989453125,6|0,3:2|0:0,0:0:0:0:
86,17,92729,2,0,B|269:121|216:202|106:238|45:113|125:89,1,345.599989453125,0|0,3:0|0:0,0:0:0:0:
297,343,93124,5,0,1:0:0:0:
346,251,93223,2,0,P|305:256|272:234,1,76.8,2|0,0:0|0:0,0:0:0:0:
448,65,93420,1,0,3:0:0:0:
356,16,93519,2,0,P|361:57|339:90,1,76.8,2|0,1:2|0:0,0:0:0:0:
98,311,93716,2,0,P|88:229|132:163,1,153.6,2|0,3:2|0:0,0:0:0:0:
122,170,94111,6,0,L|118:138,2,19.2,2|2|2,0:3|0:3|0:3,0:0:0:0:
175,240,94308,6,0,L|194:369,1,115.2,0|0,3:0|0:0,0:0:0:0:
346,251,94703,5,0,1:0:0:0:
422,290,94802,2,0,L|435:380,1,76.8,2|0,0:0|0:0,0:0:0:0:
315,102,94999,1,0,3:0:0:0:
354,26,95098,2,0,L|444:12,1,76.8,2|0,0:0|0:0,0:0:0:0:
90,94,95295,2,0,L|76:3,1,76.8,0|0,3:0|0:0,0:0:0:0:
158,358,95492,6,0,B|176:226|119:193|51:177|-9:232|24:294|83:330,1,345.599989453125,6|0,3:2|0:0,0:0:0:0:
249,210,95887,2,0,B|354:131|337:67|300:8|219:4|198:71|212:128,1,345.599989453125,0|0,3:0|0:0,0:0:0:0:
78,18,96282,5,0,1:0:0:0:
15,77,96380,2,0,P|30:110|85:112,1,76.8,2|0,0:0|0:0,0:0:0:0:
158,358,96578,1,0,3:0:0:0:
240,383,96676,2,0,P|261:353|235:304,1,76.8,2|0,1:2|0:0,0:0:0:0:
456,12,96874,2,0,P|383:4|325:98,1,153.6,2|0,3:2|0:0,0:0:0:0:
329,56,97269,6,0,L|323:26,2,19.2,2|2|2,0:3|0:3|0:3,0:0:0:0:
353,137,97466,6,0,L|465:113,1,115.2,0|0,3:0|0:0,0:0:0:0:
452,244,97861,5,0,1:0:0:0:
389,332,97959,2,0,P|372:310|371:252,1,76.8,2|0,0:0|0:0,0:0:0:0:
60,140,98157,1,0,3:0:0:0:
123,52,98255,2,0,P|140:74|141:132,1,76.8,2|0,0:0|0:0,0:0:0:0:
185,303,98453,2,0,P|147:304|116:325,1,76.8,0|0,3:0|0:0,0:0:0:0:
327,81,98650,6,0,B|268:109|311:217|461:187|527:56|453:-15|417:30,1,345.599989453125,6|0,3:2|0:0,0:0:0:0:
253,234,99045,2,0,B|257:169|142:152|93:297|174:420|273:391|251:337,1,345.599989453125,0|0,3:0|0:0,0:0:0:0:
157,93,99440,5,0,1:0:0:0:
91,40,99538,2,0,P|62:21|10:13,1,76.8,2|0,0:0|0:0,0:0:0:0:
355,291,99736,1,0,3:0:0:0:
421,344,99834,2,0,P|450:363|502:371,1,76.8,2|0,1:2|0:0,0:0:0:0:
193,341,100032,6,0,B|167:265|245:184|266:199|348:125|319:41,1,345.6,6|6,3:2|0:0,0:0:0:0:
256,192,114045,5,2,0:0:0:0:
128,356,114440,6,0,P|83:315|115:160,1,230.4,6|2,3:2|0:0,0:0:0:0:
17,42,115229,2,0,P|75:23|193:128,1,230.4,0|2,3:0|0:0,0:0:0:0:
344,102,116019,2,0,P|330:161|180:211,1,230.4,0|2,3:0|0:0,0:0:0:0:
272,358,116808,6,0,L|357:346,1,76.8,0|2,3:0|0:0,0:0:0:0:
379,198,117203,5,2,0:3:0:0:
485,182,117400,1,2,0:0:0:0:
258,57,117598,6,0,P|147:56|28:9,1,230.4,0|2,3:0|0:0,0:0:0:0:
265,218,118387,2,0,P|321:122|421:42,1,230.4,0|2,3:0|0:0,0:0:0:0:
121,143,119177,2,0,P|175:239|194:366,1,230.4,0|2,3:0|0:0,0:0:0:0:
15,345,119966,5,0,3:0:0:0:
32,225,120163,1,2,0:0:0:0:
325,194,120361,5,2,0:3:0:0:
308,314,120558,1,2,0:0:0:0:
110,372,120755,6,0,P|162:293|237:163,1,230.4,0|2,3:0|0:0,0:0:0:0:
488,308,121545,2,0,P|393:301|244:302,1,230.4,0|2,3:0|0:0,0:0:0:0:
244,13,122334,2,0,P|285:97|360:227,1,230.4,0|2,3:0|0:0,0:0:0:0:
432,105,123124,6,0,P|434:71|448:21,1,76.8,0|2,3:0|0:0,0:0:0:0:
169,163,123519,5,2,0:3:0:0:
126,48,123716,2,0,P|116:34|98:15,1,38.4,2|0,0:0|0:0,0:0:0:0:
54,206,123913,5,0,3:0:0:0:
50,212,124111,1,0,0:0:0:0:
49,219,124308,1,2,0:3:0:0:
214,369,124505,6,0,P|242:327|262:214,1,153.6,2|0,0:0|0:0,0:0:0:0:
144,267,125098,1,0,0:3:0:0:
387,218,125295,2,0,P|364:172|276:98,1,153.6,0|2,3:0|0:0,0:0:0:0:
288,104,126084,5,0,3:0:0:0:
316,84,126183,1,2,0:3:0:0:
330,52,126282,1,2,0:3:0:0:
148,27,126479,1,0,3:0:0:0:
123,209,126677,1,2,0:3:0:0:
123,209,127071,6,0,P|176:286|255:300,1,172.799994726563,0|0,3:0|0:0,0:0:0:0:
236,64,127861,2,0,P|142:71|91:132,1,172.799994726563,2|0,0:0|0:0,0:0:0:0:
305,234,128650,2,0,P|345:149|317:74,1,172.799994726563,2|0,0:0|0:0,0:0:0:0:
103,40,129440,6,0,L|45:49,1,57.5999982421876,2|0,0:0|0:0,0:0:0:0:
57,133,129834,2,0,L|115:124,1,57.5999982421876,8|0,0:0|0:0,0:0:0:0:
292,272,130229,6,0,P|380:303|464:362,1,172.799994726563,2|0,0:0|0:0,0:0:0:0:
268,170,131019,2,0,P|196:231|104:273,1,172.799994726563,2|0,0:0|0:0,0:0:0:0:
368,200,131808,2,0,P|350:107|359:6,1,172.799994726563,2|0,0:0|0:0,0:0:0:0:
156,87,132598,6,0,P|161:117|158:151,1,57.5999982421876,2|0,0:0|0:0,0:0:0:0:
257,281,132992,5,8,0:0:0:0:
182,367,133189,1,2,0:0:0:0:
75,201,133387,6,0,P|18:145|4:34,1,172.799994726563,8|0,0:0|0:0,0:0:0:0:
168,191,134177,2,0,P|148:268|58:335,1,172.799994726563,2|0,0:0|0:0,0:0:0:0:
113,116,134966,2,0,P|189:94|293:138,1,172.799994726563,2|0,0:0|0:0,0:0:0:0:
475,12,135755,5,8,0:0:0:0:
378,43,135953,1,2,0:0:0:0:
408,140,136150,1,8,0:0:0:0:
506,108,136348,1,2,0:0:0:0:
501,267,136545,6,0,B|457:306|377:256|376:225|289:183|233:220,1,287.999991210938,6|0,3:2|0:0,0:0:0:0:
76,370,137927,6,0,B|118:322|107:267|34:187|-15:280|-7:337|49:377,1,287.999991210938,2|2,3:2|0:0,0:0:0:0:
303,352,139308,6,0,L|349:344,1,28.7999991210938,2|0,1:2|0:0,0:0:0:0:
473,322,139505,1,0,3:0:0:0:
414,16,139703,6,0,B|367:-21|270:-6|258:51|280:191|362:154|442:134|464:207|415:298|329:278|338:187,1,460.8,6|2,3:2|0:0,0:0:0:0:
33,137,140492,1,0,1:2:0:0:
38,325,140690,6,0,L|78:323,1,24,2|0,0:0|0:0,0:0:0:0:
39,338,140788,2,0,L|79:336,1,24,2|0,0:3|0:0,0:0:0:0:
146,327,140887,1,2,0:3:0:0:
393,123,141084,6,0,B|402:168|465:161|467:57|411:5|332:37,1,230.4,6|0,3:2|0:0,0:0:0:0:
260,48,141479,6,0,L|220:50,1,24,2|0,0:0|0:0,0:0:0:0:
259,35,141578,2,0,L|219:37,1,24,2|0,0:3|0:0,0:0:0:0:
152,46,141677,2,0,P|105:45|61:13,1,96,0|0,3:0|0:0,0:0:0:0:
32,215,142071,5,2,1:2:0:0:
90,174,142202,5,2,0:3:0:0:
166,152,142334,5,2,0:3:0:0:
253,158,142466,5,6,3:2:0:0:
341,196,142598,5,2,0:3:0:0:
415,266,142729,5,2,0:3:0:0:
465,365,142861,6,0,B|324:314|316:196|352:36|496:53|505:175|458:195,1,460.8,6|2,3:2|0:0,0:0:0:0:
81,250,143650,1,0,1:0:0:0:
149,25,143848,6,0,L|151:65,1,24,2|0,0:0|0:0,0:0:0:0:
136,26,143946,2,0,L|138:66,1,24,2|0,0:3|0:0,0:0:0:0:
147,133,144045,1,8,0:3:0:0:
307,360,144242,6,0,B|365:381|426:345|459:279|419:212|356:267|396:295,1,230.4,6|0,3:2|0:0,0:0:0:0:
393,170,144637,6,0,L|391:130,1,24,2|0,0:0|0:0,0:0:0:0:
406,169,144735,2,0,L|404:129,1,24,2|0,0:3|0:0,0:0:0:0:
395,62,144834,5,2,0:3:0:0:
245,24,145032,1,2,0:0:0:0:
46,271,145229,5,0,1:0:0:0:
200,293,145427,2,0,P|193:281|190:301,1,48,0|0,3:0|0:0,0:0:0:0:
442,337,145624,5,2,0:0:0:0:
407,275,145723,1,2,0:0:0:0:
337,272,145821,1,2,0:0:0:0:
43,106,146019,6,0,B|161:175|252:111|259:52|371:-12|475:65,1,460.8,6|2,3:2|0:0,0:0:0:0:
267,360,146808,1,0,1:0:0:0:
28,300,147005,6,0,L|25:259,1,24,2|0,0:0|0:0,0:0:0:0:
38,300,147104,2,0,L|35:259,1,24,2|0,0:3|0:0,0:0:0:0:
23,193,147203,1,2,0:3:0:0:
218,10,147400,6,0,B|256:24|339:93|275:198|200:162|206:125|249:105,1,230.4,6|0,3:2|0:0,0:0:0:0:
365,98,147795,6,0,L|406:95,1,24,2|0,0:0|0:0,0:0:0:0:
365,108,147894,2,0,L|406:105,1,24,2|0,0:3|0:0,0:0:0:0:
472,93,147992,6,0,P|474:39|502:12,1,96,0|0,3:0|0:0,0:0:0:0:
352,247,148387,1,0,1:0:0:0:
438,369,148584,2,0,P|411:368|397:353,1,48,2|0,0:0|0:0,0:0:0:0:
225,109,148782,2,0,P|279:111|305:139,1,96,4|0,3:2|0:0,0:0:0:0:
161,373,149177,6,0,B|255:304|220:191|15:222|-40:71|66:23,1,460.8,6|2,3:2|0:0,0:0:0:0:
380,83,149966,1,0,1:0:0:0:
457,269,150163,6,0,L|416:272,1,24,2|0,0:0|0:0,0:0:0:0:
457,259,150262,2,0,L|416:262,1,24,2|0,0:3|0:0,0:0:0:0:
350,274,150361,1,8,0:3:0:0:
34,125,150558,6,0,P|152:131|198:237,1,230.4,6|0,3:2|0:0,0:0:0:0:
125,261,150953,6,0,L|128:302,1,24,2|0,0:0|0:0,0:0:0:0:
115,261,151052,2,0,L|118:302,1,24,2|0,0:3|0:0,0:0:0:0:
130,367,151151,5,8,0:0:0:0:
12,269,151348,1,0,3:0:0:0:
191,13,151545,5,0,1:0:0:0:
309,111,151742,1,0,3:0:0:0:
58,126,151940,6,0,P|53:103|45:81,1,48,2|0,1:2|0:0,0:0:0:0:
256,192,152137,1,2,0:0:0:0:
453,257,152334,6,0,B|425:286|425:349|529:288|543:223|489:113|418:120|358:170|332:222|309:283|337:347|390:362,1,460.8,6|2,3:2|0:0,0:0:0:0:
468,54,153124,1,0,1:0:0:0:
307,14,153321,6,0,L|272:18,1,24,2|0,0:0|0:0,0:0:0:0:
309,24,153420,2,0,L|274:28,1,24,2|0,0:3|0:0,0:0:0:0:
203,34,153519,1,2,0:3:0:0:
49,200,153716,6,0,B|32:236|-3:204|1:174|60:128|121:133|196:204,1,230.4,6|0,3:2|0:0,0:0:0:0:
185,270,154111,6,0,L|189:305,1,24,2|0,0:0|0:0,0:0:0:0:
195,268,154210,2,0,L|199:303,1,24,2|0,0:3|0:0,0:0:0:0:
205,374,154308,2,0,P|154:372|117:342,1,96,0|0,3:0|0:0,0:0:0:0:
14,156,154703,5,2,1:2:0:0:
73,187,154834,5,2,0:3:0:0:
150,203,154966,5,2,0:3:0:0:
238,197,155098,5,6,3:2:0:0:
328,167,155229,5,2,0:3:0:0:
412,108,155361,5,2,0:3:0:0:
482,25,155492,6,0,B|350:-31|300:187|440:202,1,307.2,6|0,3:2|0:0,0:0:0:0:
20,362,156084,2,0,B|119:404|156:240|51:229,1,230.4,6|0,3:2|0:0,0:0:0:0:
53,147,156479,6,0,L|49:112,1,24,2|0,0:0|0:0,0:0:0:0:
43,149,156578,2,0,L|39:114,1,24,2|0,0:3|0:0,0:0:0:0:
33,43,156677,1,8,0:3:0:0:
381,28,156874,6,0,B|405:90|351:140|356:139|297:182|317:262,1,230.4,6|0,3:2|0:0,0:0:0:0:
377,314,157269,6,0,L|412:310,1,24,2|0,0:0|0:0,0:0:0:0:
375,304,157368,2,0,L|410:300,1,24,2|0,0:3|0:0,0:0:0:0:
481,294,157467,5,2,0:3:0:0:
271,349,157663,1,0,3:0:0:0:
216,139,157861,6,0,P|213:110|202:78,1,57.5999982421876,2|0,1:2|0:0,0:0:0:0:
414,28,158255,2,0,P|417:57|428:89,1,57.5999982421876,2|0,0:0|0:0,0:0:0:0:
117,381,158650,6,0,B|65:354|40:250|173:187|268:311|393:237|372:146|321:113,1,460.8,6|2,3:2|0:0,0:0:0:0:
7,28,159440,1,0,1:0:0:0:
238,153,159637,6,0,L|210:151,1,24,2|0,0:0|0:0,0:0:0:0:
239,143,159736,2,0,L|211:141,1,24,2|0,0:3|0:0,0:0:0:0:
133,139,159834,1,2,0:3:0:0:
493,215,160032,6,0,B|431:212|405:289|415:294|387:361|326:369,1,230.4,6|0,3:2|0:0,0:0:0:0:
246,345,160427,6,0,L|248:317,1,24,2|0,0:0|0:0,0:0:0:0:
256,346,160526,2,0,L|258:318,1,24,2|0,0:3|0:0,0:0:0:0:
260,240,160624,6,0,P|299:224|330:269,1,96,0|0,3:2|0:0,0:0:0:0:
348,52,161019,1,0,1:0:0:0:
161,196,161216,2,0,P|169:215|146:231,1,48,2|0,0:0|0:0,0:0:0:0:
439,323,161413,2,0,P|423:284|468:253,1,96,4|0,3:2|0:0,0:0:0:0:
42,110,161808,6,0,B|78:54|246:72|253:170|412:196|474:135,1,460.8,6|2,3:2|0:0,0:0:0:0:
256,18,162598,1,0,1:0:0:0:
265,258,162795,6,0,L|263:286,1,24,2|0,0:0|0:0,0:0:0:0:
255,257,162894,2,0,L|253:285,1,24,2|0,0:3|0:0,0:0:0:0:
251,363,162992,5,8,0:3:0:0:
340,16,163190,1,4,3:2:0:0:
469,234,163387,1,0,3:0:0:0:
122,145,163584,6,0,L|150:147,1,24,8|0,0:3|0:0,0:0:0:0:
122,155,163683,2,0,L|150:157,1,24,8|0,0:3|0:0,0:0:0:0:
229,156,163782,5,0,1:0:0:0:
21,181,163979,1,8,0:3:0:0:
147,349,164177,6,0,L|150:378,2,24,8|0|8,0:3|0:0|0:3,0:0:0:0:
138,262,164374,5,0,1:0:0:0:
47,82,164571,6,0,P|44:61|53:40,1,38.4,2|0,0:0|0:0,0:0:0:0:
484,268,164966,6,0,B|490:344|470:414|210:348|226:300,1,345.599989453125,6|0,3:2|0:0,0:0:0:0:
148,126,165361,2,0,B|142:50|162:-20|422:46|406:94,1,345.599989453125,0|0,3:0|0:0,0:0:0:0:
383,275,165755,5,0,1:0:0:0:
320,214,165854,2,0,P|318:169|329:121,1,76.8,2|0,0:0|0:0,0:0:0:0:
0,332,166052,1,0,3:0:0:0:
84,307,166150,2,0,P|123:327|160:361,1,76.8,2|0,1:2|0:0,0:0:0:0:
188,21,166348,2,0,P|112:69|17:98,1,153.6,2|0,3:2|0:0,0:0:0:0:
52,91,166742,6,0,P|37:90|22:84,2,19.2,2|2|2,0:3|0:3|0:3,0:0:0:0:
104,162,166940,6,0,P|68:206|32:178,1,115.2,0|0,3:0|0:0,0:0:0:0:
2,317,167334,5,0,1:0:0:0:
83,292,167433,2,0,P|96:328|95:373,1,76.8,2|0,0:0|0:0,0:0:0:0:
398,84,167630,1,0,3:0:0:0:
317,109,167729,2,0,P|304:73|305:28,1,76.8,2|0,0:0|0:0,0:0:0:0:
45,21,167927,2,0,P|58:56|90:78,1,76.8,0|0,3:0|0:0,0:0:0:0:
354,379,168124,6,0,P|313:273|112:180,1,345.599989453125,6|0,3:2|0:0,0:0:0:0:
96,366,168519,2,0,P|208:353|350:183,1,345.599989453125,0|0,3:0|0:0,0:0:0:0:
239,26,168913,5,0,1:0:0:0:
178,89,169012,2,0,P|213:108|273:106,1,76.8,2|0,0:0|0:0,0:0:0:0:
457,356,169209,1,0,3:0:0:0:
499,279,169308,2,0,P|460:269|402:287,1,76.8,2|0,1:2|0:0,0:0:0:0:
80,269,169505,2,0,P|159:266|261:203,1,153.6,2|0,3:2|0:0,0:0:0:0:
225,235,169900,6,0,P|230:248|231:269,2,19.2,2|2|2,0:3|0:3|0:3,0:0:0:0:
307,306,170098,6,0,P|333:255|346:199,1,115.2,0|0,3:0|0:0,0:0:0:0:
373,57,170492,5,0,1:0:0:0:
314,119,170591,2,0,P|291:92|282:49,1,76.8,2|0,0:0|0:0,0:0:0:0:
176,339,170788,1,0,3:0:0:0:
91,341,170887,2,0,P|93:306|118:269,1,76.8,2|0,0:0|0:0,0:0:0:0:
89,100,171084,2,0,P|52:108|23:132,1,76.8,0|0,3:0|0:0,0:0:0:0:
265,265,171282,6,0,B|370:228|520:269|496:385|389:394|375:350|374:312,1,345.599989453125,6|0,3:2|0:0,0:0:0:0:
472,119,171677,2,0,B|367:156|217:115|241:-1|348:-10|362:34|363:72,1,345.599989453125,0|0,3:0|0:0,0:0:0:0:
257,172,172071,5,0,1:0:0:0:
196,112,172170,2,0,P|183:82|190:33,1,76.8,2|0,0:0|0:0,0:0:0:0:
351,237,172367,1,0,3:0:0:0:
433,214,172466,2,0,P|465:217|504:248,1,76.8,2|0,1:2|0:0,0:0:0:0:
247,285,172663,2,0,P|208:337|116:374,1,153.6,2|0,3:2|0:0,0:0:0:0:
129,373,173058,6,0,P|117:367|103:364,2,19.2,2|2|2,0:3|0:3|0:3,0:0:0:0:
26,375,173255,6,0,P|9:319|6:262,1,115.2,0|0,3:0|0:0,0:0:0:0:
104,141,173650,5,0,1:0:0:0:
27,180,173749,2,0,P|48:147|85:116,1,76.8,2|0,0:0|0:0,0:0:0:0:
341,70,173946,1,0,3:0:0:0:
268,23,174045,2,0,P|307:24|352:41,1,76.8,2|0,0:0|0:0,0:0:0:0:
160,237,174242,2,0,P|194:218|242:210,1,76.8,0|0,3:0|0:0,0:0:0:0:
447,221,174440,6,0,B|535:289|502:373|350:392|297:317|363:238,1,345.599989453125,6|0,3:2|0:0,0:0:0:0:
153,139,174834,2,0,B|215:67|162:-8|10:11|-23:95|65:163,1,345.599989453125,0|0,3:0|0:0,0:0:0:0:
34,286,175229,5,0,1:0:0:0:
125,326,175328,2,0,P|121:286|134:238,1,76.8,2|0,0:0|0:0,0:0:0:0:
369,25,175525,1,0,3:0:0:0:
288,83,175624,2,0,P|324:99|360:135,1,76.8,2|0,1:2|0:0,0:0:0:0:
462,306,175821,2,0,P|396:353|300:380,1,153.6,2|0,3:2|0:0,0:0:0:0:
328,376,176216,6,0,P|341:379|353:385,2,19.2,2|2|2,0:3|0:3|0:3,0:0:0:0:
241,367,176413,5,0,1:0:0:0:
92,167,176611,1,2,0:0:0:0:
339,138,176808,6,0,P|383:67|370:-21,1,153.6,0|0,1:0|3:0,0:0:0:0:
160,228,177104,1,0,3:0:0:0:
179,141,177203,2,0,P|159:103|117:87,1,76.8,2|0,1:2|0:0,0:0:0:0:
374,370,177400,2,0,P|374:327|346:292,1,76.8,0|0,3:0|0:0,0:0:0:0:
42,291,177598,6,0,B|13:330|43:365|96:384|171:362|228:317|243:266|212:205|153:231,1,345.599989453125,6|0,3:2|0:0,0:0:0:0:
311,105,177992,2,0,B|265:71|302:14|354:2|421:28|478:82|488:138|472:181|424:176,1,345.599989453125,0|0,3:0|0:0,0:0:0:0:
69,162,178387,5,0,1:0:0:0:
17,89,178486,2,0,P|22:55|48:3,1,76.8,2|0,0:0|0:0,0:0:0:0:
249,196,178683,1,0,3:0:0:0:
337,187,178782,2,0,P|363:208|395:256,1,76.8,2|0,1:2|0:0,0:0:0:0:
188,53,178979,2,0,P|251:29|367:21,1,153.6,2|0,3:2|0:0,0:0:0:0:
336,18,179374,6,0,P|321:25|307:39,2,19.2,2|2|2,0:3|0:3|0:3,0:0:0:0:
420,44,179571,6,0,P|441:99|492:150,1,115.2,2|0,3:2|0:0,0:0:0:0:
392,381,179966,5,0,1:0:0:0:
430,304,180065,2,0,P|416:271|386:240,1,76.8,2|0,0:0|0:0,0:0:0:0:
174,141,180262,1,0,3:0:0:0:
136,218,180361,2,0,P|149:250|179:281,1,76.8,2|0,0:0|0:0,0:0:0:0:
398,129,180558,2,0,P|365:142|334:172,1,76.8,0|0,3:0|0:0,0:0:0:0:
230,351,180755,6,0,B|172:378|96:381|-6:362|-32:282|-12:234|48:222|73:269|63:306,1,345.599989453125,6|0,3:2|0:0,0:0:0:0:
245,219,181150,2,0,B|259:156|246:81|206:-14|123:-22|80:6|80:67|132:82|166:65,1,345.599989453125,0|0,3:0|0:0,0:0:0:0:
143,234,181545,5,0,1:0:0:0:
92,165,181644,2,0,P|57:146|10:146,1,76.8,2|0,0:0|0:0,0:0:0:0:
311,21,181841,1,0,3:0:0:0:
362,89,181940,2,0,P|396:107|443:107,1,76.8,2|0,1:2|0:0,0:0:0:0:
236,310,182137,2,0,P|273:241|272:147,1,153.6,2|0,3:2|0:0,0:0:0:0:
277,167,182532,6,0,P|276:150|269:133,2,19.2,2|2|2,0:3|0:3|0:3,0:0:0:0:
363,181,182729,6,0,P|407:217|439:265,1,115.2,0|0,3:0|0:0,0:0:0:0:
308,360,183124,5,0,1:0:0:0:
223,383,183223,2,0,P|222:343|238:305,1,76.8,2|0,0:0|0:0,0:0:0:0:
77,140,183420,1,0,3:0:0:0:
14,77,183519,2,0,P|47:56|89:51,1,76.8,0|0,3:0|0:0,0:0:0:0:
140,203,183716,2,0,P|106:223|64:228,1,76.8,0|0,3:0|0:0,0:0:0:0:
210,30,183913,6,0,B|304:61|328:164|314:177|329:270|414:289,1,345.599989453125,6|0,3:2|0:0,0:0:0:0:
358,4,184308,2,0,B|377:100|300:172|282:167|209:226|235:309,1,345.599989453125,0|0,3:0|0:0,0:0:0:0:
454,118,184703,5,0,1:0:0:0:
505,189,184802,2,0,P|468:209|427:196,1,76.8,2|0,0:0|0:0,0:0:0:0:
169,200,184999,1,0,3:0:0:0:
118,129,185098,2,0,P|154:108|195:121,1,76.8,2|0,1:2|0:0,0:0:0:0:
328,374,185295,2,0,P|286:300|312:218,1,153.6,2|0,3:2|0:0,0:0:0:0:
299,236,185690,6,0,P|302:248|309:261,2,19.2,2|2|2,0:3|0:3|0:3,0:0:0:0:
298,145,185887,6,0,P|300:87|315:32,1,115.2,0|0,3:0|0:0,0:0:0:0:
130,124,186282,5,0,1:0:0:0:
67,63,186380,2,0,P|35:39|-16:35,1,76.8,2|0,0:0|0:0,0:0:0:0:
194,277,186579,1,0,3:0:0:0:
257,338,186677,2,0,P|289:362|340:366,1,76.8,2|0,0:0|0:0,0:0:0:0:
74,238,186874,2,0,P|37:253|8:295,1,76.8,0|0,3:0|0:0,0:0:0:0:
250,163,187071,6,0,B|306:223|403:216|476:78|376:22|323:33|290:88|313:108,1,345.599989453125,4|0,3:2|0:0,0:0:0:0:
194,277,187466,2,0,B|137:216|40:223|-32:361|67:417|120:406|153:351|130:331,1,345.599989453125,0|0,3:0|0:0,0:0:0:0:
24,32,187861,5,0,1:0:0:0:
66,104,187959,2,0,P|101:125|157:137,1,76.8,2|0,0:0|0:0,0:0:0:0:
488,352,188157,1,0,3:0:0:0:
446,280,188255,2,0,P|410:258|354:246,1,76.8,2|0,1:2|0:0,0:0:0:0:
162,249,188453,6,0,B|280:279|335:125|305:31|224:53|220:109|250:145,1,345.6,4|6,3:2|0:0,0:0:0:0:
