osu file format v14

[General]
AudioFilename: audio.mp3
AudioLeadIn: 0
PreviewTime: 50394
Countdown: 0
SampleSet: Soft
StackLeniency: 0.7
Mode: 0
LetterboxInBreaks: 0
WidescreenStoryboard: 1

[Editor]
Bookmarks: 13387,26019,38650,51282,63913,76545,89177,101808,114440,127071,139703,152334,164966,165361,177598,190229
DistanceSpacing: 2.5
BeatDivisor: 8
GridSize: 32
TimelineZoom: 1.7

[Metadata]
Title:For U
TitleUnicode:For U
Artist:Aice room
ArtistUnicode:Aice room
Creator:Hinsvar
Version:Insane
Source:
Tags:Nor For You Electronic Dance Music EDM kawaii future bass lo-fi lofi Instrumental IT's U EP its you Featured Artist FA Mappers' Guild MG MPG
BeatmapID:4223577
BeatmapSetID:2025686

[Difficulty]
HPDrainRate:5
CircleSize:3.6
OverallDifficulty:7.5
ApproachRate:8.5
SliderMultiplier:1.6
SliderTickRate:1

[Events]
//Background and Video events
0,0,"BG.jpg",0,0
//Break Periods
2,102008,113370
//Storyboard Layer 0 (Background)
//Storyboard Layer 1 (Fail)
//Storyboard Layer 2 (Pass)
//Storyboard Layer 3 (Foreground)
//Storyboard Layer 4 (Overlay)
//Storyboard Sound Samples

[TimingPoints]
756,394.736842105263,4,2,1,40,1,0
13387,-166.666666666667,4,2,1,40,0,0
26019,-142.857142857143,4,2,1,50,0,0
38650,-125,4,2,1,60,0,0
49505,-166.666666666667,4,2,1,50,0,0
50690,-125,4,2,1,60,0,0
51282,-83.3333333333333,4,2,1,70,0,1
51380,-83.3333333333333,4,2,1,70,0,0
52269,-100,4,2,1,70,0,0
52663,-83.3333333333333,4,2,1,70,0,1
52762,-83.3333333333333,4,2,1,70,0,0
53058,-100,4,2,1,70,0,0
54440,-83.3333333333333,4,2,1,70,0,1
54538,-83.3333333333333,4,2,1,70,0,0
55427,-100,4,2,1,70,0,0
55821,-83.3333333333333,4,2,1,70,0,1
55920,-83.3333333333333,4,2,1,70,0,0
56216,-100,4,2,1,70,0,0
57598,-83.3333333333333,4,2,1,70,0,1
57696,-83.3333333333333,4,2,1,70,0,0
58584,-100,4,2,1,70,0,0
58979,-83.3333333333333,4,2,1,70,0,1
59078,-83.3333333333333,4,2,1,70,0,0
59374,-100,4,2,1,70,0,0
60755,-83.3333333333333,4,2,1,70,0,1
60854,-83.3333333333333,4,2,1,70,0,0
61742,-100,4,2,1,70,0,0
62137,-83.3333333333333,4,2,1,70,0,1
62236,-83.3333333333333,4,2,1,70,0,0
62532,-100,4,2,1,70,0,0
63913,-83.3333333333333,4,2,1,70,0,1
64012,-83.3333333333333,4,2,1,70,0,0
64703,-100,4,2,1,70,0,0
65295,-83.3333333333333,4,2,1,70,0,1
65394,-83.3333333333333,4,2,1,70,0,0
65690,-100,4,2,1,70,0,0
67071,-83.3333333333333,4,2,1,70,0,1
67170,-83.3333333333333,4,2,1,70,0,0
68058,-100,4,2,1,70,0,0
68453,-83.3333333333333,4,2,1,70,0,1
68552,-83.3333333333333,4,2,1,70,0,0
68848,-100,4,2,1,70,0,0
70229,-83.3333333333333,4,2,1,70,0,1
70328,-83.3333333333333,4,2,1,70,0,0
71216,-100,4,2,1,70,0,0
71611,-83.3333333333333,4,2,1,70,0,1
71709,-83.3333333333333,4,2,1,70,0,0
72005,-100,4,2,1,70,0,0
73387,-83.3333333333333,4,2,1,70,0,1
73486,-83.3333333333333,4,2,1,70,0,0
74374,-100,4,2,1,70,0,0
74769,-83.3333333333333,4,2,1,70,0,1
74867,-83.3333333333333,4,2,1,70,0,0
75163,-100,4,2,1,70,0,0
76150,-166.666666666667,4,2,1,70,0,0
76545,-62.5,4,2,1,80,0,1
77334,-83.3333333333333,4,2,1,80,0,1
78321,-125,4,2,1,80,0,1
78913,-83.3333333333333,4,2,1,80,0,1
79703,-62.5,4,2,1,80,0,1
80492,-83.3333333333333,4,2,1,80,0,1
81479,-125,4,2,1,80,0,1
82071,-83.3333333333333,4,2,1,80,0,1
82466,-83.3333333333333,4,2,1,80,0,0
82861,-62.5,4,2,1,80,0,1
83650,-83.3333333333333,4,2,1,80,0,1
84637,-125,4,2,1,80,0,1
85229,-83.3333333333333,4,2,1,80,0,1
86019,-62.5,4,2,1,80,0,1
86808,-83.3333333333333,4,2,1,80,0,1
87795,-125,4,2,1,80,0,1
88387,-83.3333333333333,4,2,1,80,0,1
88782,-83.3333333333333,4,2,1,80,0,0
89177,-62.5,4,2,1,80,0,1
89966,-83.3333333333333,4,2,1,80,0,1
90953,-125,4,2,1,80,0,1
91545,-83.3333333333333,4,2,1,80,0,1
92334,-62.5,4,2,1,80,0,1
93124,-83.3333333333333,4,2,1,80,0,1
94111,-125,4,2,1,80,0,1
94703,-83.3333333333333,4,2,1,80,0,1
95098,-83.3333333333333,4,2,1,80,0,0
95492,-62.5,4,2,1,80,0,1
96282,-83.3333333333333,4,2,1,80,0,1
97269,-125,4,2,1,80,0,1
97861,-83.3333333333333,4,2,1,80,0,1
98650,-62.5,4,2,1,80,0,1
99440,-83.3333333333333,4,2,1,80,0,1
100032,-166.666666666667,4,2,1,70,0,0
101808,-166.666666666667,4,2,1,50,0,0
114440,-125,4,2,1,60,0,0
127071,-142.857142857143,4,2,1,50,0,0
139703,-83.3333333333333,4,2,1,70,0,1
139802,-83.3333333333333,4,2,1,70,0,0
140690,-100,4,2,1,70,0,0
141084,-83.3333333333333,4,2,1,70,0,1
141183,-83.3333333333333,4,2,1,70,0,0
141479,-100,4,2,1,70,0,0
142861,-83.3333333333333,4,2,1,70,0,1
142959,-83.3333333333333,4,2,1,70,0,0
143848,-100,4,2,1,70,0,0
144242,-83.3333333333333,4,2,1,70,0,1
144341,-83.3333333333333,4,2,1,70,0,0
144637,-100,4,2,1,70,0,0
146019,-83.3333333333333,4,2,1,70,0,1
146117,-83.3333333333333,4,2,1,70,0,0
147005,-100,4,2,1,70,0,0
147400,-83.3333333333333,4,2,1,70,0,1
147499,-83.3333333333333,4,2,1,70,0,0
147795,-100,4,2,1,70,0,0
149177,-83.3333333333333,4,2,1,70,0,1
149275,-83.3333333333333,4,2,1,70,0,0
150163,-100,4,2,1,70,0,0
150558,-83.3333333333333,4,2,1,70,0,1
150657,-83.3333333333333,4,2,1,70,0,0
150953,-100,4,2,1,70,0,0
152334,-83.3333333333333,4,2,1,70,0,1
152433,-83.3333333333333,4,2,1,70,0,0
153321,-100,4,2,1,70,0,0
153716,-83.3333333333333,4,2,1,70,0,1
153815,-83.3333333333333,4,2,1,70,0,0
154111,-100,4,2,1,70,0,0
155492,-83.3333333333333,4,2,1,70,0,1
156479,-100,4,2,1,70,0,0
156874,-83.3333333333333,4,2,1,70,0,1
156973,-83.3333333333333,4,2,1,70,0,0
157269,-100,4,2,1,70,0,0
157861,-142.857142857143,4,2,1,70,0,0
158650,-83.3333333333333,4,2,1,70,0,1
158749,-83.3333333333333,4,2,1,70,0,0
159637,-100,4,2,1,70,0,0
160032,-83.3333333333333,4,2,1,70,0,1
160130,-83.3333333333333,4,2,1,70,0,0
160427,-100,4,2,1,70,0,0
161808,-83.3333333333333,4,2,1,70,0,1
161907,-83.3333333333333,4,2,1,70,0,0
162795,-100,4,2,1,70,0,0
164571,-166.666666666667,4,2,1,70,0,0
164966,-62.5,4,2,1,80,0,1
165755,-83.3333333333333,4,2,1,80,0,1
166742,-125,4,2,1,80,0,1
167334,-83.3333333333333,4,2,1,80,0,1
168124,-62.5,4,2,1,80,0,1
168913,-83.3333333333333,4,2,1,80,0,1
169900,-125,4,2,1,80,0,1
170492,-83.3333333333333,4,2,1,80,0,1
170887,-83.3333333333333,4,2,1,80,0,0
171282,-62.5,4,2,1,80,0,1
172071,-83.3333333333333,4,2,1,80,0,1
173058,-125,4,2,1,80,0,1
173650,-83.3333333333333,4,2,1,80,0,1
174440,-62.5,4,2,1,80,0,1
175229,-83.3333333333333,4,2,1,80,0,1
176216,-125,4,2,1,80,0,1
176808,-83.3333333333333,4,2,1,80,0,1
177203,-83.3333333333333,4,2,1,80,0,0
177598,-62.5,4,2,1,80,0,1
178387,-83.3333333333333,4,2,1,80,0,1
179374,-125,4,2,1,80,0,1
179966,-83.3333333333333,4,2,1,80,0,1
180755,-62.5,4,2,1,80,0,1
181545,-83.3333333333333,4,2,1,80,0,1
182532,-125,4,2,1,80,0,1
183124,-83.3333333333333,4,2,1,80,0,1
183519,-83.3333333333333,4,2,1,80,0,0
183913,-62.5,4,2,1,80,0,1
184703,-83.3333333333333,4,2,1,80,0,1
185690,-125,4,2,1,80,0,1
186282,-83.3333333333333,4,2,1,80,0,1
187071,-62.5,4,2,1,80,0,1
187861,-83.3333333333333,4,2,1,80,0,1
188453,-166.666666666667,4,2,1,70,0,0
190229,-166.666666666667,4,2,1,50,0,0

[Colours]
Combo1 : 145,201,217
Combo2 : 232,183,207
Combo3 : 160,239,211
Combo4 : 244,134,214

[HitObjects]
85,59,13387,5,2,0:3:0:0:
85,59,13782,1,2,0:3:0:0:
85,59,14177,2,0,B|109:100|142:100|144:95|179:92|203:143,1,143.999995605469,2|0,0:3|0:0,0:0:0:0:
312,247,15163,1,0,0:0:0:0:
312,247,15361,2,0,B|325:276|349:274|350:271|372:271|389:299,2,95.9999970703126,2|2|2,0:3|0:3|0:3,0:0:0:0:
312,247,16545,5,2,0:3:0:0:
195,361,16940,1,2,0:3:0:0:
195,361,17137,1,0,0:0:0:0:
51,285,17532,1,0,0:0:0:0:
78,124,17927,1,0,0:0:0:0:
239,99,18321,1,0,0:0:0:0:
239,99,18519,1,2,0:3:0:0:
400,81,18913,6,0,P|407:102|434:121,1,47.9999985351563,2|0,0:3|0:0,0:0:0:0:
421,200,19308,2,0,P|398:195|368:209,1,47.9999985351563,2|0,0:3|0:0,0:0:0:0:
307,158,19703,1,2,0:3:0:0:
307,158,20098,2,0,P|322:140|325:107,1,47.9999985351563,2|0,0:3|0:0,0:0:0:0:
173,24,20492,6,0,P|188:95|198:172,1,143.999995605469,2|0,0:3|0:0,0:0:0:0:
31,161,21479,1,0,0:0:0:0:
31,161,21677,2,0,P|22:115|15:63,1,95.9999970703126,2|2,0:3|0:3,0:0:0:0:
173,24,22466,1,2,0:3:0:0:
201,357,22861,6,0,L|253:365,1,47.9999985351563,2|0,0:3|0:0,0:0:0:0:
260,283,23255,2,0,L|208:275,1,47.9999985351563,2|0,0:3|0:0,0:0:0:0:
98,138,23650,1,2,0:3:0:0:
51,233,23848,2,0,P|79:237|98:225,1,47.9999985351563,0|2,0:0|0:3,0:0:0:0:
188,38,24242,6,0,P|132:30|94:54,1,95.9999970703126
99,48,24834,1,0,0:0:0:0:
255,199,25032,5,2,0:0:0:0:
331,134,25229,1,2,1:2:0:0:
267,58,25427,1,0,1:0:0:0:
190,122,25624,1,2,0:0:0:0:
190,122,26019,6,0,P|128:148|29:130,1,167.999994873047,6|0,3:2|0:0,0:0:0:0:
220,287,26808,2,0,P|228:220|293:143,1,167.999994873047,8|0,0:0|3:0,0:0:0:0:
62,230,27598,2,0,P|115:270|149:365,1,167.999994873047,2|0,0:0|0:0,0:0:0:0:
337,318,28387,6,0,L|336:263,1,55.9999982910157,10|0,0:0|0:0,0:0:0:0:
414,261,28782,2,0,L|415:316,1,55.9999982910157,0|0,3:0|0:0,0:0:0:0:
244,339,29177,6,0,L|198:172,1,167.999994873047,2|0,3:2|0:0,0:0:0:0:
138,78,29966,2,0,L|304:121,1,167.999994873047,8|0,0:0|3:0,0:0:0:0:
417,116,30755,2,0,L|295:238,1,167.999994873047,2|0,0:0|0:0,0:0:0:0:
150,309,31545,6,0,L|94:324,1,55.9999982910157,8|0,0:0|0:0,0:0:0:0:
122,196,31940,5,2,0:0:0:0:
30,168,32137,1,2,0:0:0:0:
252,150,32334,6,0,P|209:91|251:6,1,167.999994873047,0|0,3:0|0:0,0:0:0:0:
332,142,33124,2,0,P|404:134|457:213,1,167.999994873047,8|0,0:0|3:0,0:0:0:0:
298,215,33913,2,0,P|268:281|173:287,1,167.999994873047,2|0,0:0|0:0,0:0:0:0:
100,221,34703,6,0,L|43:232,1,55.9999982910157,8|0,0:0|0:0,0:0:0:0:
47,377,35098,2,0,L|104:366,1,55.9999982910157,0|0,3:0|0:0,0:0:0:0:
201,187,35492,5,0,3:0:0:0:
122,117,35690,2,0,P|58:105|35:51,1,111.999996582031,2|0,0:0|0:0,0:0:0:0:
216,14,36282,1,8,0:0:0:0:
326,24,36479,2,0,P|342:27|347:40,2,27.9999991455078,2|2|2,0:3|0:3|0:3,0:0:0:0:
321,174,36874,6,0,P|363:164|419:158,1,83.9999974365235,2|0,3:2|0:0,0:0:0:0:
458,215,37269,2,0,P|461:228|463:247,2,27.9999991455078,2|2|2,0:3|0:3|0:3,0:0:0:0:
354,78,37663,1,2,0:3:0:0:
354,78,37762,1,2,0:3:0:0:
354,78,37861,2,0,P|347:50|343:12,1,55.9999982910157,8|0,0:0|3:0,0:0:0:0:
169,23,38255,1,2,0:0:0:0:
169,23,38650,6,0,P|83:60|-10:127,1,192,6|0,3:2|0:0,0:0:0:0:
237,251,39440,2,0,P|247:158|236:43,1,192,8|0,0:0|3:0,0:0:0:0:
5,195,40229,2,0,P|80:250|184:298,1,192,2|2,0:3|0:3,0:0:0:0:
362,348,41019,1,8,0:0:0:0:
362,348,41117,1,2,0:3:0:0:
362,348,41216,1,2,0:3:0:0:
379,244,41413,2,0,P|345:240|303:262,1,64,2|2,3:0|0:3,0:0:0:0:
125,182,41808,6,0,P|185:101|194:5,1,192,2|0,0:3|0:0,0:0:0:0:
267,98,42598,2,0,P|306:190|385:246,1,192,8|0,0:0|3:0,0:0:0:0:
268,262,43387,2,0,P|168:250|80:290,1,192,2|2,0:3|0:3,0:0:0:0:
42,119,44177,5,8,0:0:0:0:
42,119,44275,1,2,0:3:0:0:
42,119,44374,2,0,L|35:76,1,32,2|2,0:3|0:3,0:0:0:0:
108,58,44571,6,0,L|97:-6,2,42.6666666666667,0|2|2,1:0|0:3|0:3,0:0:0:0:
211,89,44966,6,0,P|248:79|271:45,1,64,2|2,0:3|0:3,0:0:0:0:
377,124,45361,2,0,P|367:161|385:197,1,64,2|0,0:3|0:3,0:0:0:0:
263,250,45755,2,0,P|235:222|194:220,2,64,8|2|2,0:0|0:3|0:3,0:0:0:0:
284,157,46348,1,0,3:0:0:0:
336,361,46545,5,2,0:3:0:0:
430,373,46742,1,2,0:3:0:0:
443,279,46940,1,2,0:3:0:0:
348,266,47137,1,2,0:0:0:0:
164,266,47334,5,8,0:0:0:0:
164,266,47433,1,2,0:3:0:0:
164,266,47532,1,2,0:3:0:0:
69,279,47729,1,0,3:0:0:0:
128,355,47927,2,0,P|144:364|169:362,2,32,2|2|0,0:3|0:3|3:0,0:0:0:0:
105,190,48321,6,0,B|87:152|98:128|105:128|118:99|92:60,1,128,0|2,0:0|0:0,0:0:0:0:
240,14,48913,5,8,0:0:0:0:
353,40,49111,1,2,0:0:0:0:
273,124,49308,1,2,0:3:0:0:
332,199,49505,6,0,B|347:271|275:290|267:286|194:315|206:380,1,239.999992675781,2|2,3:2|0:0,0:0:0:0:
40,304,50690,6,0,P|38:283|30:263,2,32,2|0|0,0:0|0:0|1:0,0:0:0:0:
161,222,51084,2,0,P|156:206|155:190,1,32,2|0,3:2|0:0,0:0:0:0:
43,79,51282,6,0,P|179:105|285:14,1,287.999991210938,6|0,3:2|0:0,0:0:0:0:
482,57,52071,1,0,1:0:0:0:
384,138,52269,6,0,L|358:143,4,20,2|0|2|0|2,0:0|0:0|0:3|0:0|0:3,0:0:0:0:
253,365,52663,6,0,B|238:332|254:294|258:296|275:256|258:217,1,143.999995605469,6|0,3:2|0:0,0:0:0:0:
262,148,53058,5,2,0:0:0:0:
262,148,53157,1,2,0:3:0:0:
262,148,53255,2,0,P|250:104|252:67,1,80,0|0,3:0|0:0,0:0:0:0:
87,13,53650,1,0,1:0:0:0:
14,98,53848,2,0,P|19:119|18:138,1,40,2|0,0:0|0:0,0:0:0:0:
126,128,54045,2,0,P|106:162|78:190,1,80,4|0,3:2|0:0,0:0:0:0:
3,366,54440,6,0,P|77:310|181:301,1,191.999994140625,6|0,3:2|0:0,0:0:0:0:
338,299,55032,2,0,P|409:306|466:349,1,143.999995605469,2|0,0:0|0:0,0:0:0:0:
389,381,55427,6,0,P|377:379|367:372,4,20,2|0|2|0|8,0:0|0:0|0:3|0:0|0:3,0:0:0:0:
507,140,55821,6,0,B|501:88|473:74|472:79|442:60|434:8,1,143.999995605469,6|0,3:2|0:0,0:0:0:0:
361,27,56216,5,2,0:0:0:0:
361,27,56315,1,2,0:3:0:0:
361,27,56413,2,0,B|333:46|333:67|337:66|336:90|309:112,1,80,2|0,0:0|0:0,0:0:0:0:
141,129,56808,1,0,1:0:0:0:
72,52,57005,2,0,P|58:26|55:5,2,40,2|0|0,0:0|0:0|3:0,0:0:0:0:
210,206,57400,2,0,P|223:231|226:252,1,40,2|0,0:0|0:0,0:0:0:0:
97,356,57598,6,0,B|56:375|33:339|30:294|112:289|134:199|61:130|5:186|24:224,1,287.999991210938,6|0,3:2|0:0,0:0:0:0:
223,325,58387,1,0,1:0:0:0:
373,274,58584,6,0,P|385:260|387:243,4,20,2|0|2|0|2,0:0|0:0|0:3|0:0|0:3,0:0:0:0:
175,145,58979,6,0,P|104:113|96:51,1,143.999995605469,6|0,3:2|0:0,0:0:0:0:
173,32,59374,5,2,0:0:0:0:
173,32,59473,1,2,0:3:0:0:
173,32,59571,2,0,P|215:51|220:88,1,80,0|0,3:0|0:0,0:0:0:0:
407,127,59966,1,0,1:0:0:0:
393,225,60163,2,0,P|417:219|444:223,1,40,2|0,0:0|0:0,0:0:0:0:
439,25,60361,2,0,P|389:36|337:29,1,80,4|0,3:2|0:0,0:0:0:0:
86,16,60755,6,0,B|67:63|104:108|113:104|147:153|113:197,1,191.999994140625,6|0,3:2|0:0,0:0:0:0:
332,374,61348,2,0,B|346:338|317:304|311:307|285:270|311:238,1,143.999995605469,2|0,0:0|0:0,0:0:0:0:
319,165,61742,6,0,P|313:151|300:148,4,20,2|0|2|0|8,0:0|0:0|0:3|0:0|0:3,0:0:0:0:
143,317,62137,6,0,P|91:357|5:365,1,143.999995605469,6|0,3:2|0:0,0:0:0:0:
15,284,62532,5,2,0:0:0:0:
23,292,62630,1,2,0:3:0:0:
23,292,62729,1,2,0:3:0:0:
84,144,62927,1,2,0:0:0:0:
232,205,63124,1,0,1:0:0:0:
293,118,63321,6,0,P|291:94|298:72,2,40,2|0|0,0:0|0:0|1:0,0:0:0:0:
438,107,63716,2,0,P|459:117|475:134,1,40,2|0,0:0|0:0,0:0:0:0:
375,237,63913,6,0,B|282:229|258:302|265:316|230:386|139:367,1,287.999991210938,2|0,3:2|0:0,0:0:0:0:
361,337,64703,1,0,1:0:0:0:
333,144,64900,6,0,L|329:113,4,20,2|0|2|0|2,0:0|0:0|0:3|0:0|0:3,0:0:0:0:
141,19,65295,6,0,P|178:63|203:154,1,143.999995605469,6|0,3:2|0:0,0:0:0:0:
168,216,65690,5,2,0:0:0:0:
168,216,65788,1,2,0:3:0:0:
168,216,65887,2,0,P|138:240|78:257,1,80,0|0,3:0|0:0,0:0:0:0:
37,79,66282,1,0,1:0:0:0:
208,63,66479,2,0,P|223:51|253:42,1,40,2|0,0:0|0:0,0:0:0:0:
301,193,66677,2,0,P|277:163|260:103,1,80,4|0,3:2|0:0,0:0:0:0:
496,30,67071,6,0,B|427:38|400:187|448:188|453:151,1,191.999994140625,6|0,3:2|0:0,0:0:0:0:
342,358,67663,2,0,B|393:351|413:239|378:239|374:267,1,143.999995605469,2|0,0:0|0:0,0:0:0:0:
301,288,68058,6,0,P|289:288|280:278,4,20,2|0|2|0|8,0:0|0:0|0:3|0:0|0:3,0:0:0:0:
164,133,68453,6,0,P|102:135|13:183,1,143.999995605469,6|0,3:2|0:0,0:0:0:0:
85,237,68848,5,2,0:0:0:0:
85,237,68946,1,2,0:3:0:0:
85,237,69045,2,0,P|116:236|160:212,1,80,2|0,0:0|0:0,0:0:0:0:
354,171,69440,1,0,1:0:0:0:
343,274,69637,2,0,P|339:296|352:325,2,40,2|0|0,0:0|0:0|3:0,0:0:0:0:
230,370,70032,2,0,P|213:359|202:342,1,40,2|0,0:0|0:0,0:0:0:0:
49,323,70229,6,0,B|-5:258|53:189|43:192|88:109|25:39,1,287.999991210938,6|0,3:2|0:0,0:0:0:0:
255,132,71019,1,0,1:0:0:0:
327,35,71216,6,0,L|331:8,4,20,2|0|2|0|2,0:0|0:0|0:3|0:0|0:3,0:0:0:0:
157,186,71611,6,0,B|150:295|169:318|203:325,1,143.999995605469,6|0,3:2|0:0,0:0:0:0:
269,356,72005,5,2,0:0:0:0:
269,356,72104,1,2,0:3:0:0:
269,356,72203,2,0,B|273:290|261:276|241:272,1,80,0|0,3:0|0:0,0:0:0:0:
427,105,72598,1,0,1:0:0:0:
286,178,72795,2,0,P|265:160|244:152,1,40,2|0,0:0|0:0,0:0:0:0:
172,31,72992,2,0,P|214:67|256:83,1,80,6|0,3:2|0:0,0:0:0:0:
143,268,73387,6,0,P|63:289|5:393,1,191.999994140625,6|0,3:2|0:0,0:0:0:0:
14,194,73979,2,0,P|74:178|117:100,1,143.999995605469,2|0,0:0|0:0,0:0:0:0:
55,65,74374,6,0,P|48:73|46:89,4,20,2|0|2|0|8,0:0|0:0|0:3|0:0|0:3,0:0:0:0:
254,22,74769,6,0,B|231:60|254:96|260:92|285:117|261:159,1,143.999995605469,6|0,3:2|0:0,0:0:0:0:
335,203,75163,5,8,0:3:0:0:
335,203,75262,1,8,0:3:0:0:
335,203,75361,2,0,P|360:231|359:283,1,80,0|8,1:0|0:3,0:0:0:0:
256,365,75755,1,8,0:3:0:0:
256,365,75854,1,8,0:3:0:0:
256,365,75953,1,0,1:0:0:0:
148,271,76150,6,0,P|150:248|165:230,1,47.9999985351563,2|0,0:0|0:0,0:0:0:0:
182,36,76545,6,0,B|128:37|99:83|105:89|71:130|18:127,1,192,6|0,3:2|0:0,0:0:0:0:
43,18,76940,2,0,B|53:67|101:89|105:82|157:98|172:149,1,192,0|0,3:0|0:0,0:0:0:0:
143,264,77334,6,0,P|107:231|108:176,1,95.9999970703126,0|0,1:0|0:0,0:0:0:0:
225,206,77630,2,0,P|214:253|166:280,1,95.9999970703126,0|0,3:0|0:0,0:0:0:0:
172,149,77927,1,2,3:2:0:0:
172,149,78321,6,0,L|135:117,1,32,2|2,0:3|0:3,0:0:0:0:
101,61,78519,2,0,L|218:19,1,96,0|0,3:0|0:0,0:0:0:0:
273,23,78913,5,0,1:0:0:0:
273,23,79012,1,2,0:0:0:0:
449,38,79209,1,0,3:0:0:0:
449,38,79308,1,2,0:0:0:0:
347,183,79505,1,0,3:0:0:0:
421,364,79703,6,0,P|315:324|279:248,1,192,6|0,3:2|0:0,0:0:0:0:
193,213,80098,2,0,P|299:253|335:329,1,192,0|0,3:0|0:0,0:0:0:0:
238,357,80492,6,0,L|141:346,1,95.9999970703126,0|0,1:0|0:0,0:0:0:0:
61,383,80788,2,0,L|119:304,1,95.9999970703126,0|0,3:0|0:0,0:0:0:0:
126,216,81084,1,2,3:2:0:0:
126,215,81479,6,0,L|138:245,1,32,2|2,0:3|0:3,0:0:0:0:
212,275,81677,2,0,L|250:185,1,96,0|0,3:0|0:0,0:0:0:0:
284,117,82071,5,0,1:0:0:0:
284,117,82170,1,2,0:0:0:0:
161,34,82367,1,0,3:0:0:0:
161,34,82466,1,2,0:0:0:0:
42,130,82663,1,0,3:0:0:0:
165,213,82861,6,0,P|229:277|268:386,1,192,6|0,3:2|0:0,0:0:0:0:
184,370,83255,2,0,P|218:281|284:212,1,192,0|0,3:0|0:0,0:0:0:0:
340,154,83650,6,0,L|326:57,1,95.9999970703126,0|0,1:0|0:0,0:0:0:0:
214,100,83946,2,0,L|305:136,1,95.9999970703126,0|0,3:0|0:0,0:0:0:0:
323,17,84242,1,2,3:2:0:0:
323,17,84637,6,0,L|296:38,1,32,2|2,0:3|0:3,0:0:0:0:
415,7,84834,2,0,L|376:102,1,96,0|0,3:0|0:0,0:0:0:0:
351,171,85229,5,0,1:0:0:0:
351,171,85328,1,2,0:0:0:0:
195,188,85525,1,0,3:0:0:0:
195,188,85624,1,2,0:0:0:0:
234,347,85821,1,0,3:0:0:0:
390,330,86019,6,0,P|467:355|506:256,1,192,6|0,3:2|0:0,0:0:0:0:
430,257,86413,2,0,P|353:232|314:331,1,192,0|0,3:0|0:0,0:0:0:0:
234,347,86808,6,0,P|193:327|137:327,1,95.9999970703126,0|0,1:0|0:0,0:0:0:0:
58,370,87104,2,0,P|95:344|123:295,1,95.9999970703126,0|0,3:0|2:0,0:0:0:0:
126,206,87400,1,2,3:2:0:0:
126,206,87795,6,0,L|120:158,1,32,2|2,0:3|0:3,0:0:0:0:
55,136,87992,5,0,1:0:0:0:
170,15,88190,1,2,0:0:0:0:
332,54,88387,6,0,P|379:61|429:93,1,95.9999970703126,0|0,1:0|3:0,0:0:0:0:
304,169,88683,1,0,3:0:0:0:
304,169,88782,2,0,P|295:146|295:122,1,47.9999985351563,2|0,1:2|0:0,0:0:0:0:
411,160,88979,2,0,P|397:179|376:191,1,47.9999985351563,0|0,3:0|0:0,0:0:0:0:
177,175,89177,6,0,B|163:218|198:265|194:269|230:314|215:369,1,192,6|0,3:2|0:0,0:0:0:0:
115,318,89571,2,0,B|161:316|193:268|198:270|232:222|277:222,1,192,0|0,3:0|0:0,0:0:0:0:
347,256,89966,6,0,L|453:279,1,95.9999970703126,0|0,1:0|0:0,0:0:0:0:
509,180,90262,2,0,L|436:260,1,95.9999970703126,0|0,3:0|0:0,0:0:0:0:
493,358,90558,1,2,3:2:0:0:
493,358,90953,6,0,L|481:323,1,32,2|2,0:3|0:3,0:0:0:0:
416,381,91150,2,0,L|382:277,1,96,0|0,3:0|0:0,0:0:0:0:
364,219,91545,5,0,1:0:0:0:
364,219,91644,1,2,0:0:0:0:
391,53,91841,1,0,3:0:0:0:
391,53,91940,1,2,0:0:0:0:
460,149,92137,1,0,3:0:0:0:
294,122,92334,6,0,P|252:117|83:152,1,192,6|0,3:2|0:0,0:0:0:0:
174,206,92729,2,0,P|200:114|251:34,1,192,0|0,3:0|0:0,0:0:0:0:
164,15,93124,6,0,L|56:24,1,95.9999970703126,0|0,1:0|0:0,0:0:0:0:
96,159,93420,2,0,L|141:61,1,95.9999970703126,0|0,3:0|0:0,0:0:0:0:
13,35,93716,1,2,3:2:0:0:
13,35,94111,6,0,L|33:64,1,32,2|2,0:3|0:3,0:0:0:0:
14,136,94308,2,0,L|74:223,1,96,0|0,3:0|0:0,0:0:0:0:
120,279,94703,5,0,1:0:0:0:
120,279,94802,1,2,0:0:0:0:
297,303,94999,1,0,3:0:0:0:
297,303,95098,1,2,0:0:0:0:
153,361,95295,1,0,3:0:0:0:
263,220,95492,6,0,P|286:116|284:30,1,192,6|0,3:2|0:0,0:0:0:0:
192,108,95887,2,0,P|295:131|382:129,1,192,0|0,3:0|0:0,0:0:0:0:
431,190,96282,6,0,L|371:271,1,95.9999970703126,0|0,1:0|0:0,0:0:0:0:
456,339,96578,2,0,L|415:247,1,95.9999970703126,0|0,3:0|0:0,0:0:0:0:
312,287,96874,1,2,3:2:0:0:
312,287,97269,6,0,L|351:291,1,32,2|2,0:3|0:3,0:0:0:0:
285,377,97466,2,0,L|404:358,1,96,0|0,3:0|0:0,0:0:0:0:
456,339,97861,5,0,1:0:0:0:
456,339,97959,1,2,0:0:0:0:
477,149,98157,1,0,3:0:0:0:
477,149,98255,1,2,0:0:0:0:
357,246,98453,1,0,3:0:0:0:
378,56,98650,6,0,B|320:34|285:67|288:73|259:101|197:82,1,192,6|0,3:2|0:0,0:0:0:0:
94,18,99045,2,0,B|103:79|150:93|153:87|192:98|207:161,1,192,0|0,3:0|0:0,0:0:0:0:
271,113,99440,6,0,P|276:66|304:24,1,95.9999970703126,0|0,1:0|0:0,0:0:0:0:
375,142,99736,2,0,P|332:162|281:158,1,95.9999970703126,0|0,3:0|0:0,0:0:0:0:
348,39,100032,6,0,B|499:1|521:122|529:227|541:267|449:297|413:244|432:201,1,431.999986816407,6|6,3:2|0:0,0:0:0:0:
256,192,114045,5,2,0:0:0:0:
63,49,114440,6,0,P|89:149|65:238,1,192,6|2,3:2|0:0,0:0:0:0:
42,371,115229,2,0,P|115:297|205:274,1,192,0|2,3:0|0:0,0:0:0:0:
332,229,116019,2,0,P|231:201|166:136,1,192,0|2,3:0|0:0,0:0:0:0:
314,91,116808,6,0,P|301:57|307:19,1,64,0|2,3:0|0:0,0:0:0:0:
456,51,117203,5,2,0:3:0:0:
472,148,117400,1,2,0:0:0:0:
373,269,117598,6,0,L|187:339,1,192,0|2,3:0|0:0,0:0:0:0:
146,95,118387,2,0,L|299:221,1,192,0|2,3:0|0:0,0:0:0:0:
107,380,119177,2,0,L|139:183,1,192,0|2,3:0|0:0,0:0:0:0:
5,129,119966,5,0,3:0:0:0:
112,106,120163,1,2,0:0:0:0:
269,251,120361,5,2,0:3:0:0:
162,274,120558,1,2,0:0:0:0:
275,134,120755,6,0,P|353:156|391:257,1,192,0|2,3:0|0:0,0:0:0:0:
178,234,121545,2,0,P|158:155|226:72,1,192,0|2,3:0|0:0,0:0:0:0:
314,267,122334,2,0,P|255:323|149:305,1,192,0|2,3:0|0:0,0:0:0:0:
56,175,123124,6,0,P|89:170|117:188,1,64,0|2,3:0|0:0,0:0:0:0:
271,138,123519,5,2,0:3:0:0:
288,33,123716,2,0,P|285:16|294:2,1,32,2|0,0:0|0:0,0:0:0:0:
413,36,123913,5,0,3:0:0:0:
405,46,124111,1,0,0:0:0:0:
393,50,124308,1,2,0:3:0:0:
493,170,124505,6,0,P|437:141|376:155,1,128,2|0,0:0|0:0,0:0:0:0:
393,255,125098,1,0,0:3:0:0:
293,340,125295,2,0,P|348:368|410:355,1,128,0|2,3:0|0:0,0:0:0:0:
410,355,126084,5,0,3:0:0:0:
410,355,126183,1,2,0:3:0:0:
410,355,126282,1,2,0:3:0:0:
511,254,126479,1,0,3:0:0:0:
410,153,126677,1,2,0:3:0:0:
410,153,127071,6,0,P|408:74|340:14,1,167.999994873047,0|0,3:0|0:0,0:0:0:0:
271,215,127861,2,0,P|340:252|426:223,1,167.999994873047,2|0,0:0|0:0,0:0:0:0:
286,63,128650,2,0,P|218:104|200:193,1,167.999994873047,2|0,0:0|0:0,0:0:0:0:
98,276,129440,6,0,L|36:283,1,55.9999982910157,2|0,0:0|0:0,0:0:0:0:
43,361,129834,2,0,L|105:354,1,55.9999982910157,8|0,0:0|0:0,0:0:0:0:
239,316,130229,6,0,P|312:333|431:372,1,167.999994873047,2|0,0:0|0:0,0:0:0:0:
341,261,131019,2,0,P|319:189|293:66,1,167.999994873047,2|0,0:0|0:0,0:0:0:0:
243,201,131808,2,0,P|191:255|98:339,1,167.999994873047,2|0,0:0|0:0,0:0:0:0:
17,228,132598,6,0,P|7:198|12:172,1,55.9999982910157,2|0,0:0|0:0,0:0:0:0:
125,47,132992,5,8,0:0:0:0:
135,143,133189,1,2,0:0:0:0:
265,193,133387,6,0,P|322:138|297:46,1,167.999994873047,8|0,0:0|0:0,0:0:0:0:
221,260,134177,2,0,P|143:237|76:305,1,167.999994873047,2|0,0:0|0:0,0:0:0:0:
299,266,134966,2,0,P|317:343|409:367,1,167.999994873047,2|0,0:0|0:0,0:0:0:0:
487,257,135755,5,8,0:0:0:0:
475,172,135953,1,2,0:0:0:0:
390,184,136150,1,8,0:0:0:0:
403,269,136348,1,2,0:0:0:0:
417,76,136545,6,0,B|351:48|271:109|289:143|220:182|159:134,1,279.999991455078,6|0,3:2|0:0,0:0:0:0:
23,272,137927,6,0,B|102:246|182:303|198:329|146:397|92:391|73:342,1,279.999991455078,2|2,3:2|0:0,0:0:0:0:
436,350,139308,5,2,1:2:0:0:
256,325,139505,1,0,3:0:0:0:
153,197,139703,6,0,B|101:176|64:107|119:22|219:6|224:108|205:125,1,287.999991210938,6|2,3:2|0:0,0:0:0:0:
26,193,140492,1,0,1:2:0:0:
146,286,140690,6,0,L|176:285,4,20,2|0|2|0|2,0:0|0:0|0:3|0:0|0:3,0:0:0:0:
325,184,141084,6,0,P|397:204|443:253,1,143.999995605469,6|0,3:2|0:0,0:0:0:0:
509,208,141479,5,2,0:0:0:0:
509,208,141578,1,2,0:3:0:0:
509,208,141677,2,0,P|496:159|509:116,1,80,0|0,3:0|0:0,0:0:0:0:
353,71,142071,6,0,P|356:44|348:19,2,53.3333333333333,2|2|2,1:2|0:3|0:3,0:0:0:0:
285,112,142466,5,6,3:2:0:0:
232,105,142597,5,2,0:3:0:0:
183,83,142729,5,2,0:3:0:0:
144,47,142861,6,0,B|54:11|17:167|122:221|69:268|11:214,1,287.999991210938,6|2,3:2|0:0,0:0:0:0:
236,360,143650,1,0,1:0:0:0:
65,341,143848,6,0,L|62:309,4,20,2|0|2|0|8,0:0|0:0|0:3|0:0|0:3,0:0:0:0:
216,233,144242,6,0,P|219:179|262:96,1,143.999995605469,6|0,3:2|0:0,0:0:0:0:
307,40,144637,5,2,0:0:0:0:
307,40,144736,1,2,0:3:0:0:
307,40,144834,2,0,P|334:57|364:104,1,80,2|2,0:3|0:0,0:0:0:0:
512,184,145229,1,0,1:0:0:0:
477,279,145427,2,0,P|455:280|439:301,1,40,0|0,3:0|0:0,0:0:0:0:
295,288,145624,1,2,0:0:0:0:
267,315,145722,1,2,0:0:0:0:
264,354,145821,1,2,0:0:0:0:
37,373,146019,6,0,B|71:328|15:239|7:244|-37:153|15:94,1,287.999991210938,6|2,3:2|0:0,0:0:0:0:
249,193,146808,1,0,1:0:0:0:
258,41,147005,6,0,L|262:9,4,20,2|0|2|0|2,0:0|0:0|0:3|0:0|0:3,0:0:0:0:
92,164,147400,6,0,P|156:123|152:57,1,143.999995605469,6|0,3:2|0:0,0:0:0:0:
72,52,147795,5,2,0:0:0:0:
79,60,147894,1,2,0:3:0:0:
79,60,147992,2,0,P|35:86|38:131,1,80,0|0,3:0|0:0,0:0:0:0:
133,258,148387,1,0,1:0:0:0:
58,343,148584,2,0,P|55:318|50:298,1,40,2|0,0:0|0:0,0:0:0:0:
228,281,148782,2,0,P|219:320|215:359,1,80,4|0,3:2|0:0,0:0:0:0:
170,155,149177,6,0,P|246:45|375:86,1,287.999991210938,6|2,3:2|0:0,0:0:0:0:
323,295,149966,1,0,1:0:0:0:
292,178,150163,6,0,L|286:155,4,20,2|0|2|0|8,0:0|0:0|0:3|0:0|0:3,0:0:0:0:
120,233,150558,6,0,P|92:300|21:304,1,143.999995605469,6|0,3:2|0:0,0:0:0:0:
14,233,150953,5,2,0:0:0:0:
14,233,151052,1,2,0:3:0:0:
14,233,151150,1,8,0:0:0:0:
25,113,151348,1,0,3:0:0:0:
211,218,151545,5,0,1:0:0:0:
200,338,151743,1,0,3:0:0:0:
359,287,151940,6,0,P|382:286|403:278,2,40,2|0|2,1:2|0:0|0:0,0:0:0:0:
352,7,152334,6,0,B|253:57|345:186|480:159,1,287.999991210938,6|2,3:2|0:0,0:0:0:0:
397,370,153124,1,0,1:0:0:0:
296,220,153321,6,0,L|293:195,4,20,2|0|2|0|2,0:0|0:0|0:3|0:0|0:3,0:0:0:0:
165,107,153716,6,0,B|214:82|168:17|101:31,1,143.999995605469,6|0,3:2|0:0,0:0:0:0:
26,41,154111,5,2,0:0:0:0:
26,41,154209,1,2,0:3:0:0:
26,41,154308,2,0,B|-6:57|23:100|68:91,1,80,0|0,3:0|0:0,0:0:0:0:
221,173,154703,6,0,P|241:160|281:144,2,53.3333333333333,2|2|2,1:2|0:3|0:3,0:0:0:0:
187,245,155098,5,6,3:2:0:0:
142,274,155229,5,2,0:3:0:0:
94,297,155361,5,2,0:3:0:0:
44,315,155492,6,0,P|12:238|29:120,1,191.999994140625,6|0,3:2|0:0,0:0:0:0:
250,39,156084,2,0,P|274:96|261:185,1,143.999995605469,6|0,3:2|0:0,0:0:0:0:
226,240,156479,6,0,L|176:246,1,40,2|2,0:0|0:3,0:0:0:0:
109,253,156677,1,8,0:3:0:0:
27,90,156874,6,0,B|-3:85|30:-5|118:30,1,143.999995605469,6|0,3:2|0:0,0:0:0:0:
118,111,157269,5,2,0:0:0:0:
118,111,157367,1,2,0:3:0:0:
118,111,157466,2,0,B|137:114|116:174|57:150,1,80,2|0,0:3|3:0,0:0:0:0:
248,27,157861,6,0,L|319:37,1,55.9999982910157,2|0,1:2|0:0,0:0:0:0:
472,108,158255,2,0,L|417:101,1,55.9999982910157,2|0,0:0|0:0,0:0:0:0:
221,206,158650,6,0,P|340:199|458:325,1,287.999991210938,6|2,3:2|0:0,0:0:0:0:
237,371,159440,1,0,1:0:0:0:
321,300,159637,6,0,L|323:269,4,20,2|0|2|0|2,0:0|0:0|0:3|0:0|0:3,0:0:0:0:
110,342,160032,6,0,B|121:300|101:270|98:271|84:241|101:201,1,143.999995605469,6|0,3:2|0:0,0:0:0:0:
108,126,160427,5,2,0:0:0:0:
108,126,160525,1,2,0:3:0:0:
108,126,160624,2,0,B|114:115|105:95|103:96|90:76|97:48,1,80,0|0,3:2|0:0,0:0:0:0:
2,221,161019,1,0,1:0:0:0:
189,238,161216,2,0,L|246:231,1,40,2|0,0:0|0:0,0:0:0:0:
250,102,161413,2,0,L|356:58,1,80,4|0,3:2|0:0,0:0:0:0:
331,276,161808,6,0,B|417:244|411:171|398:169|422:65|495:61,1,287.999991210938,6|2,3:2|0:0,0:0:0:0:
315,176,162598,1,0,1:0:0:0:
183,39,162795,6,0,L|174:10,4,20,2|0|2|0|8,0:0|0:0|0:3|0:0|0:3,0:0:0:0:
35,84,163190,6,0,P|74:99|123:103,1,80,4|0,3:2|3:0,0:0:0:0:
283,76,163584,1,8,0:3:0:0:
283,76,163683,1,8,0:3:0:0:
283,76,163782,2,0,P|321:59|358:27,1,80,0|8,1:0|0:3,0:0:0:0:
507,155,164177,1,8,0:3:0:0:
507,155,164275,1,8,0:3:0:0:
507,155,164374,1,0,1:0:0:0:
434,224,164571,6,0,P|431:249|441:276,1,47.9999985351563,2|0,0:0|0:0,0:0:0:0:
245,351,164966,6,0,P|278:195|264:151,1,192,6|0,3:2|0:0,0:0:0:0:
255,45,165361,2,0,P|222:201|236:245,1,192,0|0,3:0|0:0,0:0:0:0:
164,271,165755,6,0,L|68:245,1,95.9999970703126,0|0,1:0|0:0,0:0:0:0:
0,285,166052,2,0,L|70:214,1,95.9999970703126,0|0,3:0|0:0,0:0:0:0:
69,136,166348,1,2,3:2:0:0:
69,136,166742,6,0,L|77:168,1,32,2|2,0:3|0:3,0:0:0:0:
142,109,166940,2,0,L|116:12,1,96,0|0,3:0|0:0,0:0:0:0:
44,32,167334,5,0,1:0:0:0:
44,32,167433,1,2,0:0:0:0:
232,56,167630,1,0,3:0:0:0:
232,56,167729,1,2,0:0:0:0:
292,182,167927,1,0,3:0:0:0:
480,205,168124,6,0,B|532:134|517:64|458:40,1,192,6|0,3:2|0:0,0:0:0:0:
419,154,168519,2,0,B|367:225|382:295|441:319,1,192,0|0,3:0|0:0,0:0:0:0:
359,316,168913,6,0,P|310:330|269:357,1,95.9999970703126,0|0,1:0|0:0,0:0:0:0:
238,227,169209,2,0,P|274:261|318:283,1,95.9999970703126,0|0,3:0|0:0,0:0:0:0:
222,377,169505,1,2,3:2:0:0:
222,377,169900,6,0,P|225:360|225:344,1,32,2|2,0:3|0:3,0:0:0:0:
148,334,170098,2,0,P|159:285|157:236,1,96,0|0,3:0|0:0,0:0:0:0:
155,164,170492,5,0,1:0:0:0:
155,164,170591,1,2,0:0:0:0:
132,20,170788,1,0,3:0:0:0:
132,20,170887,1,2,0:0:0:0:
19,37,171084,1,0,3:0:0:0:
268,147,171282,6,0,B|335:165|359:146|359:141|397:114|458:143,1,192,6|0,3:2|0:0,0:0:0:0:
388,231,171677,2,0,B|396:168|358:140|354:141|328:124|325:55,1,192,0|0,3:0|0:0,0:0:0:0:
256,20,172071,6,0,P|241:64|181:96,1,95.9999970703126,0|0,1:0|0:0,0:0:0:0:
91,47,172367,2,0,P|136:37|194:73,1,95.9999970703126,0|0,3:0|0:0,0:0:0:0:
197,177,172663,1,2,3:2:0:0:
197,177,173058,6,0,P|186:165|187:142,1,32,2|2,0:3|0:3,0:0:0:0:
102,214,173255,2,0,P|92:168|128:110,1,96,0|0,3:0|0:0,0:0:0:0:
172,76,173650,5,0,1:0:0:0:
172,76,173749,1,2,0:0:0:0:
358,140,173946,1,0,3:0:0:0:
358,140,174045,1,2,0:0:0:0:
264,164,174242,1,0,3:0:0:0:
411,34,174440,6,0,P|335:55|228:13,1,192,6|0,3:2|0:0,0:0:0:0:
105,55,174834,2,0,P|181:34|288:76,1,192,0|0,3:0|0:0,0:0:0:0:
253,144,175229,6,0,L|276:259,1,95.9999970703126,0|0,1:0|0:0,0:0:0:0:
194,329,175525,2,0,L|282:251,1,95.9999970703126,0|0,3:0|0:0,0:0:0:0:
384,288,175821,1,2,3:2:0:0:
384,288,176216,6,0,L|420:300,1,32,2|2,0:3|0:3,0:0:0:0:
486,328,176413,5,0,1:0:0:0:
310,372,176611,1,2,0:0:0:0:
359,197,176808,6,0,P|367:149|360:101,1,95.9999970703126,0|0,1:0|3:0,0:0:0:0:
248,122,177104,1,0,3:0:0:0:
248,122,177203,2,0,P|266:137|289:146,1,47.9999985351563,2|0,1:2|0:0,0:0:0:0:
475,200,177400,2,0,P|452:208|433:223,1,47.9999985351563,0|0,3:0|0:0,0:0:0:0:
310,372,177598,6,0,P|292:281|206:231,1,192,6|0,3:2|0:0,0:0:0:0:
198,313,177992,2,0,P|289:295|339:209,1,192,0|0,3:0|0:0,0:0:0:0:
332,139,178387,6,0,L|237:149,1,95.9999970703126,0|0,1:0|0:0,0:0:0:0:
302,21,178683,2,0,L|358:98,1,95.9999970703126,0|0,3:0|0:0,0:0:0:0:
214,105,178979,1,2,3:2:0:0:
214,105,179374,6,0,L|226:75,1,32,2|2,0:3|0:3,0:0:0:0:
140,185,179571,2,0,L|130:90,1,96,2|0,3:2|0:0,0:0:0:0:
122,15,179966,5,0,1:0:0:0:
122,15,180065,1,2,0:0:0:0:
31,174,180262,1,0,3:0:0:0:
31,174,180361,1,2,0:0:0:0:
161,308,180558,1,0,3:0:0:0:
252,149,180755,6,0,B|289:123|344:153|331:296,1,192,6|0,3:2|0:0,0:0:0:0:
445,341,181150,2,0,B|408:367|353:337|366:194,1,192,0|0,3:0|0:0,0:0:0:0:
428,167,181545,6,0,P|476:151|495:105,1,95.9999970703126,0|0,1:0|0:0,0:0:0:0:
389,51,181841,2,0,P|378:100|409:140,1,95.9999970703126,0|0,3:0|0:0,0:0:0:0:
508,75,182137,1,2,3:2:0:0:
508,75,182532,6,0,P|495:63|478:66,1,32,2|2,0:3|0:3,0:0:0:0:
469,142,182729,2,0,P|421:157|402:203,1,96,0|0,3:0|0:0,0:0:0:0:
417,277,183124,5,0,1:0:0:0:
417,277,183223,1,2,0:0:0:0:
287,356,183420,1,0,3:0:0:0:
287,356,183519,1,0,3:0:0:0:
225,182,183716,1,0,3:0:0:0:
355,103,183913,6,0,B|291:97|262:66|263:62|244:30|181:19,1,192,6|0,3:2|0:0,0:0:0:0:
104,165,184308,2,0,B|141:112|182:102|185:105|222:105|263:56,1,192,0|0,3:0|0:0,0:0:0:0:
310,1,184703,6,0,P|357:8|400:39,1,95.9999970703126,0|0,1:0|0:0,0:0:0:0:
503,20,184999,2,0,P|472:57|424:78,1,95.9999970703126,0|0,3:0|0:0,0:0:0:0:
390,177,185295,1,2,3:2:0:0:
390,177,185690,6,0,P|384:162|386:144,1,32,2|2,0:3|0:3,0:0:0:0:
288,127,185887,2,0,P|305:171|299:224,1,96,0|0,3:0|0:0,0:0:0:0:
230,245,186282,5,0,1:0:0:0:
230,245,186380,1,2,0:0:0:0:
63,220,186578,1,0,3:0:0:0:
63,220,186676,1,2,0:0:0:0:
2,57,186874,1,0,3:0:0:0:
166,89,187071,6,0,B|249:134|295:117|315:44,1,192,4|0,3:2|0:0,0:0:0:0:
371,160,187466,2,0,B|417:78|400:31|327:11,1,192,0|0,3:0|0:0,0:0:0:0:
246,14,187861,6,0,P|206:37|156:36,1,95.9999970703126,0|0,1:0|0:0,0:0:0:0:
69,9,188157,2,0,P|108:32|133:75,1,95.9999970703126,0|0,3:0|0:0,0:0:0:0:
154,165,188453,6,0,B|154:119|171:80|268:109|319:173|141:221|101:275|154:384|271:384|295:293|223:250,1,431.999986816407,4|6,3:2|0:0,0:0:0:0:
