osu file format v14

[General]
AudioFilename: optc.ogg
AudioLeadIn: 0
PreviewTime: 54519
Countdown: 0
SampleSet: Soft
StackLeniency: 0.5
Mode: 0
LetterboxInBreaks: 0
WidescreenStoryboard: 0

[Editor]
Bookmarks: 1294,11616,21939,32261,42584,52906,55487,65810,76132,83874
DistanceSpacing: 1.2
BeatDivisor: 6
GridSize: 32
TimelineZoom: 3.699998

[Metadata]
Title:Unmei (TV Size)
TitleUnicode:運命 (TV Size)
Artist:AiRI
ArtistUnicode:AiRI
Creator:Shad0w1and
Version:Extreme
Source:魔乳秘剣帖
Tags:Manyuu Hikenchou Hiken Chou OppaiDaisuki Japanese Anime Pop Jpop Rin Sa Lunala Lasse Pata-Mon Asuka_-
BeatmapID:1607169
BeatmapSetID:764263

[Difficulty]
HPDrainRate:6
CircleSize:4
OverallDifficulty:8
ApproachRate:9.5
SliderMultiplier:1.8
SliderTickRate:1

[Events]
//Background and Video events
0,0,"BG.jpg",0,0
Video,0,"optc.flv"
//Break Periods
//Storyboard Layer 0 (Background)
//Storyboard Layer 1 (Fail)
//Storyboard Layer 2 (Pass)
//Storyboard Layer 3 (Foreground)
//Storyboard Layer 4 (Overlay)
//Storyboard Sound Samples

[TimingPoints]
1294,322.58064516129,4,2,1,40,1,0
9035,-100,4,2,1,60,0,0
11616,-80,4,2,1,80,0,0
18793,-80,4,2,1,60,0,0
19358,-80,4,2,1,50,0,0
20003,-80,4,2,1,60,0,0
21293,-80,4,2,1,50,0,0
21939,-100,4,2,1,60,0,0
29681,-100,4,2,1,80,0,0
29842,-200,4,2,1,80,0,0
30164,-100,4,2,1,80,0,0
30810,-200,4,2,1,80,0,0
31132,-100,4,2,1,80,0,0
31535,-100,4,2,1,60,0,0
31777,-100,4,2,1,80,0,0
32261,-100,4,2,1,60,0,0
42584,-80,4,2,1,80,0,0
45648,-133.333333333333,4,2,1,80,0,0
46293,-80,4,2,1,80,0,0
50326,-80,4,2,1,90,0,0
55487,-66.6666666666667,4,2,1,100,0,1
82906,-80,4,2,1,100,0,0
83874,-80,4,2,1,20,0,0
87745,-80,4,2,1,5,0,0

[Colours]
Combo1 : 224,203,116
Combo2 : 138,255,138
Combo3 : 220,121,249
Combo4 : 249,142,158

[HitObjects]
167,146,487,6,0,L|154:268,1,90
157,235,810,5,0,0:0:0:0:
167,146,971,1,0,0:0:0:0:
177,57,1132,1,0,0:0:0:0:
157,235,1294,6,0,L|270:235,1,90,10|0,0:3|0:0,0:0:0:0:
247,235,1535,1,0,0:0:0:0:
247,235,1616,1,0,0:0:0:0:
167,146,1777,1,2,0:0:0:0:
87,57,1939,2,0,L|177:57,1,90
167,146,2261,1,0,0:0:0:0:
48,211,2423,2,0,L|55:145,1,45
157,235,2584,6,0,L|170:121,1,90,2|0,0:0|0:0,0:0:0:0:
250,110,2906,2,0,L|144:155,1,90,0|2,0:0|0:0,0:0:0:0:
157,235,3229,1,0,0:0:0:0:
95,92,3390,2,0,L|187:160,1,90
250,109,3713,1,0,0:0:0:0:
157,235,3874,5,10,0:3:0:0:
167,145,4035,1,0,0:0:0:0:
95,92,4197,1,0,0:0:0:0:
12,126,4358,1,2,0:0:0:0:
157,235,4519,2,0,L|228:235,2,45,2|0|0,0:0|0:0|0:0,0:0:0:0:
250,109,4842,1,2,0:0:0:0:
175,59,5003,6,0,P|160:101|167:144,1,90,2|0,0:0|0:0,0:0:0:0:
150,321,5326,2,0,P|165:279|157:235,1,90,2|0,0:0|0:0,0:0:0:0:
86,178,5648,1,0,0:0:0:0:
75,271,5810,1,2,0:0:0:0:
250,109,5971,5,2,0:0:0:0:
95,92,6132,1,2,0:0:0:0:
157,235,6293,1,2,0:0:0:0:
312,251,6455,6,0,L|326:121,1,90,10|0,0:3|0:0,0:0:0:0:
322,161,6697,1,0,0:0:0:0:
322,161,6777,1,0,0:0:0:0:
157,235,6939,2,0,L|147:324,1,90,2|0,0:0|0:0,0:0:0:0:
178,56,7261,2,0,L|168:145,1,90,2|0,0:0|0:0,0:0:0:0:
50,92,7584,2,0,L|103:92,1,45,2|0,0:0|0:0,0:0:0:0:
95,92,7745,6,0,L|104:2,1,90,2|0,0:0|0:0,0:0:0:0:
86,178,8068,2,0,P|33:185|-24:150,1,90,2|0,0:0|0:0,0:0:0:0:
168,145,8390,2,0,P|221:138|278:173,1,90,2|0,0:0|0:0,0:0:0:0:
204,231,8713,1,2,0:0:0:0:
50,92,8874,1,2,0:0:0:0:
248,29,9035,6,0,L|323:29,2,60,2|0|0,0:0|0:0|0:0,0:0:0:0:
303,200,9358,6,0,L|312:110,1,90
415,156,9681,6,0,L|422:87,1,60
411,186,9842,2,0,L|406:234,1,30
337,292,10003,6,0,L|278:292,1,45
258,200,10164,2,0,L|303:200,1,45
201,291,10326,5,2,0:0:0:0:
156,290,10406,1,0,0:0:0:0:
116,270,10487,1,0,0:0:0:0:
88,234,10567,1,0,0:0:0:0:
79,191,10648,1,0,0:0:0:0:
89,147,10729,1,0,0:0:0:0:
116,112,10809,1,0,0:0:0:0:
156,93,10890,1,0,0:0:0:0:
201,92,10971,6,0,L|208:22,1,45,10|0,0:1|0:0,0:0:0:0:
309,165,11132,2,0,L|316:95,1,45,8|0,0:1|0:0,0:0:0:0:
417,238,11293,2,0,L|424:168,1,45,8|0,0:1|0:0,0:0:0:0:
199,213,11455,5,12,0:1:0:0:
199,213,11535,1,0,0:0:0:0:
199,213,11616,6,0,P|153:248|159:315,1,112.5,14|0,0:0|0:0,0:0:0:0:
150,299,11858,1,0,0:0:0:0:
150,299,11939,2,0,L|13:291,1,112.5,8|0,0:1|0:0,0:0:0:0:
309,165,12261,5,8,0:0:0:0:
150,299,12423,1,8,0:3:0:0:
113,94,12584,1,8,0:1:0:0:
309,165,12745,1,0,0:0:0:0:
309,165,12825,1,0,0:0:0:0:
309,165,12906,6,0,P|355:130|349:63,1,112.5,10|0,0:0|0:0,0:0:0:0:
358,79,13148,1,0,0:0:0:0:
358,79,13229,2,0,L|495:87,1,112.5,8|0,0:1|0:0,0:0:0:0:
199,213,13551,5,8,0:0:0:0:
358,79,13713,1,8,0:3:0:0:
395,284,13874,1,8,0:1:0:0:
375,313,13955,1,0,0:0:0:0:
342,323,14035,1,0,0:0:0:0:
309,308,14116,1,0,0:0:0:0:
294,276,14197,6,0,L|312:146,1,112.5,10|0,0:0|0:0,0:0:0:0:
54,181,14519,2,0,L|38:292,1,112.5,8|0,0:1|0:0,0:0:0:0:
176,64,14842,5,8,0:0:0:0:
294,276,15003,1,8,0:3:0:0:
54,181,15164,1,8,0:1:0:0:
358,79,15326,1,0,0:0:0:0:
358,79,15406,1,0,0:0:0:0:
358,79,15487,6,0,B|392:104|392:104|481:104,1,112.5,10|0,0:0|0:0,0:0:0:0:
294,276,15810,2,0,P|274:229|294:165,1,112.5,12|0,0:1|0:0,0:0:0:0:
289,171,16052,5,8,0:3:0:0:
275,205,16132,1,8,0:1:0:0:
277,243,16213,1,8,0:3:0:0:
294,276,16293,1,8,0:3:0:0:
370,219,16455,1,8,0:1:0:0:
167,119,16616,2,0,L|180:40,1,56.25,8|0,0:3|0:0,0:0:0:0:
176,64,16777,6,0,L|57:56,1,112.5,14|0,0:0|0:0,0:0:0:0:
64,56,17019,1,0,0:0:0:0:
64,56,17100,1,8,0:1:0:0:
199,213,17261,1,0,0:0:0:0:
176,64,17423,5,8,0:0:0:0:
38,292,17584,1,8,0:3:0:0:
309,164,17745,1,8,0:1:0:0:
54,181,17906,1,0,0:0:0:0:
294,276,18068,6,0,L|310:162,1,112.5,10|0,0:0|0:0,0:0:0:0:
310,164,18310,1,0,0:0:0:0:
310,164,18390,1,8,0:1:0:0:
150,299,18552,1,0,0:0:0:0:
189,67,18713,5,8,0:0:0:0:
217,32,18793,1,8,0:3:0:0:
258,13,18874,1,8,0:3:0:0:
303,13,18955,1,8,0:3:0:0:
343,30,19035,1,8,0:3:0:0:
372,64,19116,1,8,0:3:0:0:
384,107,19197,6,0,L|367:233,1,112.5,12|2,0:1|0:0,0:0:0:0:
289,172,19439,1,0,0:0:0:0:
289,172,19519,2,0,L|206:174,2,56.25
288,262,19761,2,0,L|205:264,2,56.25
150,299,20003,5,2,0:0:0:0:
120,282,20084,1,0,0:0:0:0:
97,257,20164,1,0,0:0:0:0:
84,227,20245,1,0,0:0:0:0:
81,193,20326,1,0,0:0:0:0:
90,161,20406,1,0,0:0:0:0:
108,133,20487,1,0,0:0:0:0:
135,112,20568,1,0,0:0:0:0:
166,101,20648,5,2,0:0:0:0:
159,157,20729,1,0,0:0:0:0:
186,208,20810,1,0,0:0:0:0:
236,235,20890,1,0,0:0:0:0:
293,229,20971,1,0,0:0:0:0:
337,190,21052,1,0,0:0:0:0:
351,134,21132,1,0,0:0:0:0:
330,80,21213,1,0,0:0:0:0:
282,48,21293,5,14,0:3:0:0:
246,106,21374,1,8,0:3:0:0:
210,164,21455,1,8,0:3:0:0:
173,222,21535,1,8,0:3:0:0:
142,161,21616,5,8,0:3:0:0:
210,164,21697,1,8,0:3:0:0:
279,167,21777,1,8,0:3:0:0:
348,169,21858,1,8,0:3:0:0:
417,172,21939,6,0,P|461:133|453:75,1,90,14|0,0:0|0:0,0:0:0:0:
348,169,22181,1,0,0:0:0:0:
348,169,22261,2,0,L|355:274,1,90,8|0,0:3|0:0,0:0:0:0:
206,210,22584,1,0,0:0:0:0:
348,169,22745,1,0,0:0:0:0:
100,114,22906,1,8,0:3:0:0:
288,311,23068,6,0,P|329:295|354:258,1,90,10|0,0:0|0:0,0:0:0:0:
208,120,23390,2,0,L|205:227,2,90,0|8|0,0:0|0:3|0:0,0:0:0:0:
348,169,23874,5,2,0:0:0:0:
205,209,24035,1,0,0:0:0:0:
394,87,24197,2,0,L|395:15,1,45,8|0,0:3|0:0,0:0:0:0:
433,170,24358,1,0,0:0:0:0:
433,170,24439,1,0,0:0:0:0:
433,170,24519,6,0,P|388:182|328:149,1,90,10|0,0:0|0:0,0:0:0:0:
506,19,24842,2,0,L|498:131,1,90,8|0,0:3|0:0,0:0:0:0:
354,258,25164,1,0,0:0:0:0:
394,87,25326,1,0,0:0:0:0:
459,260,25487,1,8,0:3:0:0:
304,87,25648,6,0,L|408:87,1,90,10|0,0:0|0:0,0:0:0:0:
394,87,25971,1,0,0:0:0:0:
205,209,26132,2,0,L|98:209,1,90,8|0,0:3|0:0,0:0:0:0:
304,87,26455,5,2,0:0:0:0:
205,209,26616,1,0,0:0:0:0:
304,87,26777,5,8,0:3:0:0:
354,258,26939,1,0,0:0:0:0:
136,260,27100,6,0,P|163:225|205:209,1,90,10|0,0:0|0:0,0:0:0:0:
218,297,27342,1,0,0:0:0:0:
218,297,27423,1,8,0:3:0:0:
100,114,27584,2,0,L|-28:115,1,90
136,260,27906,2,0,P|173:216|169:152,1,90,0|8,0:0|0:3,0:0:0:0:
29,222,28229,6,0,P|40:269|46:327,2,90,10|0|0,0:0|0:0|0:0,0:0:0:0:
136,260,28632,1,0,0:0:0:0:
136,260,28713,2,0,P|184:265|251:253,1,90,8|0,0:3|0:0,0:0:0:0:
464,351,29035,2,0,P|411:348|353:357,1,90,2|0,0:0|0:0,0:0:0:0:
225,260,29358,1,8,0:3:0:0:
348,168,29519,1,8,0:3:0:0:
267,384,29681,1,10,0:0:0:0:
112,177,29842,6,0,P|145:175|178:185,1,67.5,10|0,0:1|0:0,0:0:0:0:
136,260,30164,5,8,0:0:0:0:
10,114,30326,1,8,0:0:0:0:
45,310,30487,1,8,0:0:0:0:
178,185,30648,2,0,L|178:114,1,45,8|0,0:1|0:0,0:0:0:0:
201,268,30810,6,0,P|167:272|136:260,1,67.5,10|0,0:0|0:0,0:0:0:0:
178,185,31132,5,8,0:1:0:0:
267,384,31293,1,8,0:0:0:0:
348,168,31455,2,0,P|327:151|302:141,3,45,10|8|8|8,0:0|0:3|0:3|0:3,0:0:0:0:
223,185,31777,6,0,L|178:185,1,45,10|0,0:0|0:0,0:0:0:0:
309,258,31939,2,0,L|356:258,1,45,8|0,0:3|0:0,0:0:0:0:
209,300,32100,2,0,L|159:300,1,45,8|0,0:0|0:0,0:0:0:0:
307,343,32261,6,0,P|320:300|301:245,1,90,14|0,0:0|0:0,0:0:0:0:
310,258,32503,1,0,0:0:0:0:
310,258,32584,2,0,P|356:268|423:275,1,90,8|0,0:3|0:0,0:0:0:0:
209,300,32906,1,0,0:0:0:0:
348,168,33068,1,0,0:0:0:0:
307,343,33229,1,8,0:3:0:0:
223,185,33390,6,0,L|237:58,1,90,10|0,0:0|0:0,0:0:0:0:
310,258,33713,2,0,P|268:291|222:298,2,90,0|8|0,0:0|0:3|0:0,0:0:0:0:
136,260,34197,5,2,0:0:0:0:
288,361,34358,1,0,0:0:0:0:
223,185,34519,2,0,L|163:185,1,45,8|0,0:3|0:0,0:0:0:0:
310,258,34681,1,0,0:0:0:0:
310,258,34761,1,0,0:0:0:0:
310,258,34842,6,0,P|336:215|340:169,1,90,10|0,0:0|0:0,0:0:0:0:
415,302,35164,2,0,P|392:338|388:408,1,90,8|0,0:3|0:0,0:0:0:0:
448,192,35487,1,0,0:0:0:0:
310,258,35648,1,0,0:0:0:0:
270,87,35810,1,8,0:3:0:0:
415,302,35971,6,0,P|462:306|518:278,1,90,10|0,0:0|0:0,0:0:0:0:
341,176,36293,1,0,0:0:0:0:
233,298,36455,2,0,L|127:298,1,90,8|0,0:3|0:0,0:0:0:0:
341,176,36777,5,2,0:0:0:0:
233,298,36939,1,0,0:0:0:0:
341,176,37100,5,8,0:3:0:0:
501,291,37261,1,0,0:0:0:0:
233,298,37423,6,0,P|253:266|303:244,1,90,10|0,0:0|0:0,0:0:0:0:
313,333,37664,1,0,0:0:0:0:
313,333,37745,1,8,0:3:0:0:
178,185,37906,2,0,L|184:93,1,90
114,281,38229,2,0,L|108:370,1,90,0|8,0:0|0:3,0:0:0:0:
106,130,38552,6,0,P|140:101|184:95,2,90,10|0|0,0:0|0:0|0:0,0:0:0:0:
184,95,38955,1,0,0:0:0:0:
184,95,39035,2,0,L|189:5,1,90,8|0,0:3|0:0,0:0:0:0:
114,281,39358,2,0,L|108:370,1,90,2|0,0:0|0:0,0:0:0:0:
17,226,39681,1,8,0:3:0:0:
178,185,39842,1,0,0:0:0:0:
178,185,39923,1,0,0:0:0:0:
178,185,40003,5,10,0:0:0:0:
199,299,40164,2,0,P|154:299|114:281,2,90,0|8|0,0:0|0:3|0:0,0:0:0:0:
291,76,40648,5,8,0:0:0:0:
178,185,40810,1,0,0:0:0:0:
189,5,40971,1,8,0:3:0:0:
299,244,41132,1,0,0:0:0:0:
17,226,41293,5,12,0:1:0:0:
299,244,41455,1,8,0:0:0:0:
106,130,41616,1,8,0:1:0:0:
108,371,41777,1,8,0:1:0:0:
299,244,41939,5,8,0:1:0:0:
299,244,42019,1,8,0:1:0:0:
299,244,42100,1,8,0:0:0:0:
114,281,42261,1,8,0:1:0:0:
114,281,42423,2,0,L|114:330,1,45,8|8,0:1|0:3,0:3:0:0:
17,226,42584,5,14,0:0:0:0:
47,193,42664,1,0,0:0:0:0:
88,174,42745,1,0,0:0:0:0:
133,173,42826,1,0,0:0:0:0:
174,189,42906,1,8,0:1:0:0:
17,226,43068,1,0,0:0:0:0:
270,241,43229,5,10,0:0:0:0:
241,276,43310,1,0,0:0:0:0:
201,295,43390,1,0,0:0:0:0:
156,297,43471,1,0,0:0:0:0:
114,281,43552,1,8,0:1:0:0:
270,241,43713,6,0,L|266:356,1,112.5,14|0,0:1|0:0,0:0:0:0:
367,189,44035,1,0,0:0:0:0:
174,189,44197,1,8,0:1:0:0:
266,353,44358,1,2,0:0:0:0:
107,129,44519,5,8,0:0:0:0:
291,76,44681,1,0,0:0:0:0:
114,281,44842,1,8,0:1:0:0:
107,129,45003,1,0,0:0:0:0:
266,353,45164,5,14,0:0:0:0:
291,76,45326,1,8,0:0:0:0:
114,281,45487,1,8,0:1:0:0:
458,187,45648,6,0,B|479:142|479:142|456:95,1,101.250003862381,14|0,0:1|0:0,0:0:0:0:
367,189,45971,2,0,B|412:210|412:210|476:179,1,101.250003862381,10|0,0:1|0:0,0:0:0:0:
291,76,46293,5,10,0:0:0:0:
266,353,46455,1,8,0:1:0:0:
114,281,46616,1,0,0:0:0:0:
114,281,46697,1,0,0:0:0:0:
114,281,46777,2,0,B|163:248|163:248|229:249,1,112.5,14|0,0:1|0:0,0:0:0:0:
107,129,47100,2,0,B|58:161|58:161|-22:161,1,112.5,8|0,0:0|0:0,0:0:0:0:
216,248,47423,2,0,B|265:216|265:216|318:216,1,112.5,8|0,0:1|0:0,0:0:0:0:
107,129,47745,5,14,0:0:0:0:
120,183,47826,1,0,0:0:0:0:
133,238,47906,1,0,0:0:0:0:
146,293,47987,1,0,0:0:0:0:
159,344,48068,1,8,0:1:0:0:
4,161,48229,1,0,0:0:0:0:
268,33,48390,5,10,0:0:0:0:
255,87,48471,1,0,0:0:0:0:
242,142,48552,1,0,0:0:0:0:
229,197,48632,1,0,0:0:0:0:
216,248,48713,1,8,0:1:0:0:
155,33,48874,6,0,L|267:33,1,112.5,14|0,0:1|0:0,0:0:0:0:
107,129,49197,1,0,0:0:0:0:
155,33,49358,1,8,0:1:0:0:
268,33,49519,1,2,0:0:0:0:
216,248,49681,5,8,0:0:0:0:
242,142,49842,1,0,0:0:0:0:
159,344,50003,1,8,0:1:0:0:
133,238,50164,1,0,0:0:0:0:
410,274,50326,5,14,0:0:0:0:
159,344,50487,1,8,0:0:0:0:
367,189,50648,1,8,0:0:0:0:
133,238,50810,6,0,B|21:204|21:204|28:280,1,168.75,14|0,0:1|0:0,0:0:0:0:
107,129,51132,2,0,B|219:95|219:95|214:149,1,168.75,10|0,0:0|0:0,0:0:0:0:
9,87,51455,1,14,0:1:0:0:
26,255,51616,6,0,L|8:73,1,168.75,14|0,0:0|0:0,0:0:0:0:
9,87,51939,1,8,0:1:0:0:
197,314,52100,2,0,L|217:120,1,168.75,14|0,0:0|0:0,0:0:0:0:
215,147,52423,1,8,0:0:0:0:
26,255,52584,1,8,0:1:0:0:
367,189,52745,1,8,0:0:0:0:
14,143,52906,6,0,L|28:274,1,112.5,14|0,0:0|0:0,0:0:0:0:
133,238,53148,1,0,0:0:0:0:
133,238,53229,5,8,0:1:0:0:
155,33,53390,1,8,0:0:0:0:
94,344,53552,5,8,0:0:0:0:
268,33,53713,1,8,0:0:0:0:
253,384,53874,5,10,0:3:0:0:
14,143,54035,1,10,0:1:0:0:
409,255,54197,5,14,0:0:0:0:
26,255,54358,1,12,0:1:0:0:
268,33,54519,1,12,0:1:0:0:
253,384,54681,1,14,0:1:0:0:
253,384,55164,5,0,0:0:0:0:
220,352,55245,1,0,0:0:0:0:
213,307,55326,1,0,0:0:0:0:
234,267,55406,1,0,0:0:0:0:
284,247,55487,6,0,B|323:274|323:274|433:274,1,135.000005149842,14|0,0:0|0:0,0:0:0:0:
247,384,55810,2,0,B|209:357|209:357|90:357,1,135.000005149842,8|0,0:1|0:0,0:0:0:0:
227,139,56132,1,8,0:0:0:0:
284,247,56293,1,8,0:0:0:0:
164,247,56455,1,8,0:1:0:0:
347,15,56616,6,0,P|444:77|344:136,1,270.000010299683,14|0,0:1|0:0,0:0:0:0:
89,146,57100,2,0,B|60:79|60:79|88:22,1,135.000005149842,8|0,0:1|0:0,0:0:0:0:
164,247,57423,1,8,0:0:0:0:
164,369,57584,2,0,B|192:313|192:313|152:218,1,135.000005149842,8|8,0:0|0:1,0:0:0:0:
59,308,57906,1,8,0:0:0:0:
293,323,58068,6,0,B|355:287|355:287|437:334,1,135.000005149842,10|0,0:0|0:0,0:0:0:0:
317,101,58390,2,0,B|317:173|317:173|253:210,1,135.000005149842,8|0,0:1|0:0,0:0:0:0:
498,233,58713,2,0,B|435:197|435:197|435:133,1,135.000005149842,8|0,0:0|0:0,0:0:0:0:
293,323,59035,1,8,0:1:0:0:
126,270,59197,6,0,B|126:204|126:204|288:204,1,202.500007724762,14|0,0:1|0:0,0:0:0:0:
262,204,59519,1,8,0:0:0:0:
126,270,59681,2,0,L|29:270,1,67.5000025749208,10|0,0:1|0:0,0:0:0:0:
293,323,59842,2,0,L|210:323,1,67.5000025749208,2|0,0:0|0:0,0:0:0:0:
126,384,60003,1,10,0:0:0:0:
262,204,60164,5,8,0:0:0:0:
293,323,60326,1,8,0:1:0:0:
381,231,60487,1,8,0:0:0:0:
126,134,60648,6,0,B|59:133|59:133|59:281,1,202.500007724762,14|0,0:0|0:0,0:0:0:0:
59,269,60971,1,8,0:1:0:0:
283,178,61132,2,0,B|307:117|307:117|279:39,1,135.000005149842,8|0,0:0|0:0,0:0:0:0:
182,246,61455,2,0,B|158:307|158:307|185:384,1,135.000005149842,8|8,0:0|0:1,0:0:0:0:
380,237,61777,6,0,P|353:115|284:194,1,270.000010299683,14|0,0:1|0:0,0:0:0:0:
353,376,62261,2,0,L|517:376,1,135.000005149842,8|0,0:1|0:0,0:0:0:0:
283,178,62584,2,0,B|253:238|253:238|293:326,1,135.000005149842,8|0,0:0|0:0,0:0:0:0:
380,237,62826,1,0,0:0:0:0:
380,237,62906,1,8,0:1:0:0:
383,60,63068,1,8,0:0:0:0:
147,111,63229,6,0,B|146:177|146:177|294:178,1,202.500007724762,14|0,0:0|0:0,0:0:0:0:
282,177,63552,1,8,0:1:0:0:
28,175,63713,1,8,0:0:0:0:
28,175,63793,1,0,0:0:0:0:
28,175,63874,5,8,0:1:0:0:
147,309,64035,1,8,0:0:0:0:
147,111,64197,1,14,0:1:0:0:
281,299,64358,5,8,0:3:0:0:
270,332,64439,1,8,0:3:0:0:
260,365,64519,1,14,0:1:0:0:
282,177,64681,5,8,0:3:0:0:
258,150,64761,1,8,0:3:0:0:
235,125,64842,1,10,0:0:0:0:
381,247,65003,5,8,0:3:0:0:
415,240,65084,1,8,0:3:0:0:
448,232,65164,2,0,L|426:326,1,67.5000025749208,10|0,0:1|0:0,0:0:0:0:
445,113,65326,2,0,L|512:110,1,67.5000025749208,8|0,0:0|0:0,0:0:0:0:
347,177,65487,2,0,L|256:180,1,67.5000025749208,8|0,0:1|0:0,0:0:0:0:
339,66,65648,2,0,L|359:-17,1,67.5000025749208,8|0,0:0|0:0,0:0:0:0:
448,232,65810,6,0,L|416:370,1,135.000005149842,14|0,0:0|0:0,0:0:0:0:
418,363,66052,1,0,0:0:0:0:
418,363,66132,2,0,P|345:337|279:388,1,135.000005149842,8|0,0:1|0:0,0:0:0:0:
217,161,66455,1,8,0:0:0:0:
313,238,66616,1,8,0:0:0:0:
201,281,66777,1,8,0:1:0:0:
390,154,66939,6,0,B|462:172|462:172|415:374,1,270.000010299683,14|0,0:1|0:0,0:0:0:0:
201,281,67423,2,0,B|231:238|231:238|341:238,1,135.000005149842,8|0,0:1|0:0,0:0:0:0:
113,188,67745,2,0,B|82:231|82:231|-22:231,1,135.000005149842,8|0,0:0|0:0,0:0:0:0:
21,116,67987,1,0,0:0:0:0:
21,116,68068,1,8,0:1:0:0:
201,281,68229,1,8,0:0:0:0:
168,83,68390,6,0,B|113:50|113:50|113:189,1,202.500007724762,14|0,0:0|0:0,0:0:0:0:
113,188,68713,1,8,0:1:0:0:
390,154,68874,2,0,B|423:100|423:100|261:100,1,202.500007724762,14|0,0:1|0:0,0:0:0:0:
284,100,69197,1,8,0:0:0:0:
284,332,69358,1,10,0:1:0:0:
284,216,69519,1,14,0:1:0:0:
284,216,69600,1,0,0:0:0:0:
284,216,69681,6,0,L|207:216,1,67.5000025749208,10|0,0:0|0:0,0:0:0:0:
284,332,69842,2,0,L|365:332,1,67.5000025749208,10|0,0:0|0:0,0:0:0:0:
352,99,70003,2,0,L|263:99,1,67.5000025749208,10|0,0:1|0:0,0:0:0:0:
402,216,70164,2,0,L|471:216,1,67.5000025749208,10|0,0:0|0:0,0:0:0:0:
284,216,70326,5,8,0:0:0:0:
351,332,70487,1,8,0:0:0:0:
402,216,70648,1,8,0:1:0:0:
226,331,70810,1,8,0:0:0:0:
422,366,70971,6,0,B|462:232|462:232|400:215,1,202.500007724762,14|0,0:0|0:0,0:0:0:0:
207,151,71293,1,8,0:1:0:0:
284,216,71455,2,0,P|308:158|287:88,1,135.000005149842,8|0,0:0|0:0,0:0:0:0:
125,84,71777,2,0,P|100:143|121:211,1,135.000005149842,8|8,0:0|0:1,0:0:0:0:
207,151,72100,6,0,P|189:43|289:92,1,270.000010299683,14|0,0:1|0:0,0:0:0:0:
198,276,72584,2,0,B|160:246|160:246|40:246,1,135.000005149842,8|0,0:1|0:0,0:0:0:0:
289,90,72906,2,0,B|327:120|327:120|434:120,1,135.000005149842,8|0,0:0|0:0,0:0:0:0:
285,216,73229,1,8,0:1:0:0:
125,84,73390,1,8,0:0:0:0:
413,120,73552,6,0,L|378:334,1,202.500007724762,14|0,0:0|0:0,0:0:0:0:
381,319,73874,1,8,0:1:0:0:
207,151,74035,1,8,0:0:0:0:
207,151,74116,1,0,0:0:0:0:
207,151,74197,5,14,0:1:0:0:
110,342,74358,1,8,0:0:0:0:
21,116,74519,5,14,0:1:0:0:
198,276,74681,1,8,0:0:0:0:
240,66,74842,5,10,0:3:0:0:
208,55,74923,1,8,0:3:0:0:
176,44,75003,1,8,0:3:0:0:
283,194,75164,5,10,0:3:0:0:
251,183,75245,1,8,0:3:0:0:
219,172,75326,1,8,0:0:0:0:
326,322,75487,5,10,0:1:0:0:
294,311,75568,1,8,0:1:0:0:
262,300,75648,2,0,L|262:383,1,67.5000025749208,8|0,0:0|0:0,0:0:0:0:
219,172,75810,2,0,L|277:138,1,67.5000025749208,8|0,0:1|0:0,0:0:0:0:
131,271,75971,2,0,L|50:224,1,67.5000025749208,8|0,0:1|0:0,0:0:0:0:
364,63,76132,6,0,B|416:120|416:120|338:270,1,202.500007724762,14|0,0:0|0:0,0:0:0:0:
277,137,76455,1,8,0:1:0:0:
499,63,76616,2,0,L|354:63,1,135.000005149842,8|0,0:0|0:0,0:0:0:0:
223,231,76939,2,0,L|378:231,1,135.000005149842,8|8,0:0|0:1,0:0:0:0:
110,194,77261,6,0,P|68:134|201:127,1,270.000010299683,14|0,0:1|0:0,0:0:0:0:
135,313,77745,2,0,L|-15:313,1,135.000005149842,8|0,0:1|0:0,0:0:0:0:
198,113,78068,2,0,L|360:113,1,135.000005149842,8|0,0:0|0:0,0:0:0:0:
223,231,78310,1,0,0:0:0:0:
223,231,78390,1,8,0:1:0:0:
167,8,78552,1,8,0:0:0:0:
428,34,78713,6,0,B|464:92|464:92|418:248,1,202.500007724762,14|0,0:0|0:0,0:0:0:0:
426,220,79035,1,8,0:1:0:0:
198,113,79197,1,8,0:0:0:0:
428,34,79358,5,8,0:1:0:0:
223,231,79519,1,8,0:0:0:0:
167,8,79681,1,8,0:1:0:0:
426,220,79842,1,8,0:1:0:0:
314,0,80003,6,0,B|284:58|284:58|317:143,1,135.000005149842,14|0,0:0|0:0,0:0:0:0:
304,245,80245,1,0,0:0:0:0:
304,245,80326,2,0,B|334:187|334:187|295:87,1,135.000005149842,8|0,0:1|0:0,0:0:0:0:
134,56,80648,1,8,0:0:0:0:
134,313,80810,1,8,0:0:0:0:
206,181,80971,1,8,0:1:0:0:
58,181,81132,1,8,0:1:0:0:
302,383,81293,6,0,P|341:366|296:244,1,202.500007724762,14|0,0:0|0:0,0:0:0:0:
305,245,81616,1,8,0:1:0:0:
302,383,81777,2,0,L|448:383,1,135.000005149842,8|0,0:0|0:0,0:0:0:0:
150,233,82100,2,0,L|-15:233,1,135.000005149842,8|8,0:0|0:1,0:0:0:0:
302,101,82423,1,12,0:1:0:0:
302,101,82503,1,8,0:1:0:0:
302,101,82584,5,14,0:0:0:0:
77,115,82745,1,14,0:0:0:0:
373,269,82906,1,14,0:0:0:0:
256,192,83874,12,0,87745,0:0:0:0:
