osu file format v14

[General]
AudioFilename: audio.mp3
AudioLeadIn: 0
PreviewTime: 77762
Countdown: 0
SampleSet: Soft
StackLeniency: 0.7
Mode: 0
LetterboxInBreaks: 0
WidescreenStoryboard: 0

[Editor]
Bookmarks: 59179,63285,66127,103390
DistanceSpacing: 1
BeatDivisor: 4
GridSize: 4
TimelineZoom: 1.1

[Metadata]
Title:Towa ni Saku Hana (short ver.)
TitleUnicode:永遠に咲く花 (short ver.)
Artist:AiRI
ArtistUnicode:AiRI
Creator:Toyosaki Aki
Version:Normal
Source:枯れない世界と終わる花
Tags:joker- Kanau Mamayu fuyuyu- UR@N Karenai Sekai to Owaru The rainbow appears after flowering rain SWEET&TEA eroge opening
BeatmapID:1145550
BeatmapSetID:522940

[Difficulty]
HPDrainRate:4
CircleSize:3
OverallDifficulty:4
ApproachRate:6
SliderMultiplier:2
SliderTickRate:1

[Events]
//Background and Video events
Video,0,"KareHana video.avi"
0,0,"bg.jpg",0,0
//Break Periods
2,61274,65077
//Storyboard Layer 0 (Background)
//Storyboard Layer 1 (Fail)
//Storyboard Layer 2 (Pass)
//Storyboard Layer 3 (Foreground)
//Storyboard Sound Samples

[TimingPoints]
443,631.578947368421,4,2,2,40,1,0
443,-100,4,2,2,40,0,0
1074,-100,4,2,2,40,0,0
2969,-100,4,2,2,40,0,0
3600,-100,4,2,2,40,0,0
5495,-100,4,2,2,40,0,0
6127,-100,4,2,2,40,0,0
8021,-100,4,2,2,40,0,0
8653,-100,4,2,2,40,0,0
10548,-100,4,2,2,45,0,0
11179,-100,4,2,2,45,0,0
13074,-100,4,2,2,45,0,0
13706,-100,4,2,2,45,0,0
15600,-100,4,2,2,45,0,0
16232,-100,4,2,2,45,0,0
18127,-100,4,2,2,45,0,0
20021,-100,4,2,2,45,0,0
20337,-100,4,2,2,35,0,0
20653,-100,4,2,2,30,0,0
20969,-100,4,2,1,40,0,0
38337,-100,4,2,1,40,0,0
40232,-100,4,2,1,40,0,0
40864,-100,4,2,1,40,0,0
59416,-100,4,2,1,20,0,0
59495,-100,4,2,1,40,0,0
70153,-100,4,2,1,20,0,0
70232,-100,4,2,1,40,0,0
74337,-100,4,2,1,35,0,0
74653,-100,4,2,1,45,0,0
74969,-100,4,2,1,55,0,0
78758,-100,3,2,1,60,0,1
95258,-100,3,2,1,20,0,1
95337,-100,3,2,1,60,0,1
98969,-100,4,2,1,40,0,0
100864,-100,4,2,1,50,0,0
104021,-100,4,2,1,60,0,1
124232,-100,4,2,1,60,0,0
129285,-100,4,2,1,40,0,0

[Colours]
Combo1 : 255,165,121
Combo2 : 255,157,206
Combo3 : 173,255,91
Combo4 : 89,255,255

[HitObjects]
96,260,443,6,0,L|208:260,1,99.9999999999999,6|2,0:0|0:0,0:0:0:0:
296,276,1074,1,0,0:0:0:0:
379,224,1390,2,0,P|399:178|393:129,1,99.9999999999999,6|2,0:0|0:0,0:0:0:0:
324,60,2021,1,0,0:0:0:0:
93,251,2969,6,0,L|86:151,1,99.9999999999999,6|2,0:0|0:0,0:0:0:0:
143,69,3600,1,0,0:0:0:0:
226,124,3916,2,0,P|240:80|214:5,2,99.9999999999999,6|2|0,0:0|0:0|0:0,0:0:0:0:
187,216,4864,1,0,0:0:0:0:
347,351,5495,6,0,P|377:290|393:221,1,99.9999999999999,6|2,0:0|0:0,0:0:0:0:
399,160,6127,1,0,0:0:0:0:
362,67,6443,2,0,P|316:46|266:46,1,99.9999999999999,6|2,0:0|0:0,0:0:0:0:
178,92,7074,1,0,0:0:0:0:
16,344,8021,6,0,P|64:359|113:350,1,99.9999999999999,6|2,0:0|0:0,0:0:0:0:
192,290,8653,1,0,0:0:0:0:
275,345,8969,2,0,P|292:298|283:250,1,99.9999999999999,6|2,0:0|0:0,0:0:0:0:
224,168,9600,1,2,0:0:0:0:
125,184,9916,2,0,L|118:233,2,50,2|0|2,0:0|0:0|0:0,0:0:0:0:
170,94,10548,6,0,P|216:77|264:86,1,99.9999999999999,6|2,0:0|0:0,0:0:0:0:
351,136,11179,1,0,0:0:0:0:
374,233,11495,2,0,L|363:333,1,99.9999999999999,6|2,0:0|0:0,0:0:0:0:
274,379,12127,1,0,0:0:0:0:
64,171,13074,6,0,L|75:71,1,99.9999999999999,6|2,0:0|0:0,0:0:0:0:
162,21,13706,1,0,0:0:0:0:
225,95,14021,2,0,P|273:110|322:101,1,99.9999999999999,6|2,0:0|0:0,0:0:0:0:
398,36,14653,1,0,0:0:0:0:
480,92,14969,1,2,0:0:0:0:
410,279,15600,6,0,P|351:290|293:293,1,99.9999999999999,6|0,0:0|0:0,0:0:0:0:
227,238,16232,1,0,0:0:0:0:
157,310,16548,2,0,P|98:299|40:296,1,99.9999999999999,6|2,0:0|0:0,0:0:0:0:
6,210,17179,1,0,0:0:0:0:
254,41,18127,6,0,L|364:56,1,99.9999999999999,6|2,0:0|0:0,0:0:0:0:
450,76,18758,2,0,L|454:148,1,50,2|0,0:0|0:0,0:0:0:0:
452,175,19074,2,0,P|377:227|277:179,1,200,6|2,0:0|0:0,0:0:0:0:
197,138,20021,2,0,P|192:188|184:238,1,99.9999999999999,2|0,0:0|0:0,0:0:0:0:
136,326,20653,1,6,0:0:0:0:
61,256,20969,6,0,P|49:208|52:158,1,99.9999999999999,0|0,0:0|0:0,0:0:0:0:
95,68,21600,2,0,P|152:38|244:71,1,150,2|0,0:0|0:0,0:0:0:0:
271,89,22232,2,0,P|365:83|380:83,1,99.9999999999999,2|0,0:0|0:0,0:0:0:0:
459,130,22864,1,0,0:0:0:0:
399,210,23179,2,0,P|332:241|261:222,2,150,2|2|2,0:0|0:0|0:0,0:0:0:0:
109,131,25074,6,0,L|95:237,1,99.9999999999999
84,329,25706,2,0,P|177:298|270:330,1,200,2|2,0:0|0:0,0:0:0:0:
364,364,26653,2,0,P|387:291|395:214,1,150,2|0,0:0|0:0,0:0:0:0:
378,170,27285,2,0,P|332:151|282:156,1,99.9999999999999,2|0,0:0|0:0,0:0:0:0:
205,218,27916,1,0,0:0:0:0:
116,172,28232,2,0,P|102:101|121:16,2,150,2|2|2,0:0|0:0|0:0,0:0:0:0:
238,330,29811,2,0,P|286:340|334:329,1,99.9999999999999,2|2,0:0|0:0,0:0:0:0:
459,173,30758,1,2,0:0:0:0:
390,100,31074,6,0,P|344:89|288:95,1,99.9999999999999
215,158,31706,2,0,P|138:155|55:143,1,150,2|0,0:0|0:0,0:0:0:0:
16,151,32337,2,0,P|2:210|18:255,1,99.9999999999999,2|0,0:0|0:0,0:0:0:0:
98,299,32969,1,0,0:0:0:0:
188,256,33285,2,0,L|354:274,2,150,2|2|2,0:0|0:0|0:0,0:0:0:0:
170,56,34864,5,0,0:0:0:0:
254,108,35179,2,0,P|303:115|352:106,1,99.9999999999999,2|2,0:0|0:0,0:0:0:0:
433,47,35811,2,0,P|451:104|426:169,1,99.9999999999999,2|0,0:0|0:0,0:0:0:0:
372,213,36443,1,2,0:0:0:0:
180,156,37074,2,0,P|132:142|84:152,1,99.9999999999999,2|0,0:0|0:0,0:0:0:0:
15,225,37706,1,2,0:0:0:0:
179,338,38337,6,0,B|231:308|276:332|276:332|319:354|378:324,1,200,2|2,0:0|0:0,0:0:0:0:
456,147,39600,1,2,0:0:0:0:
362,112,39916,1,2,3:0:0:0:
262,122,40232,2,0,L|243:46,2,50,8|4|0,0:3|0:3|0:0,0:0:0:0:
246,221,40864,6,0,P|186:222|121:217,1,99.9999999999999,4|0,0:0|0:0,0:0:0:0:
46,222,41495,2,0,P|50:278|67:340,1,99.9999999999999,2|0,0:0|0:0,0:0:0:0:
101,349,41969,2,0,P|196:327|264:344,1,150,2|8,0:0|0:0,0:0:0:0:
342,364,42758,1,0,1:0:0:0:
430,317,43074,2,0,L|435:245,1,50,8|0,0:0|0:0,0:0:0:0:
438,217,43390,6,0,P|357:178|298:202,1,150,2|2,0:0|0:0,0:0:0:0:
168,260,44337,2,0,L|181:131,2,99.9999999999999,2|0|8,0:3|0:0|0:0,0:0:0:0:
68,273,45285,2,0,L|81:144,1,99.9999999999999,0|0,1:0|0:0,0:0:0:0:
102,75,45916,6,0,B|189:29|259:84,1,150,6|8,0:0|0:0,0:0:0:0:
394,83,46864,2,0,P|387:135|384:182,1,99.9999999999999,2|0,0:0|0:0,0:0:0:0:
377,282,47495,2,0,P|308:273|274:275,1,99.9999999999999,8|0,0:0|1:0,0:0:0:0:
179,292,48127,2,0,L|111:284,1,50,8|0,0:0|0:0,0:0:0:0:
80,274,48443,6,0,P|57:171|80:125,1,150,2|2,0:0|0:0,0:0:0:0:
195,47,49390,2,0,L|201:149,1,99.9999999999999,2|0,0:3|0:0,0:0:0:0:
280,206,50021,1,8,0:0:0:0:
344,128,50337,2,0,P|392:118|440:132,1,99.9999999999999,0|0,1:0|0:0,0:0:0:0:
490,219,50969,1,4,0:0:0:0:
435,302,51285,6,0,P|374:312|319:297,1,99.9999999999999,2|2,0:0|0:0,0:0:0:0:
242,270,51916,2,0,L|88:286,1,150,2|0,0:0|0:0,0:0:0:0:
45,269,52548,2,0,P|33:220|42:172,1,99.9999999999999,8|0,0:0|1:0,0:0:0:0:
112,100,53179,2,0,L|172:116,1,50,8|0,0:0|0:0,0:0:0:0:
205,134,53495,6,0,P|296:107|368:131,1,150,2|2,0:0|0:0,0:0:0:0:
456,223,54443,2,0,L|470:109,2,99.9999999999999,2|0|8,0:3|0:0|0:0,0:0:0:0:
444,322,55390,2,0,P|396:307|346:301,1,99.9999999999999,0|0,1:0|0:0,0:0:0:0:
248,282,56021,6,0,P|184:291|121:287,1,99.9999999999999,8|0,0:0|0:0,0:0:0:0:
75,221,56653,2,0,P|45:287|70:356,2,150,0|8|8,1:0|0:0|0:0,0:0:0:0:
166,179,57916,1,0,1:0:0:0:
258,216,58232,1,0,0:0:0:0:
344,165,58548,6,0,L|478:153,1,99.9999999999999,8|0,0:0|0:0,0:0:0:0:
465,58,59179,2,0,P|414:62|365:66,1,99.9999999999999,0|0,1:0|0:0,0:0:0:0:
316,79,59653,2,0,P|237:76|167:77,1,150,2|10,0:3|0:0,0:0:0:0:
72,112,60443,1,10,0:0:0:0:
22,198,60758,1,10,0:0:0:0:
88,273,61074,1,4,0:0:0:0:
88,273,66127,5,4,0:0:0:0:
280,326,66758,2,0,L|383:314,1,99.9999999999999,8|0,0:0|0:0,0:0:0:0:
420,287,67232,2,0,P|433:239|425:190,2,99.9999999999999,2|2|2,0:0|0:0|0:0,0:0:0:0:
282,230,68337,1,8,0:0:0:0:
297,131,68653,2,0,P|206:149|128:139,1,150,10|0,0:0|3:0,0:0:0:0:
104,120,69285,2,0,P|98:169|97:219,1,99.9999999999999,8|0,3:2|0:0,0:0:0:0:
141,309,69916,2,0,P|191:300|241:302,1,99.9999999999999,0|2,0:0|0:0,0:0:0:0:
324,359,70548,2,0,P|340:301|321:246,1,99.9999999999999,8|0,0:0|0:0,0:0:0:0:
251,204,71179,1,0,0:0:0:0:
201,117,71495,6,0,P|205:68|240:33,1,99.9999999999999,2|8,0:0|0:0,0:0:0:0:
341,31,72127,1,0,0:0:0:0:
390,118,72443,2,0,P|385:166|350:201,1,99.9999999999999,10|0,0:0|0:0,0:0:0:0:
251,204,73074,2,0,L|151:198,1,99.9999999999999,10|0,0:0|0:0,0:0:0:0:
67,143,73706,2,0,B|33:90|58:36|58:36|112:32|160:63,1,200,4|0,0:0|1:0,0:0:0:0:
225,109,74653,5,0,1:0:0:0:
251,204,74969,2,0,P|193:220|144:220,2,99.9999999999999,0|0|0,1:0|1:0|1:0,0:0:0:0:
337,153,75916,1,8,0:0:0:0:
412,219,76232,6,0,P|402:312|380:337,1,99.9999999999999,4|0,0:0|1:0,0:0:0:0:
350,307,76706,2,0,P|272:294|214:300,1,99.9999999999999,4|0,0:0|1:0,0:0:0:0:
212,326,77179,1,4,0:0:0:0:
75,63,78127,5,4,0:0:0:0:
272,32,78758,2,0,P|295:97|276:241,1,200,4|0,0:0|1:0,0:0:0:0:
184,244,79706,1,0,0:0:0:0:
102,186,80021,2,0,L|108:57,1,99.9999999999999,8|0,0:0|0:0,0:0:0:0:
198,44,80653,2,0,L|193:143,1,99.9999999999999,0|0,1:0|0:0,0:0:0:0:
184,244,81285,1,8,0:0:0:0:
268,297,81600,6,0,P|334:305|385:285,1,99.9999999999999,0|0,0:0|1:0,0:0:0:0:
406,266,82074,1,0,0:0:0:0:
441,172,82390,2,0,P|369:156|295:172,1,150,8|0,0:0|0:0,0:0:0:0:
205,215,83179,1,0,1:0:0:0:
125,154,83495,1,8,0:0:0:0:
170,65,83811,6,0,L|287:54,1,99.9999999999999,4|0,0:0|0:0,0:0:0:0:
366,29,84443,2,0,P|368:96|376:144,1,99.9999999999999,0|0,1:0|0:0,0:0:0:0:
415,154,84916,2,0,P|433:225|414:297,1,150,8|0,0:0|0:0,0:0:0:0:
319,331,85706,2,0,P|286:332|263:330,1,50,0|0,1:0|1:0,0:0:0:0:
222,313,86021,2,0,P|148:300|91:311,1,99.9999999999999,8|4,0:0|0:0,0:0:0:0:
24,314,86653,2,0,P|37:256|45:210,1,99.9999999999999,0|0,0:0|1:0,0:0:0:0:
50,115,87285,1,0,1:0:0:0:
50,115,87443,6,0,P|144:125|214:129,1,150,4|0,0:0|0:0,0:0:0:0:
299,121,88232,1,0,1:0:0:0:
396,142,88548,1,0,0:0:0:0:
450,226,88864,6,0,P|400:243|345:228,1,99.9999999999999,4|0,3:2|0:0,0:0:0:0:
259,201,89495,2,0,P|256:276|249:351,2,150,0|0|8,1:0|0:0|0:0,0:0:0:0:
216,112,90758,2,0,P|135:119|82:115,1,99.9999999999999,0|0,1:0|0:0,0:0:0:0:
18,89,91390,2,0,L|29:194,1,99.9999999999999,8|0,0:0|0:0,0:0:0:0:
10,235,91864,2,0,P|87:212|168:236,1,150,0|0,1:0|1:0,0:0:0:0:
182,267,92495,2,0,P|232:268|282:265,1,99.9999999999999,4|0,0:0|0:0,0:0:0:0:
332,258,92969,1,0,1:0:0:0:
416,205,93285,1,0,1:0:0:0:
415,105,93600,1,0,1:0:0:0:
336,43,93916,6,0,P|280:41|225:50,1,99.9999999999999,4|0,0:0|0:0,0:0:0:0:
147,94,94548,2,0,L|154:204,1,99.9999999999999,0|0,1:0|0:0,0:0:0:0:
134,240,95021,2,0,P|195:223|275:229,1,99.9999999999999,4|8,0:0|0:0,0:0:0:0:
281,227,95495,1,0,0:0:0:0:
378,251,95811,1,0,1:0:0:0:
408,155,96127,1,0,3:0:0:0:
311,131,96443,6,0,P|250:122|188:96,1,99.9999999999999,4|0,3:2|0:0,0:0:0:0:
162,25,97074,2,0,P|84:46|35:49,1,99.9999999999999,0|0,1:0|1:0,0:0:0:0:
16,36,97548,2,0,L|33:193,1,150,4|0,0:0|0:0,0:0:0:0:
89,267,98337,1,0,1:0:0:0:
188,276,98653,1,0,1:0:0:0:
277,230,98969,1,4,1:2:0:0:
389,64,100232,6,0,P|335:39|275:42,1,99.9999999999999,4|0,0:0|0:0,0:0:0:0:
262,133,100864,2,0,P|306:155|355:159,1,99.9999999999999,4|0,0:0|0:0,0:0:0:0:
453,139,101495,2,0,P|418:311|251:252,1,400,4|0,0:0|0:0,0:0:0:0:
146,82,103390,6,0,P|144:135|137:184,1,99.9999999999999,2|0,0:0|0:0,0:0:0:0:
109,278,104021,2,0,P|159:269|213:264,1,99.9999999999999,12|8,0:0|0:0,0:0:0:0:
307,283,104653,2,0,P|372:292|426:290,1,99.9999999999999,0|0,1:0|0:0,0:0:0:0:
456,284,105127,2,0,P|483:199|456:125,1,150,4|2,0:0|0:0,0:0:0:0:
384,85,105916,1,2,1:2:0:0:
283,85,106232,1,2,0:0:0:0:
193,129,106548,6,0,P|183:178|189:228,1,99.9999999999999,12|8,0:0|0:0,0:0:0:0:
250,306,107179,2,0,P|280:310|315:317,2,50,0|0|0,1:0|1:0|1:0,0:0:0:0:
201,320,107653,2,0,P|115:332|42:315,1,150,4|8,0:0|0:0,0:0:0:0:
11,228,108443,2,0,P|4:177|19:118,1,99.9999999999999,2|0,0:3|0:0,0:0:0:0:
101,177,109074,6,0,P|150:177|199:168,1,99.9999999999999,12|8,0:0|0:0,0:0:0:0:
282,110,109706,2,0,P|331:102|381:104,1,99.9999999999999,0|0,1:0|0:0,0:0:0:0:
431,108,110179,2,0,P|412:206|418:284,1,150,4|2,0:0|0:0,0:0:0:0:
451,348,110969,1,2,1:2:0:0:
351,358,111285,1,2,0:0:0:0:
260,315,111600,6,0,P|206:303|132:302,1,99.9999999999999,12|8,0:0|0:0,0:0:0:0:
61,301,112232,2,0,L|45:365,2,50,0|0|0,1:0|1:0|1:0,0:0:0:0:
78,253,112706,2,0,L|73:96,1,150,4|8,0:0|0:0,0:0:0:0:
155,46,113495,2,0,L|161:154,1,99.9999999999999,2|0,0:3|0:0,0:0:0:0:
225,222,114127,6,0,P|308:227|340:215,1,99.9999999999999,12|8,0:0|0:0,0:0:0:0:
394,152,114758,2,0,P|418:195|418:246,1,99.9999999999999,0|0,1:0|0:0,0:0:0:0:
391,286,115232,2,0,P|321:314|240:317,1,150,4|2,0:0|0:0,0:0:0:0:
149,293,116021,1,2,1:2:0:0:
134,194,116337,1,2,0:0:0:0:
176,103,116653,6,0,L|280:82,1,99.9999999999999,12|8,0:0|0:0,0:0:0:0:
353,144,117285,2,0,L|420:153,2,50,0|0|0,1:0|1:0|1:0,0:0:0:0:
312,173,117758,2,0,P|298:263|319:325,1,150,4|8,0:0|0:0,0:0:0:0:
412,342,118548,2,0,L|421:233,1,99.9999999999999,2|0,0:3|0:0,0:0:0:0:
416,142,119179,6,0,L|409:29,1,99.9999999999999,12|8,0:0|0:0,0:0:0:0:
312,64,119811,2,0,P|225:71|190:67,1,99.9999999999999,0|0,1:0|0:0,0:0:0:0:
164,53,120285,2,0,P|108:99|115:171,1,150,4|2,0:0|1:2,0:0:0:0:
207,210,121074,1,2,1:2:0:0:
306,201,121390,1,2,1:2:0:0:
373,275,121706,6,0,P|368:340|333:378,1,99.9999999999999,4|0,0:0|1:0,0:0:0:0:
298,367,122179,2,0,P|242:359|162:356,1,99.9999999999999,4|0,0:0|0:0,0:0:0:0:
149,356,122653,1,2,0:3:0:0:
49,364,122969,6,0,P|63:317|70:267,1,99.9999999999999,4|0,0:0|0:0,0:0:0:0:
38,173,123600,1,2,0:3:0:0:
59,75,123916,1,0,0:0:0:0:
149,31,124232,1,4,0:0:0:0:
256,192,124548,12,2,129285,0:0:0:0:
256,192,129600,12,2,134179,0:0:0:0:
