osu file format v14

[General]
AudioFilename: audio.mp3
AudioLeadIn: 0
PreviewTime: 77762
Countdown: 0
SampleSet: Soft
StackLeniency: 0.7
Mode: 0
LetterboxInBreaks: 0
WidescreenStoryboard: 0

[Editor]
Bookmarks: 22864,23021,23179,23495,23653,23811,23969,24127
DistanceSpacing: 1.1
BeatDivisor: 4
GridSize: 4
TimelineZoom: 2.9

[Metadata]
Title:Towa ni Saku Hana (short ver.)
TitleUnicode:永遠に咲く花 (short ver.)
Artist:AiRI
ArtistUnicode:AiRI
Creator:Toyosaki Aki
Version:Eternity
Source:枯れない世界と終わる花
Tags:joker- Kanau Mamayu fuyuyu- UR@N Karenai Sekai to Owaru The rainbow appears after flowering rain SWEET&TEA eroge opening
BeatmapID:1130952
BeatmapSetID:522940

[Difficulty]
HPDrainRate:7
CircleSize:4
OverallDifficulty:8
ApproachRate:9
SliderMultiplier:3.5
SliderTickRate:1

[Events]
//Background and Video events
Video,0,"KareHana video.avi"
0,0,"bg.jpg",0,0
//Break Periods
2,61274,62685
//Storyboard Layer 0 (Background)
//Storyboard Layer 1 (Fail)
//Storyboard Layer 2 (Pass)
//Storyboard Layer 3 (Foreground)
//Storyboard Sound Samples

[TimingPoints]
443,631.578947368421,4,2,2,40,1,0
443,-125,4,2,2,40,0,0
1390,-125,4,2,2,40,0,0
2969,-125,4,2,2,40,0,0
3916,-125,4,2,2,40,0,0
5495,-125,4,2,2,40,0,0
6443,-125,4,2,2,40,0,0
8021,-125,4,2,2,40,0,0
8969,-125,4,2,2,40,0,0
10548,-125,4,2,2,45,0,0
11495,-125,4,2,2,45,0,0
12443,-153.846153846153,4,2,2,45,0,0
13074,-125,4,2,2,45,0,0
14021,-125,4,2,2,45,0,0
14969,-133.333333333333,4,2,2,45,0,0
15600,-125,4,2,2,45,0,0
16548,-125,4,2,2,45,0,0
17495,-153.846153846153,4,2,2,45,0,0
18127,-125,4,2,2,45,0,0
20337,-125,4,2,2,35,0,0
20653,-125,4,2,2,30,0,0
20969,-125,4,2,1,40,0,0
22232,-142.857142857143,4,2,1,40,0,0
22864,-125,4,2,1,40,0,0
29179,-142.857142857143,4,2,1,40,0,0
29811,-125,4,2,1,40,0,0
31390,-142.857142857143,4,2,1,40,0,0
32969,-125,4,2,1,40,0,0
34232,-142.857142857143,4,2,1,40,0,0
34864,-125,4,2,1,40,0,0
35653,-142.857142857143,4,2,1,40,0,0
36127,-125,4,2,1,40,0,0
37390,-142.857142857143,4,2,1,40,0,0
38337,-153.846153846153,4,2,1,40,0,0
40390,-153.846153846153,4,2,1,40,0,0
40864,-125,4,2,1,40,0,0
41179,-125,4,2,1,40,0,0
45916,-142.857142857143,4,2,1,40,0,0
46864,-125,4,2,1,40,0,0
57600,-142.857142857143,4,2,1,40,0,0
57916,-125,4,2,1,40,0,0
59416,-125,4,2,1,20,0,0
59495,-125,4,2,1,40,0,0
63285,-125,4,2,1,40,0,0
64232,-166.666666666667,4,2,1,40,0,0
66127,-133.333333333333,4,2,1,40,0,0
70232,-133.333333333333,4,2,1,40,0,0
71179,-125,4,2,1,40,0,0
74337,-125,4,2,1,35,0,0
74653,-125,4,2,1,45,0,0
74969,-125,4,2,1,55,0,0
76232,-100,4,2,1,55,0,0
78758,-90.9090909090909,4,2,1,60,0,1
95258,-90.9090909090909,4,2,1,20,0,1
95337,-90.9090909090909,4,2,1,60,0,1
98969,-125,4,2,1,40,0,0
100864,-125,4,2,1,50,0,0
104021,-111.111111111111,4,2,1,60,0,1
124232,-111.111111111111,4,2,1,60,0,0
128969,-111.111111111111,4,2,1,40,0,0
129285,-133.333333333333,4,2,1,40,0,0

[Colours]
Combo1 : 255,165,121
Combo2 : 255,157,206
Combo3 : 173,255,91
Combo4 : 89,255,255

[HitObjects]
216,200,443,6,0,P|191:175|157:166,1,70,6|0,0:0|0:0,0:0:0:0:
77,216,758,2,0,P|68:249|77:283,1,70,2|0,0:0|0:0,0:0:0:0:
165,313,1074,2,0,L|283:301,1,105
301,276,1390,2,0,P|315:234|310:188,1,70,6|0,0:0|0:0,0:0:0:0:
391,142,1706,2,0,P|410:173|416:221,1,70,2|0,0:0|0:0,0:0:0:0:
402,297,2021,1,0,0:0:0:0:
356,87,2969,6,0,L|443:73,1,70,6|0,0:0|0:0,0:0:0:0:
486,186,3285,2,0,L|402:176,1,70,2|0,0:0|0:0,0:0:0:0:
300,166,3600,2,0,L|189:152,1,105
167,142,3916,2,0,L|175:63,1,70,6|0,0:0|0:0,0:0:0:0:
68,179,4232,2,0,L|76:264,1,70,2|0,0:0|0:0,0:0:0:0:
136,323,4548,1,0,0:0:0:0:
259,162,4864,1,2,0:0:0:0:
259,162,5495,6,0,P|291:173|316:197,1,70,6|0,0:0|0:0,0:0:0:0:
300,293,5811,2,0,P|273:315|240:325,1,70,2|0,0:0|0:0,0:0:0:0:
167,268,6127,2,0,L|155:159,1,105
153,128,6443,2,0,L|250:145,1,70,6|0,0:0|0:0,0:0:0:0:
72,189,6758,2,0,L|-7:217,1,70,2|0,0:0|0:0,0:0:0:0:
175,224,7074,1,0,0:0:0:0:
73,343,8021,6,0,P|119:334|148:326,1,70,6|0,0:0|0:0,0:0:0:0:
256,309,8337,2,0,P|305:315|346:329,1,70,2|0,0:0|0:0,0:0:0:0:
435,360,8653,2,0,L|446:237,1,105
442,224,8969,2,0,L|372:231,1,70,6|0,0:0|0:0,0:0:0:0:
228,152,9285,2,0,L|312:143,1,70,2|0,0:0|0:0,0:0:0:0:
401,78,9600,5,2,0:0:0:0:
401,78,9916,1,2,0:0:0:0:
298,145,10074,1,0,0:0:0:0:
405,206,10232,1,2,0:0:0:0:
297,350,10548,6,0,P|302:307|298:273,1,70,6|0,0:0|0:0,0:0:0:0:
195,191,10864,2,0,P|192:230|198:264,1,70,2|0,0:0|0:0,0:0:0:0:
212,342,11179,2,0,L|104:329,1,105
92,301,11495,2,0,P|76:251|90:208,1,70,6|0,0:0|0:0,0:0:0:0:
195,94,11811,2,0,L|201:163,1,70,2|0,0:0|0:0,0:0:0:0:
209,245,12127,1,0,0:0:0:0:
113,73,12443,2,0,P|185:12|270:52,1,199.062490887642,2|0,0:0|0:0,0:0:0:0:
291,70,13074,6,0,P|336:66|373:56,1,70,6|0,0:0|0:0,0:0:0:0:
466,42,13390,2,0,L|456:126,1,70,2|0,0:0|0:0,0:0:0:0:
417,217,13706,2,0,L|304:199,1,105
288,195,14021,2,0,P|282:249|289:286,1,70,6|0,0:0|0:0,0:0:0:0:
193,362,14337,2,0,P|194:327|188:292,1,70,2|0,0:0|0:0,0:0:0:0:
117,230,14653,1,0,0:0:0:0:
308,205,14969,2,0,B|323:73|323:73|272:96|218:84,1,229.687508761883,2|0,0:0|0:0,0:0:0:0:
198,85,15600,6,0,L|120:72,1,70,6|0,0:0|0:0,0:0:0:0:
133,169,15916,2,0,L|55:156,1,70,2|0,0:0|0:0,0:0:0:0:
119,273,16232,2,0,P|175:247|222:258,1,105
244,265,16548,2,0,P|278:275|313:273,1,70,6|0,0:0|0:0,0:0:0:0:
403,215,16864,2,0,P|400:250|402:285,1,70,2|0,0:0|0:0,0:0:0:0:
479,352,17179,1,0,0:0:0:0:
487,191,17495,2,0,P|415:129|329:167,1,199.062490887642,2|0,0:0|0:0,0:0:0:0:
309,189,18127,6,0,B|274:197|274:197|240:191,1,70,6|0,0:0|0:0,0:0:0:0:
112,106,18443,2,0,B|147:97|147:97|180:103,1,70,2|0,0:0|0:0,0:0:0:0:
272,120,18758,1,2,0:0:0:0:
333,55,18916,1,0,0:0:0:0:
379,211,19074,1,6,0:0:0:0:
379,211,19706,6,0,L|449:222,1,70,2|0,0:0|0:0,0:0:0:0:
473,312,20021,2,0,P|413:344|344:336,1,140,6|0,0:0|0:0,0:0:0:0:
302,227,20495,1,0,0:0:0:0:
133,291,20653,1,2,0:0:0:0:
109,300,20969,6,0,L|99:215,1,70
31,166,21285,2,0,P|96:135|172:169,1,140,0|2,0:0|0:0,0:0:0:0:
262,283,21758,2,0,P|275:214|279:144,1,140
198,63,22232,2,0,P|159:73|129:75,1,61.2499981307984
54,67,22548,1,0,0:0:0:0:
292,28,22864,6,0,P|298:64|290:100,1,70
213,172,23179,1,2,0:0:0:0:
213,172,23495,5,0,0:0:0:0:
365,204,23653,1,2,0:0:0:0:
365,204,23969,5,0,0:0:0:0:
294,338,24127,1,2,0:0:0:0:
294,338,25074,6,0,P|231:326|154:324,1,140
20,284,25706,2,0,P|11:229|14:140,1,140,2|0,0:0|0:0,0:0:0:0:
100,124,26179,1,0,0:0:0:0:
44,56,26337,1,0,0:0:0:0:
195,237,26653,2,0,P|295:235|345:148,1,210,2|0,0:0|0:0,0:0:0:0:
440,57,27285,2,0,P|448:97|448:154,1,70
451,202,27600,1,0,0:0:0:0:
255,173,27916,6,0,P|246:135|245:97,1,70
246,30,28232,1,2,0:0:0:0:
246,30,28548,5,0,0:0:0:0:
117,113,28706,1,2,0:0:0:0:
117,113,29021,5,0,0:0:0:0:
175,239,29179,2,0,B|231:197|231:197|225:113|144:124,1,183.749994392395,2|0,0:0|0:0,0:0:0:0:
52,193,29811,2,0,P|48:224|48:264,1,70
174,309,30127,2,0,P|174:273|177:225,1,70
308,203,30443,2,0,P|305:234|304:274,1,70
430,319,30758,1,2,0:0:0:0:
479,171,31074,6,0,P|439:161|408:158,1,70
290,168,31390,2,0,P|304:109|305:44,1,122.499996261597,0|2,0:0|0:0,0:0:0:0:
139,132,31864,2,0,P|143:194|158:253,1,122.499996261597
288,328,32337,2,0,P|257:322|227:320,1,61.2499981307984
111,328,32653,1,0,0:0:0:0:
110,327,32969,2,0,P|76:334|41:336,1,70
18,230,33285,6,0,P|36:204|50:163,1,70,2|0,0:0|0:0,0:0:0:0:
71,78,33600,1,0,0:0:0:0:
177,186,33758,6,0,P|173:155|157:117,1,70,2|0,0:0|0:0,0:0:0:0:
86,60,34074,1,0,0:0:0:0:
104,236,34232,6,0,P|185:272|262:197,1,183.749994392395,2|0,0:0|0:0,0:0:0:0:
235,47,34864,2,0,L|308:41,1,70
385,149,35179,2,0,L|300:137,2,70
501,136,35653,6,0,P|507:178|449:238,1,122.499996261597
300,314,36127,2,0,P|293:272|290:221,1,70,2|0,0:0|0:0,0:0:0:0:
285,159,36443,1,2,0:0:0:0:
51,269,36758,5,0,0:0:0:0:
51,269,36916,2,0,P|89:291|179:255,1,140
285,159,37390,2,0,L|199:151,1,61.2499981307984,2|0,0:0|0:0,0:0:0:0:
101,152,37706,1,2,0:0:0:0:
101,152,38021,1,2,0:0:0:0:
309,83,38337,6,0,P|369:168|293:239,1,227.499989585877,2|0,0:0|0:0,0:0:0:0:
60,320,39600,2,0,P|46:288|48:254,1,56.8749973964692,2|0,0:0|0:0,0:0:0:0:
96,175,39916,2,0,L|87:118,1,56.8749973964692,2|0,3:0|0:0,0:0:0:0:
192,194,40232,1,8,0:3:0:0:
154,292,40390,1,4,0:3:0:0:
154,292,40548,2,0,P|195:280|223:275,1,56.8749973964692
292,211,40864,6,0,P|292:248|297:280,1,70,4|0,0:0|0:0,0:0:0:0:
397,351,41179,2,0,P|403:311|403:268,1,70,0|8,0:0|0:0,0:0:0:0:
384,186,41495,1,2,0:0:0:0:
384,186,41811,5,2,0:0:0:0:
453,76,41969,1,0,0:0:0:0:
453,76,42285,5,0,0:0:0:0:
319,43,42443,2,0,L|240:53,1,70,8|2,0:0|0:0,0:0:0:0:
117,117,42758,2,0,P|103:75|102:45,1,70,0|2,1:0|0:0,0:0:0:0:
248,173,43074,2,0,P|243:214|231:250,1,70
105,301,43390,6,0,P|165:269|232:286,1,140,10|0,0:0|0:0,0:0:0:0:
345,341,43864,1,2,1:2:0:0:
345,341,44337,2,0,P|355:272|356:202,1,140,10|0,0:0|3:0,0:0:0:0:
192,32,44969,2,0,P|192:70|199:110,1,70,10|0,0:0|0:0,0:0:0:0:
251,176,45285,1,2,1:2:0:0:
92,114,45600,2,0,P|81:146|76:183,1,70,8|0,0:0|0:0,0:0:0:0:
40,292,45916,6,0,B|161:309|161:309|220:294,1,183.749994392395,6|0,0:0|0:0,0:0:0:0:
342,203,46548,1,0,0:0:0:0:
342,203,46864,2,0,P|373:249|468:250,2,140,2|0|10,0:0|0:0|0:0,0:0:0:0:
237,230,47653,1,2,0:0:0:0:
166,151,47811,2,0,L|173:76,1,70,0|2,1:0|0:0,0:0:0:0:
305,40,48127,2,0,L|298:109,1,70,8|0,0:0|0:0,0:0:0:0:
237,230,48443,6,0,P|172:256|102:228,1,140,4|0,0:0|0:0,0:0:0:0:
26,142,48916,1,2,1:2:0:0:
26,142,49390,2,0,L|35:281,1,140,2|0,0:0|3:0,0:0:0:0:
241,299,50021,2,0,L|235:210,1,70,10|2,0:0|0:0,0:0:0:0:
338,132,50337,2,0,P|350:164|347:199,1,70,0|2,1:0|0:0,0:0:0:0:
227,125,50653,2,0,P|221:89|235:50,1,70,10|0,3:2|0:0,0:0:0:0:
367,21,50969,5,4,0:0:0:0:
367,21,51285,2,0,L|451:12,1,70,0|8,0:0|0:0,0:0:0:0:
464,116,51600,2,0,L|394:122,1,70
332,206,51916,1,2,0:0:0:0:
450,240,52074,2,0,P|379:192|317:222,1,140,2|0,0:0|0:0,0:0:0:0:
284,350,52548,2,0,L|276:252,1,70,8|2,0:0|0:0,0:0:0:0:
190,233,52864,2,0,L|196:316,1,70,0|2,1:0|0:0,0:0:0:0:
111,356,53179,2,0,L|104:271,1,70,8|0,0:0|0:0,0:0:0:0:
9,131,53495,6,0,P|64:171|132:159,1,140,10|0,0:0|0:0,0:0:0:0:
96,36,53969,1,2,1:2:0:0:
96,36,54443,2,0,L|253:27,1,140,10|0,0:0|3:0,0:0:0:0:
426,82,55074,1,10,0:0:0:0:
309,100,55390,6,0,P|341:67|436:95,1,140,2|2,1:2|0:0,0:0:0:0:
432,204,55864,1,0,0:0:0:0:
312,184,56021,2,0,L|303:254,1,70,10|0,0:0|0:0,0:0:0:0:
427,350,56337,2,0,L|423:281,1,70,8|0,0:0|0:0,0:0:0:0:
262,351,56653,2,0,L|335:334,2,70,0|0|0,1:0|0:0|0:0,0:0:0:0:
78,233,57127,6,0,L|224:259,1,140,10|0,0:0|0:0,0:0:0:0:
344,168,57600,2,0,P|311:175|278:188,1,61.2499981307984,0|0,3:0|0:0,0:0:0:0:
176,324,57916,1,0,1:0:0:0:
212,180,58074,1,8,0:0:0:0:
320,280,58232,1,0,3:0:0:0:
72,148,58548,6,0,B|40:188|45:231|45:231|84:295,1,140,14|0,0:0|3:0,0:0:0:0:
176,324,59021,1,8,0:0:0:0:
271,269,59179,2,0,L|381:272,1,105,0|0,1:0|0:0,0:0:0:0:
405,271,59495,1,0,0:0:0:0:
432,152,59653,6,0,B|438:115|438:115|428:66,1,70,0|0,3:0|0:0,0:0:0:0:
302,28,59969,1,0,0:0:0:0:
264,167,60127,1,10,0:0:0:0:
133,90,60285,1,0,1:0:0:0:
133,90,60364,1,0,1:0:0:0:
133,90,60443,2,0,L|219:80,1,70,10|0,1:2|1:0,0:0:0:0:
341,231,60758,2,0,L|324:314,1,70,10|0,1:2|0:0,0:0:0:0:
98,254,61074,1,4,0:0:0:0:
66,230,63285,5,2,0:0:0:0:
241,130,63600,1,2,0:0:0:0:
241,130,64232,2,0,P|314:66|391:125,1,209.999993591309
402,326,65179,2,0,L|396:257,1,52.4999983978272
316,143,65495,2,0,L|314:215,1,52.4999983978272,10|0,0:0|0:0,0:0:0:0:
222,322,65811,2,0,L|216:253,1,52.4999983978272,10|0,0:0|0:0,0:0:0:0:
194,112,66127,5,4,0:0:0:0:
194,112,66600,1,0,0:0:0:0:
76,182,66758,2,0,L|68:109,1,65.6250025033952,10|0,0:0|0:0,0:0:0:0:
194,112,67074,1,0,0:0:0:0:
76,182,67232,2,0,P|46:194|12:195,1,65.6250025033952,2|0,0:0|0:0,0:0:0:0:
23,52,67548,2,0,P|53:40|93:41,1,65.6250025033952
194,112,67864,2,0,L|172:251,1,131.25000500679,2|0,0:0|0:0,0:0:0:0:
96,350,68337,1,0,0:0:0:0:
26,258,68495,1,0,0:0:0:0:
96,350,68653,6,0,L|231:335,1,131.25000500679,10|0,0:0|0:0,0:0:0:0:
379,338,69127,1,0,3:0:0:0:
379,338,69206,1,0,3:0:0:0:
379,338,69285,2,0,L|393:263,1,65.6250025033952,10|0,3:2|0:0,0:0:0:0:
317,181,69600,1,0,0:0:0:0:
269,258,69758,2,0,P|227:192|288:94,1,196.875007510186,2|0,0:0|0:0,0:0:0:0:
497,183,70390,2,0,L|420:168,1,65.6250025033952,10|0,0:0|0:0,0:0:0:0:
317,181,70706,2,0,L|173:188,1,131.25000500679,2|0,0:0|0:0,0:0:0:0:
26,244,71179,6,0,L|19:152,1,70,10|0,0:0|0:0,0:0:0:0:
168,52,71495,2,0,P|212:88|311:64,1,140,0|10,0:0|0:0,0:0:0:0:
340,8,71969,1,0,0:0:0:0:
304,213,72127,1,0,0:0:0:0:
103,156,72285,6,0,L|179:143,1,70,0|10,0:0|0:0,0:0:0:0:
304,213,72600,1,0,0:0:0:0:
167,341,72758,2,0,L|152:257,1,70
315,143,73074,2,0,L|302:223,1,70,10|0,0:0|0:0,0:0:0:0:
96,123,73390,2,0,L|172:110,1,70
342,21,73706,1,4,0:0:0:0:
342,21,74337,5,0,1:0:0:0:
294,193,74653,1,0,1:0:0:0:
465,140,74969,1,0,1:0:0:0:
417,312,75285,2,0,B|379:303|379:303|348:305,1,70,0|0,1:0|0:0,0:0:0:0:
242,327,75521,1,0,1:0:0:0:
231,331,75600,2,0,L|146:319,1,70,0|0,1:0|0:0,0:0:0:0:
26,223,75916,2,0,L|106:214,1,70
389,142,76232,6,0,L|376:249,1,87.5,4|0,0:0|0:0,0:0:0:0:
219,213,76548,1,0,1:0:0:0:
446,107,76706,6,0,L|434:205,1,87.5,4|0,0:0|0:0,0:0:0:0:
219,213,77021,1,0,1:0:0:0:
278,33,77179,5,4,0:0:0:0:
256,192,77337,12,4,78127,0:3:0:0:
131,322,78758,6,0,L|105:117,1,192.500005874634,4|0,0:0|0:0,0:0:0:0:
222,211,79232,1,0,0:0:0:0:
33,158,79390,2,0,P|34:96|69:60,1,96.250002937317,0|0,1:0|0:0,0:0:0:0:
228,99,79706,2,0,L|330:86,1,96.250002937317
408,165,80021,5,8,0:0:0:0:
306,292,80179,2,0,L|290:181,1,96.250002937317,0|0,1:0|0:0,0:0:0:0:
438,249,80495,1,8,0:0:0:0:
214,301,80653,2,0,P|257:285|311:294,1,96.250002937317,0|0,1:0|0:0,0:0:0:0:
431,345,80969,2,0,L|438:237,1,96.250002937317,8|0,0:0|1:0,0:0:0:0:
430,77,81285,1,8,0:0:0:0:
430,77,81600,6,0,L|317:86,1,96.250002937317
116,134,81916,1,0,1:0:0:0:
232,264,82074,2,0,P|250:212|238:156,1,96.250002937317
106,38,82390,2,0,L|118:154,1,96.250002937317
106,317,82706,1,0,1:0:0:0:
232,264,82864,2,0,L|331:255,1,96.250002937317
445,177,83179,2,0,P|449:131|426:78,1,96.250002937317,0|0,1:0|0:0,0:0:0:0:
255,168,83495,2,0,P|318:165|362:146,1,96.250002937317,8|0,0:0|1:0,0:0:0:0:
169,45,83811,6,0,L|152:243,1,192.500005874634,4|0,0:0|0:0,0:0:0:0:
20,303,84285,1,0,3:0:0:0:
20,303,84364,1,0,3:0:0:0:
20,303,84443,2,0,P|81:312|136:304,1,96.250002937317,0|0,1:0|0:0,0:0:0:0:
248,268,84758,1,0,0:0:0:0:
368,324,84916,2,0,L|380:212,1,96.250002937317,8|0,0:0|0:0,0:0:0:0:
292,80,85232,5,0,1:0:0:0:
200,188,85390,1,0,0:0:0:0:
360,160,85548,1,0,0:0:0:0:
184,64,85706,5,0,1:0:0:0:
204,224,85864,1,0,1:0:0:0:
325,172,86021,1,8,0:0:0:0:
296,311,86179,1,0,0:0:0:0:
55,212,86337,1,4,0:0:0:0:
55,212,86653,6,0,L|40:105,1,96.250002937317
179,79,86969,1,0,1:0:0:0:
104,153,87127,1,0,1:0:0:0:
205,182,87285,1,0,1:0:0:0:
65,307,87443,6,0,P|118:276|257:318,1,192.500005874634,4|8,0:0|0:0,0:0:0:0:
414,340,87916,2,0,L|402:233,1,96.250002937317
272,51,88232,2,0,L|262:163,1,96.250002937317,2|0,1:3|0:0,0:0:0:0:
22,222,88548,1,0,3:0:0:0:
57,190,88626,1,0,3:0:0:0:
103,175,88705,1,0,3:0:0:0:
151,180,88784,1,0,3:0:0:0:
192,204,88864,6,0,P|255:231|352:167,1,192.500005874634,4|0,3:2|0:0,0:0:0:0:
272,51,89337,1,0,0:0:0:0:
272,51,89495,2,0,L|262:163,1,96.250002937317,0|0,1:0|0:0,0:0:0:0:
336,316,89811,2,0,L|451:303,1,96.250002937317
251,241,90127,5,8,0:0:0:0:
148,308,90285,2,0,L|46:299,2,96.250002937317,0|0|0,1:0|0:0|0:0,0:0:0:0:
20,172,90758,1,0,1:0:0:0:
20,172,91074,2,0,L|132:157,1,96.250002937317,8|0,0:0|0:0,0:0:0:0:
288,128,91390,6,0,L|397:140,1,96.250002937317,8|0,0:0|0:0,0:0:0:0:
470,153,91706,1,0,0:0:0:0:
297,284,91864,2,0,P|254:263|233:220,1,96.250002937317,0|0,0:0|1:0,0:0:0:0:
152,44,92179,1,8,0:0:0:0:
129,206,92337,1,0,1:0:0:0:
15,142,92495,6,0,L|216:115,1,192.500005874634,4|0,0:0|1:0,0:0:0:0:
422,170,92969,2,0,P|377:151|330:156,1,96.250002937317,0|0,0:0|1:0,0:0:0:0:
300,235,93206,1,0,1:0:0:0:
304,249,93285,5,0,1:0:0:0:
215,195,93443,1,0,1:0:0:0:
217,94,93600,1,0,1:0:0:0:
305,44,93758,1,0,1:0:0:0:
393,96,93916,6,0,L|391:200,1,96.250002937317,4|0,0:0|0:0,0:0:0:0:
306,345,94232,2,0,L|303:244,1,96.250002937317,8|0,0:0|0:0,0:0:0:0:
146,131,94548,2,0,L|47:119,1,96.250002937317,0|0,1:0|0:0,0:0:0:0:
79,241,94864,1,8,0:0:0:0:
208,194,95021,6,0,P|233:154|202:60,1,144.375004405975,4|0,0:0|0:0,0:0:0:0:
179,51,95337,1,8,0:0:0:0:
321,112,95495,2,0,L|426:96,1,96.250002937317,8|0,0:0|0:0,0:0:0:0:
491,250,95811,2,0,L|381:233,1,96.250002937317,0|0,1:0|0:0,0:0:0:0:
187,227,96127,1,0,3:0:0:0:
152,234,96205,1,0,3:0:0:0:
117,242,96284,1,0,3:0:0:0:
82,250,96363,1,0,3:0:0:0:
48,258,96443,6,0,L|42:143,1,96.250002937317,4|0,3:2|0:0,0:0:0:0:
231,44,96758,2,0,P|262:83|264:129,1,96.250002937317
187,227,97074,1,0,1:0:0:0:
184,112,97232,1,0,1:0:0:0:
80,297,97390,2,0,L|143:287,1,48.1250014686585,0|0,1:0|0:0,0:0:0:0:
242,285,97548,6,0,L|447:298,1,192.500005874634,4|0,0:0|1:0,0:0:0:0:
500,141,98021,2,0,P|433:144|389:153,1,96.250002937317
234,144,98337,5,0,1:0:0:0:
185,92,98443,1,0,1:0:0:0:
210,26,98548,1,0,1:0:0:0:
278,10,98653,5,0,1:0:0:0:
325,61,98758,1,0,1:0:0:0:
306,129,98864,1,0,1:0:0:0:
234,144,98969,6,0,B|183:86|108:106|108:106|56:181|104:252,1,280,4|0,1:2|0:0,0:0:0:0:
282,330,100074,5,0,0:0:0:0:
282,330,100232,2,0,P|289:279|291:246,1,70,4|0,0:0|0:0,0:0:0:0:
367,122,100548,2,0,P|375:187|375:217,1,70
190,266,100864,2,0,P|114:266|93:262,1,70,4|0,0:0|0:0,0:0:0:0:
110,92,101179,2,0,P|144:82|179:77,1,70
293,169,101495,1,4,0:0:0:0:
256,192,101574,12,0,102758,0:0:0:0:
256,192,103390,5,2,0:0:0:0:
384,308,104021,6,0,L|400:212,1,78.7499975967408,12|0,0:0|0:0,0:0:0:0:
249,113,104337,2,0,L|257:209,1,78.7499975967408,8|0,0:0|0:0,0:0:0:0:
265,302,104653,1,0,1:0:0:0:
74,257,104811,2,0,L|165:242,1,78.7499975967408
322,79,105127,6,0,P|253:33|178:78,1,157.499995193482,4|0,0:0|0:0,0:0:0:0:
81,126,105600,2,0,P|39:125|-8:112,1,78.7499975967408,2|0,0:0|0:0,0:0:0:0:
161,173,105916,2,0,P|130:201|88:226,1,78.7499975967408,2|0,1:2|0:0,0:0:0:0:
250,151,106232,2,0,P|248:193|236:240,1,78.7499975967408,2|8,0:0|0:0,0:0:0:0:
140,338,106548,5,4,0:0:0:0:
140,338,106864,2,0,L|56:323,1,78.7499975967408,8|0,0:0|0:0,0:0:0:0:
208,250,107179,1,0,1:0:0:0:
273,335,107337,2,0,L|375:317,1,78.7499975967408
460,160,107653,6,0,P|444:104|328:84,1,157.499995193482,4|0,0:0|0:0,0:0:0:0:
244,136,108127,2,0,L|156:124,1,78.7499975967408,8|0,0:0|0:0,0:0:0:0:
32,232,108443,2,0,L|110:222,1,78.7499975967408,2|0,0:3|0:0,0:0:0:0:
244,136,108758,1,0,1:0:0:0:
257,275,108916,1,0,0:0:0:0:
403,176,109074,6,0,B|415:133|415:133|407:77,1,78.7499975967408,4|0,0:0|0:0,0:0:0:0:
244,136,109390,2,0,L|253:228,1,78.7499975967408,8|0,0:0|0:0,0:0:0:0:
213,331,109706,1,0,1:0:0:0:
99,301,109864,2,0,L|17:292,1,78.7499975967408
87,151,110179,6,0,L|262:134,1,157.499995193482,4|0,0:0|0:0,0:0:0:0:
314,79,110653,2,0,P|332:113|333:153,1,78.7499975967408,2|0,0:0|0:0,0:0:0:0:
419,163,110969,2,0,P|407:200|380:229,1,78.7499975967408,2|0,1:2|0:0,0:0:0:0:
434,298,111285,2,0,P|399:316|359:317,1,78.7499975967408,2|8,0:0|0:0,0:0:0:0:
212,228,111600,5,4,0:0:0:0:
212,228,111916,2,0,L|117:239,1,78.7499975967408,8|0,0:0|0:0,0:0:0:0:
55,195,112232,1,0,1:0:0:0:
178,63,112390,2,0,L|168:153,1,78.7499975967408
96,319,112706,6,0,P|41:269|55:195,1,157.499995193482,4|0,0:0|0:0,0:0:0:0:
240,133,113179,2,0,L|329:146,1,78.7499975967408,8|0,0:0|0:0,0:0:0:0:
426,212,113495,2,0,P|439:175|442:136,1,78.7499975967408,2|0,0:3|0:0,0:0:0:0:
293,62,113811,1,0,1:0:0:0:
270,215,113969,1,0,0:0:0:0:
403,300,114127,6,0,P|364:291|325:289,1,78.7499975967408,4|0,0:0|0:0,0:0:0:0:
219,291,114443,2,0,P|179:295|140:291,1,78.7499975967408,8|0,0:0|0:0,0:0:0:0:
33,249,114758,1,0,1:0:0:0:
177,138,114916,2,0,P|183:178|180:216,1,78.7499975967408
33,249,115232,6,0,L|23:91,1,157.499995193482,4|0,0:0|0:0,0:0:0:0:
177,138,115706,2,0,P|224:161|273:167,1,78.7499975967408,2|0,0:0|0:0,0:0:0:0:
400,107,116021,2,0,P|355:136|326:175,1,78.7499975967408,2|0,0:0|0:0,0:0:0:0:
319,315,116337,2,0,P|318:275|307:237,1,78.7499975967408,2|8,0:0|0:0,0:0:0:0:
247,52,116653,5,4,0:0:0:0:
247,52,116969,2,0,L|153:65,1,78.7499975967408,8|0,0:0|0:0,0:0:0:0:
40,103,117285,1,0,1:0:0:0:
152,231,117443,2,0,L|163:133,1,78.7499975967408
76,298,117758,6,0,P|137:337|214:307,1,157.499995193482,4|0,0:0|0:0,0:0:0:0:
273,190,118232,1,8,0:0:0:0:
273,190,118548,2,0,L|359:179,1,78.7499975967408,8|0,0:0|0:0,0:0:0:0:
467,92,118864,2,0,L|374:81,1,78.7499975967408,2|0,0:3|0:0,0:0:0:0:
186,122,119179,6,0,P|170:76|168:27,1,78.7499975967408,4|0,0:0|0:0,0:0:0:0:
128,203,119495,2,0,P|118:251|100:290,1,78.7499975967408,8|0,0:0|0:0,0:0:0:0:
73,125,119811,1,0,1:0:0:0:
224,206,119969,2,0,L|302:213,1,78.7499975967408
403,302,120285,6,0,P|439:227|419:149,1,157.499995193482,4|0,0:0|0:0,0:0:0:0:
187,69,120758,2,0,P|223:85|262:90,1,78.7499975967408,2|0,1:2|0:0,0:0:0:0:
350,65,120995,1,0,1:0:0:0:
358,71,121074,2,0,P|362:109|348:148,1,78.7499975967408,2|0,1:2|0:0,0:0:0:0:
241,185,121390,2,0,P|186:174|152:153,1,78.7499975967408,2|0,1:2|0:0,0:0:0:0:
46,54,121706,5,4,0:0:0:0:
47,224,121864,1,0,0:0:0:0:
210,204,122021,1,0,1:0:0:0:
31,146,122179,1,4,0:0:0:0:
79,313,122337,2,0,L|161:302,1,78.7499975967408
315,283,122653,2,0,L|433:294,1,118.124996395111,2|0,0:3|0:0,0:0:0:0:
464,322,122969,6,0,L|474:374,2,52.4999983978272,4|0|0,0:0|0:0|3:0,0:0:0:0:
422,222,123285,2,0,L|429:170,2,52.4999983978272,0|0|0,3:0|3:0|3:0,0:0:0:0:
315,283,123600,2,0,L|263:291,2,52.4999983978272,0|0|0,3:0|3:0|3:0,0:0:0:0:
422,222,123916,2,0,L|473:230,2,52.4999983978272,0|0|0,3:0|3:0|3:0,0:0:0:0:
315,161,124232,1,4,0:0:0:0:
256,192,124311,12,2,128969,0:0:0:0:
185,282,129285,6,0,L|266:273,1,65.6250025033952,2|0,0:0|0:0,0:0:0:0:
368,181,129600,2,0,L|280:170,1,65.6250025033952,2|0,0:0|0:0,0:0:0:0:
159,185,129916,2,0,P|152:130|152:61,1,98.4375037550928
80,64,130232,2,0,P|77:97|78:134,1,65.6250025033952,2|0,0:0|0:0,0:0:0:0:
119,254,130548,2,0,P|150:265|182:261,1,65.6250025033952,2|0,0:0|0:0,0:0:0:0:
279,220,130864,2,0,P|337:206|398:227,1,98.4375037550928
450,214,131179,2,0,L|438:292,1,65.6250025033952,2|0,0:0|0:0,0:0:0:0:
335,347,131495,2,0,L|330:272,1,65.6250025033952,2|0,0:0|0:0,0:0:0:0:
318,136,131811,6,0,L|319:56,1,65.6250025033952,2|0,0:0|0:0,0:0:0:0:
105,61,132127,2,0,L|178:50,1,65.6250025033952,2|0,0:0|0:0,0:0:0:0:
318,136,132443,2,0,P|262:130|194:125,1,98.4375037550928
156,197,132758,2,0,L|223:203,1,65.6250025033952,2|0,0:0|0:0,0:0:0:0:
144,295,133074,1,2,0:0:0:0:
67,199,133232,1,0,0:0:0:0:
154,111,133390,2,0,P|199:133|272:114,1,98.4375037550928
272,112,133706,5,2,0:0:0:0:
358,232,133864,1,0,0:0:0:0:
419,98,134021,1,2,0:0:0:0:
349,147,134179,1,2,0:0:0:0:
