osu file format v14

[General]
AudioFilename: OP.mp3
AudioLeadIn: 0
PreviewTime: 20036
Countdown: 0
SampleSet: Soft
StackLeniency: 0.7
Mode: 0
LetterboxInBreaks: 0
WidescreenStoryboard: 1

[Editor]
DistanceSpacing: 1
BeatDivisor: 4
GridSize: 4
TimelineZoom: 1.5

[Metadata]
Title:Towa ni Saku Hana (short ver.)
TitleUnicode:永遠に咲く花(short ver.)
Artist:AiRI
ArtistUnicode:AiRI
Creator:KaedekaShizuru
Version:Hana
Source:枯れない世界と終わる花
Tags:Karenai sekai to owaru hana the rainbow appears after flowering rain sweet & tea galgame visual novel eroge opening DreaM117er m1223961117 Pata-Mon Nymph Chaoslitz
BeatmapID:1092280
BeatmapSetID:514145

[Difficulty]
HPDrainRate:7
CircleSize:4
OverallDifficulty:8
ApproachRate:9
SliderMultiplier:2.4
SliderTickRate:1

[Events]
//Background and Video events
0,0,"Haru.jpg",0,0
Video,0,"optc.flv"
//Break Periods
//Storyboard Layer 0 (Background)
//Storyboard Layer 1 (Fail)
//Storyboard Layer 2 (Pass)
//Storyboard Layer 3 (Foreground)
//Storyboard Sound Samples

[TimingPoints]
458,631.578947368421,4,2,1,20,1,0
458,-166.666666666667,4,2,1,20,0,0
22405,-166.666666666667,4,2,1,5,0,0
22563,-166.666666666667,4,2,1,20,0,0
23510,-166.666666666667,4,2,1,5,0,0
23668,-166.666666666667,4,2,1,20,0,0
23984,-166.666666666667,4,2,1,5,0,0
24142,-166.666666666667,4,2,1,20,0,0
24773,-166.666666666667,4,2,1,5,0,0
25089,-166.666666666667,4,2,1,20,0,0
28563,-166.666666666667,4,2,1,5,0,0
28721,-166.666666666667,4,2,1,20,0,0
29036,-166.666666666667,4,2,1,5,0,0
29194,-166.666666666667,4,2,1,20,0,0
29668,-166.666666666667,4,2,1,5,0,0
30773,-166.666666666667,4,2,1,20,0,0
38352,-200,4,2,1,20,0,0
38984,-100,4,2,1,20,0,0
40879,-125,4,2,1,40,0,0
56036,-125,4,2,1,45,0,0
61089,-125,4,2,1,30,0,0
63615,-200,4,2,1,30,0,0
64247,-125,4,2,1,30,0,0
66142,-125,4,2,1,40,0,0
73721,-166.666666666667,4,2,1,50,0,0
74352,-100,4,2,1,50,0,0
75931,-100,4,2,1,30,0,0
76247,-100,4,2,1,60,0,0
76405,-100,4,2,1,10,0,0
76563,-100,4,2,1,60,0,0
76879,-100,4,2,1,10,0,0
77194,-100,4,2,1,60,0,0
78142,-100,4,2,1,40,0,0
78773,-83.3333333333333,4,2,1,60,0,1
102773,-83.3333333333333,4,2,1,20,0,1
103405,-166.666666666667,4,2,1,30,0,0
104036,-83.3333333333333,4,2,1,60,0,1
124247,-100,4,2,1,60,0,0
124326,-100,4,2,1,40,0,0
134194,-100,4,2,1,20,0,0

[Colours]
Combo1 : 201,182,192
Combo2 : 235,140,126
Combo3 : 135,163,237
Combo4 : 248,167,101

[HitObjects]
120,180,458,5,2,0:0:0:0:
248,124,615,1,2,0:0:0:0:
136,212,773,1,0,0:0:0:0:
264,260,931,1,2,0:0:0:0:
88,296,1089,1,2,0:0:0:0:
212,196,1405,5,2,0:0:0:0:
120,64,1563,1,2,0:0:0:0:
264,24,1721,1,0,0:0:0:0:
172,120,1879,1,2,0:0:0:0:
332,212,2036,1,2,0:0:0:0:
280,112,2984,5,2,0:0:0:0:
436,48,3142,1,2,0:0:0:0:
296,4,3300,1,0,0:0:0:0:
468,136,3458,1,2,0:0:0:0:
260,188,3615,1,2,0:0:0:0:
488,284,3931,5,2,0:0:0:0:
352,168,4089,1,2,0:0:0:0:
488,120,4247,1,0,0:0:0:0:
404,280,4405,1,2,0:0:0:0:
260,188,4563,2,0,L|244:104,1,71.9999978027344,2|2,0:0|0:0,0:0:0:0:
408,96,5510,5,2,0:0:0:0:
240,80,5668,1,2,0:0:0:0:
352,168,5826,1,0,0:0:0:0:
300,0,5984,1,2,0:0:0:0:
268,220,6142,1,2,0:0:0:0:
28,268,6458,5,2,0:0:0:0:
180,168,6615,1,2,0:0:0:0:
64,192,6773,1,0,0:0:0:0:
208,296,6931,1,2,0:0:0:0:
32,352,7089,1,2,0:0:0:0:
356,268,8036,5,2,0:0:0:0:
248,160,8194,1,2,0:0:0:0:
404,184,8352,1,0,0:0:0:0:
252,296,8510,1,2,0:0:0:0:
416,352,8668,1,2,0:0:0:0:
332,128,8984,5,2,0:0:0:0:
168,188,9142,1,2,0:0:0:0:
292,228,9300,1,0,0:0:0:0:
160,96,9458,1,2,0:0:0:0:
304,16,9615,2,0,L|296:64,1,35.9999989013672,2|0,0:0|0:0,0:0:0:0:
412,112,9931,2,0,L|420:152,1,35.9999989013672,2|2,0:0|0:0,0:0:0:0:
392,0,10247,1,2,0:0:0:0:
64,232,10563,5,2,0:0:0:0:
240,140,10721,1,2,0:0:0:0:
92,148,10879,1,0,0:0:0:0:
204,268,11036,1,2,0:0:0:0:
80,348,11194,1,2,0:0:0:0:
408,248,11510,5,2,0:0:0:0:
264,216,11668,1,2,0:0:0:0:
440,168,11826,1,0,0:0:0:0:
336,84,11984,1,2,0:0:0:0:
320,292,12142,1,2,0:0:0:0:
160,132,13089,5,2,0:0:0:0:
256,48,13247,1,2,0:0:0:0:
96,24,13405,1,0,0:0:0:0:
244,132,13563,1,2,0:0:0:0:
88,212,13721,1,2,0:0:0:0:
408,252,14036,5,2,0:0:0:0:
384,80,14194,1,2,0:0:0:0:
244,132,14352,1,0,0:0:0:0:
412,164,14510,1,2,0:0:0:0:
304,288,14668,2,0,L|296:336,1,35.9999989013672,2|0,0:0|0:0,0:0:0:0:
324,180,14984,1,2,0:0:0:0:
8,116,15615,5,2,0:0:0:0:
168,52,15773,1,2,0:0:0:0:
64,188,15931,1,0,0:0:0:0:
168,136,16089,1,2,0:0:0:0:
64,276,16247,1,2,0:0:0:0:
368,276,16563,5,2,0:0:0:0:
236,212,16721,1,2,0:0:0:0:
384,160,16879,1,0,0:0:0:0:
280,280,17036,1,2,0:0:0:0:
460,324,17194,1,2,0:0:0:0:
264,68,18142,5,2,0:0:0:0:
104,104,18300,1,2,0:0:0:0:
196,0,18458,1,0,0:0:0:0:
328,140,18615,1,2,0:0:0:0:
180,232,18773,2,0,L|176:280,1,35.9999989013672,2|2,0:0|0:0,0:0:0:0:
188,112,19089,1,2,0:0:0:0:
256,192,19168,12,2,20036,0:0:0:0:
320,200,20668,5,2,0:0:0:0:
320,200,20984,2,0,P|360:192|396:192,1,71.9999978027344,0|0,0:0|3:0,0:0:0:0:
248,308,21615,1,2,0:0:0:0:
248,308,21773,2,0,L|172:328,1,71.9999978027344,0|0,0:0|3:0,0:0:0:0:
68,308,22247,2,0,L|56:348,1,35.9999989013672,0|0,3:0|0:0,0:0:0:0:
68,208,22563,1,0,3:0:0:0:
68,208,22879,2,0,L|72:156,1,35.9999989013672,0|0,0:0|0:0,0:0:0:0:
184,96,23194,6,0,L|160:12,1,71.9999978027344,2|0,0:0|0:0,0:0:0:0:
316,84,23668,2,0,P|312:120|296:168,1,71.9999978027344,2|0,0:0|0:0,0:0:0:0:
228,236,24142,2,0,P|168:256|80:264,1,143.999995605469,2|2,0:0|0:0,0:0:0:0:
356,360,25089,2,0,P|395:369|440:364,1,71.9999978027344,2|0,0:0|0:0,0:0:0:0:
212,290,25721,5,2,0:0:0:0:
376,64,26352,1,0,3:0:0:0:
308,192,26668,2,0,B|280:240|312:300|312:300|252:316|200:284,1,215.999993408203,2|0,0:0|3:0,0:0:0:0:
72,128,27931,2,0,L|36:120,1,35.9999989013672
172,92,28247,6,0,P|180:124|172:164,1,71.9999978027344,2|0,0:0|0:0,0:0:0:0:
52,228,28721,2,0,P|76:264|104:284,1,71.9999978027344,2|0,0:0|0:0,0:0:0:0:
228,332,29194,2,0,L|344:344,1,107.999996704102,2|0,0:0|3:0,0:0:0:0:
264,176,29826,6,0,L|256:224,1,35.9999989013672,2|0,0:0|0:0,0:0:0:0:
236,296,30142,1,2,0:0:0:0:
352,228,30300,2,0,L|364:276,1,35.9999989013672
360,60,30773,5,2,0:0:0:0:
360,60,31089,2,0,L|436:48,1,71.9999978027344,0|0,0:0|3:0,0:0:0:0:
292,176,31721,1,2,0:0:0:0:
292,176,31879,2,0,P|240:180|200:176,1,71.9999978027344,0|0,0:0|3:0,0:0:0:0:
412,184,32352,2,0,L|408:228,1,35.9999989013672,0|0,3:0|0:0,0:0:0:0:
348,320,32668,1,0,3:0:0:0:
512,284,32984,2,0,L|500:244,1,35.9999989013672
412,184,33300,6,0,P|400:140|400:108,1,71.9999978027344,2|0,0:0|0:0,0:0:0:0:
480,32,33773,2,0,P|504:68|508:108,1,71.9999978027344,2|0,0:0|0:0,0:0:0:0:
412,184,34247,2,0,P|336:188|268:208,1,143.999995605469,2|2,0:0|0:0,0:0:0:0:
168,284,35194,1,2,3:2:0:0:
156,136,35510,2,0,L|152:88,1,35.9999989013672
252,0,35826,6,0,L|232:152,1,143.999995605469,2|0,0:0|3:0,0:0:0:0:
340,252,36773,1,2,0:0:0:0:
340,252,37089,2,0,P|376:216|384:156,2,107.999996704102,2|0|2,0:0|0:0|0:0,0:0:0:0:
196,312,38352,6,0,P|136:328|72:324,1,120,2|0,0:0|0:0,0:0:0:0:
260,188,39615,5,0,0:0:0:0:
80,200,39931,1,6,3:0:0:0:
296,184,40247,1,0,1:0:0:0:
196,248,40405,1,4,0:3:0:0:
240,88,40563,1,0,0:0:0:0:
472,128,40879,6,0,P|484:176|464:236,1,96,4|0,0:0|0:0,0:0:0:0:
352,300,41352,1,4,0:3:0:0:
352,300,41510,2,0,L|248:308,1,96,0|0,0:0|0:0,0:0:0:0:
148,228,42142,1,0,0:0:0:0:
184,368,42458,1,4,0:3:0:0:
272,144,42773,1,0,1:0:0:0:
272,144,43089,2,0,L|320:164,1,48,0|0,0:0|0:0,0:0:0:0:
148,228,43405,6,0,P|124:184|124:128,1,96,4|0,0:3|0:0,0:0:0:0:
184,24,43879,1,0,1:0:0:0:
312,280,44352,1,4,0:3:0:0:
88,288,44668,1,0,0:0:0:0:
228,200,44984,1,4,0:3:0:0:
288,368,45300,2,0,P|336:372|380:340,1,96,0|0,1:0|0:0,0:0:0:0:
192,232,45931,6,0,L|88:216,1,96,4|0,0:3|0:0,0:0:0:0:
168,320,46405,1,4,0:3:0:0:
168,320,46563,2,0,P|228:316|268:288,1,96,0|0,0:0|0:0,0:0:0:0:
300,152,47194,1,0,0:0:0:0:
396,260,47510,1,4,0:3:0:0:
172,144,47826,1,0,1:0:0:0:
408,68,48142,2,0,L|400:120,1,48,0|0,0:0|0:0,0:0:0:0:
314,246,48458,6,0,L|299:151,1,96,4|0,0:3|0:0,0:0:0:0:
190,49,48931,2,0,L|172:144,1,96,0|0,1:0|0:0,0:0:0:0:
144,292,49405,1,4,0:3:0:0:
24,236,49721,1,0,0:0:0:0:
224,220,50036,2,0,L|232:268,1,48,4|0,0:3|0:0,0:0:0:0:
80,344,50352,1,0,1:0:0:0:
104,160,50510,2,0,L|96:220,1,48,0|2,0:0|0:3,0:0:0:0:
312,308,50984,6,0,P|344:256|344:200,1,96,4|0,0:0|0:0,0:0:0:0:
292,104,51458,1,4,0:3:0:0:
292,104,51615,2,0,L|184:88,1,96,0|0,0:0|0:0,0:0:0:0:
396,24,52247,1,0,0:0:0:0:
504,168,52563,1,4,0:3:0:0:
304,212,52879,1,0,1:0:0:0:
408,124,53194,2,0,L|420:176,1,48,0|0,0:0|0:0,0:0:0:0:
296,307,53510,6,0,L|304:212,1,96,4|0,0:3|0:0,0:0:0:0:
168,120,53984,2,0,L|188:216,1,96,0|0,1:0|0:0,0:0:0:0:
296,308,54458,1,4,0:3:0:0:
116,328,54773,1,0,0:0:0:0:
252,156,55089,1,4,0:3:0:0:
20,180,55405,2,0,P|3:130|20:66,1,96,0|0,1:0|0:0,0:0:0:0:
248,16,56036,6,0,L|352:28,1,96,4|0,0:3|0:0,0:0:0:0:
224,120,56510,1,4,0:3:0:0:
392,160,56668,2,0,P|448:124|460:92,1,96,0|0,1:0|0:0,0:0:0:0:
312,120,57142,2,0,P|344:172|316:256,1,144,4|4,0:3|0:3,0:0:0:0:
120,288,57931,1,0,1:0:0:0:
216,352,58089,1,4,3:0:0:0:
184,192,58247,1,0,0:0:0:0:
8,284,58563,6,0,P|16:336|48:376,1,95.9999999999999,4|0,0:3|0:0,0:0:0:0:
216,352,59036,1,4,0:3:0:0:
216,352,59194,2,0,L|236:252,1,96,0|0,1:0|0:0,0:0:0:0:
348,152,59668,6,0,P|376:188|392:248,1,96,4|0,0:0|0:0,0:0:0:0:
156,264,60142,1,4,0:3:0:0:
356,332,60300,1,0,1:0:0:0:
356,332,60379,1,0,1:0:0:0:
356,332,60458,1,0,1:0:0:0:
264,96,60615,1,8,0:3:0:0:
276,280,60773,1,8,0:3:0:0:
140,160,60931,1,4,0:3:0:0:
420,192,61089,5,4,0:0:0:0:
420,192,62984,5,2,0:0:0:0:
420,192,63615,2,0,P|452:132|436:72,1,120,2|2,0:0|0:0,0:0:0:0:
144,56,64879,6,0,L|96:72,1,48,2|0,0:0|0:0,0:0:0:0:
264,132,65194,2,0,L|312:152,1,48,2|0,0:0|0:0,0:0:0:0:
132,232,65510,2,0,L|121:185,1,48,8|0,0:3|0:0,0:0:0:0:
304,276,65826,2,0,L|292:328,1,48,4|0,0:3|0:0,0:0:0:0:
52,344,66142,6,0,B|20:312|20:268|20:268|40:244,1,96,4|0,0:0|0:0,0:0:0:0:
172,120,66615,1,0,0:0:0:0:
172,120,66773,2,0,L|192:172,1,48,4|0,0:3|0:0,0:0:0:0:
304,244,67089,1,0,0:0:0:0:
188,320,67247,2,0,L|136:328,1,48,0|0,0:0|0:0,0:0:0:0:
384,328,67563,6,0,P|416:280|416:236,1,96,0|0,0:0|0:0,0:0:0:0:
336,44,68036,2,0,P|316:87|322:134,1,96,4|0,0:3|0:0,0:0:0:0:
476,176,68510,1,0,0:0:0:0:
304,244,68668,6,0,L|208:252,1,96,0|0,0:0|0:0,0:0:0:0:
96,320,69142,1,0,0:0:0:0:
232,224,69300,2,0,L|240:172,1,48,4|0,0:3|0:0,0:0:0:0:
144,68,69615,1,0,0:0:0:0:
336,44,69773,6,0,B|384:72|400:128|400:128|392:172,1,144,0|0,0:0|0:0,0:0:0:0:
232,224,70405,1,0,0:0:0:0:
372,312,70563,2,0,P|428:312|472:292,1,96,4|0,0:3|0:0,0:0:0:0:
268,128,71194,5,4,0:3:0:0:
188,364,71510,1,0,0:0:0:0:
72,196,71826,2,0,L|80:144,1,48,4|0,0:3|0:0,0:0:0:0:
292,124,72142,1,0,0:0:0:0:
79,148,72300,1,4,0:3:0:0:
312,240,72458,6,0,L|296:340,1,96,4|2,0:3|0:0,0:0:0:0:
160,148,73089,2,0,L|164:84,1,48,4|0,0:3|0:0,0:0:0:0:
104,272,73405,2,0,L|140:308,1,48,2|0,0:0|0:0,0:0:0:0:
396,320,73721,6,0,P|426:260|425:219,1,107.999996704102,4|0,0:0|0:0,0:0:0:0:
304,60,74352,6,0,L|240:80,1,60,4|0,0:3|0:0,0:0:0:0:
425,220,74668,2,0,L|492:240,1,60,4|0,0:3|0:0,0:0:0:0:
268,224,74984,6,0,L|216:184,1,60,4|0,0:3|0:0,0:0:0:0:
380,16,75300,1,4,0:3:0:0:
152,88,75458,1,4,0:3:0:0:
152,88,75536,1,4,0:3:0:0:
152,88,75615,2,0,L|92:92,1,60,4|0,0:3|0:0,0:0:0:0:
352,160,75931,1,4,0:3:0:0:
236,348,76089,1,0,0:0:0:0:
52,192,76247,6,0,L|64:264,1,60,4|0,0:0|0:0,0:0:0:0:
320,300,76563,1,0,1:0:0:0:
88,176,76721,6,0,L|76:244,1,60,4|0,0:0|0:0,0:0:0:0:
344,308,77036,1,0,1:0:0:0:
124,164,77194,5,4,0:0:0:0:
256,192,77352,12,4,78142,0:3:0:0:
144,244,78773,6,0,L|214:228,1,71.9999978027344,4|0,0:0|0:0,0:0:0:0:
20,168,79089,1,4,3:0:0:0:
180,16,79247,1,4,3:0:0:0:
332,80,79405,2,0,B|284:120|312:192|312:192|332:200,1,143.999995605469,0|0,1:0|0:0,0:0:0:0:
440,264,79879,6,0,L|512:256,1,71.9999978027344,4|0,0:3|0:0,0:0:0:0:
344,348,80194,2,0,L|272:336,1,71.9999978027344,0|0,1:0|0:0,0:0:0:0:
224,120,80510,1,4,0:3:0:0:
384,184,80668,1,0,1:0:0:0:
156,280,80826,1,0,0:0:0:0:
324,248,80984,1,4,3:0:0:0:
212,76,81142,1,0,0:0:0:0:
424,0,81300,6,0,P|432:36|436:88,1,71.9999978027344,4|0,0:3|0:0,0:0:0:0:
304,152,81615,1,4,0:3:0:0:
468,216,81773,1,4,0:3:0:0:
216,220,81931,2,0,P|196:176|196:140,1,71.9999978027344,0|0,1:0|0:0,0:0:0:0:
284,28,82247,1,0,0:0:0:0:
384,236,82405,6,0,B|405:294|404:332|404:332|381:371,1,143.999995605469,4|0,3:0|1:0,0:0:0:0:
201,290,82879,2,0,L|216:220,1,71.9999978027344,0|4,0:0|0:3,0:0:0:0:
16,248,83194,1,0,1:0:0:0:
248,212,83352,1,4,0:3:0:0:
128,116,83510,1,0,0:0:0:0:
116,344,83668,1,0,1:0:0:0:
368,268,83826,6,0,P|352:196|344:116,1,143.999995605469,4|0,0:0|0:0,0:0:0:0:
460,44,84300,1,4,0:3:0:0:
260,0,84458,2,0,L|248:80,1,71.9999978027344,0|0,1:0|0:0,0:0:0:0:
150,214,84773,1,0,0:0:0:0:
150,214,84931,2,0,L|130:126,1,71.9999978027344,4|0,0:3|0:0,0:0:0:0:
247,307,85247,6,0,P|187:344|116:344,1,143.999995605469,0|0,1:0|0:0,0:0:0:0:
56,216,85721,1,0,1:0:0:0:
230,182,85879,1,0,1:0:0:0:
134,143,86036,1,4,0:3:0:0:
156,248,86194,1,0,0:0:0:0:
368,172,86352,6,0,B|388:132|380:96|380:96|352:64,1,107.999996704102,4|0,0:0|0:0,0:0:0:0:
230,182,86668,2,0,B|170:186|130:138,1,107.999996704102,4|0,0:3|0:0,0:0:0:0:
244,20,86984,1,0,1:0:0:0:
32,36,87142,1,0,1:0:0:0:
232,48,87300,1,0,1:0:0:0:
32,172,87458,6,0,B|-4:224|12:280|12:280|48:304,1,143.999995605469,4|0,0:0|1:0,0:0:0:0:
316,220,87931,1,4,0:3:0:0:
148,156,88089,1,0,0:0:0:0:
148,156,88168,1,0,0:0:0:0:
148,156,88247,2,0,L|132:76,1,71.9999978027344,4|0,0:0|0:0,0:0:0:0:
144,336,88563,1,0,1:0:0:0:
284,128,88721,1,0,1:0:0:0:
328,364,88879,6,0,L|408:352,1,71.9999978027344,4|0,0:0|0:0,0:0:0:0:
208,248,89194,1,4,0:3:0:0:
52,288,89352,1,4,0:3:0:0:
44,40,89510,2,0,L|119:57,1,71.9999978027344,0|0,1:0|0:0,0:0:0:0:
120,236,89826,1,0,0:0:0:0:
328,216,89984,6,0,P|352:176|356:136,1,71.9999978027344,4|0,0:3|0:0,0:0:0:0:
196,44,90300,2,0,L|204:124,1,71.9999978027344,0|0,1:0|0:0,0:0:0:0:
328,216,90615,1,4,0:3:0:0:
168,312,90773,1,0,1:0:0:0:
112,128,90931,1,0,0:0:0:0:
340,176,91089,2,0,L|432:164,1,71.9999978027344,4|0,0:3|0:0,0:0:0:0:
301,299,91405,6,0,B|258:330|210:330|210:330|144:301,1,143.999995605469,4|0,0:3|0:0,0:0:0:0:
40,180,91879,1,0,0:0:0:0:
224,136,92036,1,0,1:0:0:0:
172,256,92194,1,4,0:3:0:0:
152,32,92352,1,0,1:0:0:0:
336,50,92510,6,0,B|377:93|365:143|365:143|329:187,1,143.999995605469,4|4,0:0|3:0,0:0:0:0:
148,176,92984,1,0,1:0:0:0:
296,260,93142,1,0,1:0:0:0:
296,260,93221,1,0,1:0:0:0:
296,260,93300,2,0,L|384:268,1,71.9999978027344,0|0,1:0|1:0,0:0:0:0:
160,332,93615,1,0,1:0:0:0:
288,376,93773,1,0,1:0:0:0:
240,188,93931,6,0,L|156:196,1,71.9999978027344,4|0,0:0|0:0,0:0:0:0:
416,212,94247,1,0,0:0:0:0:
240,96,94405,1,0,0:0:0:0:
412,16,94563,2,0,L|404:88,1,71.9999978027344,0|0,1:0|0:0,0:0:0:0:
324,180,94879,1,0,0:0:0:0:
472,288,95036,6,0,P|512:224|480:148,1,143.999995605469,4|0,0:0|1:0,0:0:0:0:
328,92,95510,1,0,0:0:0:0:
484,56,95668,1,4,3:0:0:0:
348,260,95826,2,0,L|268:276,1,71.9999978027344,0|0,1:0|0:0,0:0:0:0:
152,176,96142,2,0,L|232:184,1,71.9999978027344,4|4,0:3|3:0,0:0:0:0:
376,356,96458,5,4,0:0:0:0:
88,312,96773,2,0,L|4:328,1,71.9999978027344,0|0,1:0|0:0,0:0:0:0:
248,160,97089,1,0,1:0:0:0:
48,72,97247,1,0,1:0:0:0:
176,256,97405,1,0,1:0:0:0:
296,72,97563,6,0,B|232:48|186:86|186:86|172:120,1,143.999995605469,4|0,0:0|1:0,0:0:0:0:
372,160,98036,2,0,P|400:128|408:88,1,71.9999978027344,4|0,0:3|0:0,0:0:0:0:
248,160,98353,5,8,0:3:0:0:
253,183,98458,1,8,0:3:0:0:
258,206,98563,1,8,0:3:0:0:
263,230,98668,1,4,0:3:0:0:
268,253,98773,1,4,0:3:0:0:
274,277,98879,1,4,0:3:0:0:
279,300,98984,1,4,0:0:0:0:
284,324,100247,5,4,0:0:0:0:
163,244,100563,1,2,0:0:0:0:
364,264,100879,1,4,0:0:0:0:
172,348,101194,1,2,0:0:0:0:
272,96,101510,1,4,0:0:0:0:
256,192,101589,12,0,102773,0:0:0:0:
397,303,103405,6,0,P|407:268|404:232,1,71.9999978027344,2|0,0:0|0:0,0:0:0:0:
244,260,104036,6,0,B|237:283|237:283|188:314|122:289,1,143.999995605469,4|4,0:0|0:3,0:0:0:0:
28,148,104510,1,4,0:3:0:0:
192,76,104668,2,0,L|180:148,1,71.9999978027344,0|0,1:0|0:0,0:0:0:0:
40,232,104984,1,4,0:3:0:0:
268,316,105142,6,0,B|224:272|238:203|238:203|260:180,1,143.999995605469,0|0,1:0|0:0,0:0:0:0:
368,64,105615,2,0,L|448:84,1,71.9999978027344,4|0,0:3|0:0,0:0:0:0:
432,224,105931,2,0,L|502:210,1,71.9999978027344,0|0,1:0|0:0,0:0:0:0:
420,0,106247,1,0,0:0:0:0:
268,112,106405,1,0,1:0:0:0:
432,224,106563,6,0,B|476:176|468:128|468:128|436:100,1,143.999995605469,4|4,0:0|0:3,0:0:0:0:
280,20,107036,1,4,0:3:0:0:
140,124,107194,1,0,1:0:0:0:
348,140,107352,1,0,1:0:0:0:
104,120,107510,1,0,1:0:0:0:
280,264,107668,6,0,L|284:188,1,71.9999978027344,4|0,0:0|0:0,0:0:0:0:
188,48,107984,1,0,1:0:0:0:
148,276,108142,2,0,L|164:352,1,71.9999978027344,4|0,0:3|0:0,0:0:0:0:
380,332,108458,2,0,P|400:292|400:252,1,71.9999978027344,0|0,1:0|0:0,0:0:0:0:
208,196,108773,1,0,1:0:0:0:
348,140,108931,1,0,1:0:0:0:
280,264,109089,6,0,P|212:296|148:276,1,143.999995605469,4|4,0:0|0:3,0:0:0:0:
104,156,109563,1,4,0:3:0:0:
24,356,109721,2,0,L|96:348,1,71.9999978027344,0|0,1:0|0:0,0:0:0:0:
208,196,110036,1,0,1:0:0:0:
24,220,110194,6,0,P|4:180|4:148,1,71.9999978027344,4|0,0:0|0:0,0:0:0:0:
172,52,110510,1,4,0:3:0:0:
208,196,110668,2,0,L|196:272,1,71.9999978027344,4|0,0:3|0:0,0:0:0:0:
80,292,110984,1,0,1:0:0:0:
248,356,111142,1,4,0:3:0:0:
208,196,111300,1,0,0:0:0:0:
112,376,111458,1,4,0:3:0:0:
316,268,111615,6,0,P|376:304|456:288,1,143.999995605469,0|4,1:0|0:3,0:0:0:0:
288,104,112089,1,4,0:3:0:0:
288,104,112247,2,0,L|196:112,1,71.9999978027344,0|4,1:0|0:3,0:0:0:0:
400,192,112563,1,0,1:0:0:0:
248,356,112721,6,0,P|208:304|216:224,1,143.999995605469,4|0,0:0|1:0,0:0:0:0:
356,32,113194,2,0,P|380:72|384:100,1,71.9999978027344,4|0,0:3|0:0,0:0:0:0:
213,228,113510,2,0,L|137:240,1,71.9999978027344,0|0,1:0|0:0,0:0:0:0:
204,84,113826,1,0,1:0:0:0:
313,187,113984,1,0,1:0:0:0:
100,280,114142,6,0,P|124:200|112:132,1,143.999995605469,4|4,0:0|0:3,0:0:0:0:
4,60,114615,1,4,0:3:0:0:
193,12,114773,2,0,L|203:83,1,71.9999978027344,0|0,1:0|0:0,0:0:0:0:
52,68,115089,1,0,0:0:0:0:
280,116,115247,6,0,P|236:176|256:240,1,143.999995605469,4|0,0:0|0:0,0:0:0:0:
408,340,115721,2,0,P|416:296|420:248,1,71.9999978027344,4|0,0:3|0:0,0:0:0:0:
364,60,116036,2,0,P|380:108|372:148,1,71.9999978027344,0|0,1:0|0:0,0:0:0:0:
176,260,116352,1,0,0:0:0:0:
348,216,116510,1,4,0:3:0:0:
136,103,116668,6,0,B|84:119|55:88|55:88|51:64,1,107.999996704102,0|0,1:0|0:0,0:0:0:0:
212,52,116984,2,0,P|224:88|224:128,1,71.9999978027344,4|0,0:3|0:0,0:0:0:0:
80,216,117300,1,0,1:0:0:0:
272,272,117458,1,0,1:0:0:0:
224,121,117615,1,0,1:0:0:0:
195,297,117773,6,0,B|199:337|223:361|223:361|267:365|299:349,1,143.999995605469,4|0,0:0|1:0,0:0:0:0:
448,248,118247,2,0,P|417:237|376:228,1,71.9999978027344,4|0,0:3|0:0,0:0:0:0:
224,121,118563,2,0,P|220:168|232:204,1,71.9999978027344,0|0,1:0|0:0,0:0:0:0:
388,320,118879,1,0,1:0:0:0:
159,226,119036,1,0,1:0:0:0:
320,156,119194,6,0,P|404:132|460:124,1,143.999995605469,4|4,0:0|0:3,0:0:0:0:
296,16,119668,1,4,0:3:0:0:
296,16,119826,2,0,P|240:36|212:36,1,71.9999978027344,0|0,1:0|0:0,0:0:0:0:
56,32,120142,1,4,0:3:0:0:
188,114,120300,6,0,B|212:160|204:205|204:205|148:229,1,143.999995605469,0|0,1:0|0:0,0:0:0:0:
12,236,120773,1,0,1:0:0:0:
136,360,120931,1,0,1:0:0:0:
136,360,121010,1,0,1:0:0:0:
136,360,121089,2,0,P|176:360|220:348,1,71.9999978027344,0|0,1:0|1:0,0:0:0:0:
385,282,121405,2,0,L|317:258,1,71.9999978027344,0|0,1:0|1:0,0:0:0:0:
64,168,121721,6,0,B|86:200|124:219|124:219|156:220|195:203,1,143.999995605469,4|0,0:0|1:0,0:0:0:0:
440,220,122194,2,0,B|418:252|380:271|380:271|348:272|309:255,1,143.999995605469,4|0,0:0|1:0,0:0:0:0:
232,292,122668,2,0,P|224:332|228:372,1,71.9999978027344,4|0,0:0|0:0,0:0:0:0:
256,216,122984,6,0,P|272:168|268:124,1,95.9999970703126,0|8,1:0|0:3,0:0:0:0:
216,29,123300,5,8,0:3:0:0:
173,73,123405,1,8,0:3:0:0:
167,135,123511,1,8,0:3:0:0:
198,189,123616,5,8,0:3:0:0:
256,216,123721,1,4,0:3:0:0:
316,202,123826,1,4,0:3:0:0:
357,155,123932,5,4,0:3:0:0:
364,93,124037,1,4,0:3:0:0:
334,40,124142,1,4,0:3:0:0:
276,14,124247,5,4,0:0:0:0:
256,192,124326,12,2,134194,0:0:0:0:
