osu file format v14

[General]
AudioFilename: audio.mp3
AudioLeadIn: 0
PreviewTime: 78554
Countdown: 0
SampleSet: Soft
StackLeniency: 0.3
Mode: 0
LetterboxInBreaks: 0
EpilepsyWarning: 1
WidescreenStoryboard: 1

[Editor]
Bookmarks: 1186,11291,21396,31501,41607,51712,61817,66870,74449,79501,89607,99712,104764,114080,114870,124975,135080,152764,162870,172975,190659,193186,200764,203291,213396,223501,233607,238659,253817,258870
DistanceSpacing: 1.2
BeatDivisor: 8
GridSize: 32
TimelineZoom: 1.5

[Metadata]
Title:Towa ni Saku Hana
TitleUnicode:永遠に咲く花
Artist:AiRI
ArtistUnicode:AiRI
Creator:island
Version:AF's Insane
Source:枯れない世界と終わる花
Tags:Left SWEET&TEA eroge opening full Karenai Sekai to Owaru Hana Affirmation toybot Neoskylove URAN UR@N Niito Miduki 水城 新人 Yukihito 雪仁
BeatmapID:1791751
BeatmapSetID:856144

[Difficulty]
HPDrainRate:5.3
CircleSize:4
OverallDifficulty:7.8
ApproachRate:9
SliderMultiplier:2
SliderTickRate:1

[Events]
//Background and Video events
0,0,"BGiscute.jpg",0,0
//Break Periods
2,107291,113291
//Storyboard Layer 0 (Background)
//Storyboard Layer 1 (Fail)
//Storyboard Layer 2 (Pass)
//Storyboard Layer 3 (Foreground)
Sprite,Foreground,Centre,"SB\heispro2.png",175,350 S,0,0,,0,0.8 S,0,0,,0.8 F,0,11291,12870,0,1 F,0,12870,15396,1 F,0,15396,15712,1,0
//Storyboard Sound Samples

[TimingPoints]
1186,631.578947368421,4,2,7,40,1,0
21396,-83.3333333333333,4,2,7,40,0,0
39080,-166.666666666667,4,2,7,40,0,0
40659,-166.666666666667,4,2,7,50,0,0
41607,-71.4285714285714,4,2,7,55,0,0
57712,-71.4285714285714,4,2,7,55,0,0
60238,-71.4285714285714,4,2,7,65,0,0
61817,-166.666666666667,4,2,7,65,0,0
63712,-166.666666666667,4,2,7,40,0,0
66870,-71.4285714285714,4,2,7,50,0,0
71922,-71.4285714285714,4,2,7,60,0,0
74449,-71.4285714285714,4,2,7,65,0,0
75396,-71.4285714285714,4,2,7,65,0,0
75712,-71.4285714285714,4,2,7,75,0,0
76028,-71.4285714285714,4,2,7,75,0,0
76264,-71.4285714285714,4,2,7,75,0,0
76343,-71.4285714285714,4,2,7,85,0,0
76975,-52.6315789473684,4,2,7,90,0,0
77291,-52.6315789473684,4,2,7,90,0,0
77764,-52.6315789473684,4,2,7,90,0,0
77922,-125,4,2,7,90,0,0
78870,-125,4,2,7,55,0,0
79501,-62.5,4,2,7,85,0,1
79817,-62.5,4,2,7,85,0,1
83449,-62.5,4,2,7,85,0,1
84554,-62.5,4,2,7,85,0,1
84870,-62.5,4,2,7,85,0,1
89607,-62.5,4,2,7,65,0,1
89922,-62.5,4,2,7,65,0,1
90238,-62.5,4,2,7,85,0,1
90712,-62.5,4,2,7,85,0,1
92449,-62.5,4,2,7,85,0,1
94975,-62.5,4,2,7,85,0,1
97501,-62.5,4,2,7,85,0,1
102554,-62.5,4,2,7,85,0,1
102870,-62.5,4,2,7,85,0,1
103186,-62.5,4,2,7,85,0,1
103501,-62.5,4,2,7,85,0,1
103817,-62.5,4,2,7,85,0,1
104054,-62.5,4,2,7,85,0,1
104764,-62.5,4,2,7,85,0,0
114080,-62.5,4,2,7,55,0,0
114870,-71.4285714285714,4,2,7,55,0,0
124817,-71.4285714285714,4,2,7,55,0,0
124975,-71.4285714285714,4,2,7,55,0,0
130975,-71.4285714285714,4,2,7,55,0,0
133501,-71.4285714285714,4,2,7,65,0,0
135080,-166.666666666667,4,2,7,65,0,0
136975,-166.666666666667,4,2,7,40,0,0
140133,-71.4285714285714,4,2,7,70,0,0
144080,-71.4285714285714,4,2,7,70,0,0
145501,-71.4285714285714,4,2,7,70,0,0
147396,-71.4285714285714,4,2,7,70,0,0
147554,-71.4285714285714,4,2,7,70,0,0
147712,-71.4285714285714,4,2,7,70,0,0
148343,-71.4285714285714,4,2,7,65,0,0
148659,-71.4285714285714,4,2,7,65,0,0
148975,-71.4285714285714,4,2,7,75,0,0
149291,-71.4285714285714,4,2,7,75,0,0
149528,-71.4285714285714,4,2,7,75,0,0
149607,-71.4285714285714,4,2,7,85,0,0
150238,-52.6315789473684,4,2,7,90,0,0
151501,-71.4285714285714,4,2,7,90,0,0
152449,-71.4285714285714,4,2,7,95,0,0
152764,-62.5,4,2,7,85,0,1
153080,-62.5,4,2,7,85,0,1
155607,-62.5,4,2,7,85,0,1
156712,-62.5,4,2,7,85,0,1
157817,-62.5,4,2,7,85,0,1
158133,-62.5,4,2,7,85,0,1
162870,-62.5,4,2,7,65,0,1
163186,-62.5,4,2,7,65,0,1
163501,-62.5,4,2,7,85,0,1
163975,-62.5,4,2,7,85,0,1
165712,-62.5,4,2,7,85,0,1
168238,-62.5,4,2,7,85,0,1
170764,-62.5,4,2,7,85,0,1
172975,-62.5,4,2,7,85,0,0
174396,-62.5,4,2,7,85,0,0
178343,-62.5,4,2,7,85,0,0
188449,-62.5,4,2,7,85,0,0
189870,-62.5,4,2,7,85,0,0
191291,-62.5,4,2,7,90,0,0
191607,-62.5,4,2,7,90,0,0
191922,-62.5,4,2,7,100,0,0
192238,-62.5,4,2,7,100,0,0
192475,-62.5,4,2,7,100,0,0
193186,-166.666666666667,4,2,7,100,0,0
193817,-166.666666666667,4,2,7,35,0,0
200133,-83.3333333333333,4,2,7,60,0,0
200764,-62.5,4,2,7,90,0,0
203291,-62.5,4,2,7,65,0,1
203607,-62.5,4,2,7,65,0,1
203922,-62.5,4,2,7,90,0,1
204396,-62.5,4,2,7,90,0,1
206133,-62.5,4,2,7,90,0,1
212764,-62.5,4,2,7,90,0,1
213396,-62.5,4,2,7,90,0,1
213712,-62.5,4,2,7,90,0,1
216238,-62.5,4,2,7,90,0,1
218449,-62.5,4,2,7,90,0,1
219870,-62.5,4,2,7,90,0,1
220975,-62.5,4,2,7,95,0,1
221607,-62.5,4,2,7,95,0,1
222238,-62.5,4,2,7,100,0,1
222870,-62.5,4,2,7,100,0,1
223186,-62.5,4,2,7,5,0,1
223343,-62.5,4,2,7,20,0,1
223501,-166.666666666667,4,2,7,20,0,0
224133,-62.5,4,2,7,100,0,1
225080,-62.5,4,2,7,100,0,1
226028,-62.5,4,2,7,90,0,1
228870,-62.5,4,2,7,90,0,1
231396,-62.5,4,2,7,90,0,1
238028,-62.5,4,2,7,40,0,1
238659,-62.5,4,2,7,75,0,0
238975,-62.5,4,2,7,75,0,0
240870,-62.5,4,2,7,75,0,0
243396,-62.5,4,2,7,75,0,0
243712,-62.5,4,2,7,75,0,0
244028,-62.5,4,2,7,75,0,0
245922,-62.5,4,2,7,75,0,0
248449,-62.5,4,2,7,75,0,0
248764,-62.5,4,2,7,75,0,0
249080,-62.5,4,2,7,75,0,0
253501,-62.5,4,2,7,75,0,0
253817,-62.5,4,2,7,75,0,0
254133,-62.5,4,2,7,75,0,0
258870,-100,4,2,7,75,0,0
268659,-100,4,2,7,5,0,0

[Colours]
Combo1 : 255,208,162
Combo2 : 255,57,162
Combo3 : 255,134,204
Combo4 : 255,204,235
Combo5 : 62,158,255
Combo6 : 128,191,255
Combo7 : 206,231,255
Combo8 : 249,124,0

[HitObjects]
37,122,1186,85,2,0:3:0:0:
54,199,2133,1,2,0:0:0:0:
37,122,3712,102,0,L|136:108,1,100,2|0,0:0|0:0,0:0:0:0:
54,199,4185,2,0,L|154:186,1,100,2|0,0:0|0:0,0:0:0:0:
71,276,4659,1,2,0:0:0:0:
475,122,6239,5,2,0:3:0:0:
458,199,7186,1,2,0:0:0:0:
475,122,8765,102,0,L|375:108,1,100,2|0,0:0|0:0,0:0:0:0:
457,199,9239,2,0,L|358:186,1,100,2|0,0:0|0:0,0:0:0:0:
441,276,9713,1,2,0:0:0:0:
144,35,11291,5,4,0:0:0:0:
368,35,12238,1,2,0:0:0:0:
144,35,13817,102,0,P|170:76|216:93,1,100,2|0,0:0|0:0,0:0:0:0:
368,34,14291,2,0,P|341:76|295:93,1,100,2|0,0:0|0:0,0:0:0:0:
255,163,14764,1,2,0:0:0:0:
144,349,16343,5,4,0:0:0:0:
368,349,17290,1,2,0:0:0:0:
144,349,18870,102,0,P|170:307|216:290,1,100,2|0,0:0|0:0,0:0:0:0:
368,349,19343,2,0,P|341:307|295:290,1,100,2|0,0:0|0:0,0:0:0:0:
255,221,19816,1,2,0:0:0:0:
256,383,20764,5,2,0:0:0:0:
96,192,21396,101,4,0:0:0:0:
416,192,22343,1,2,0:0:0:0:
96,192,23922,6,0,L|213:168,1,119.999996337891,4|0,0:0|0:0,0:0:0:0:
416,192,24396,2,0,L|299:168,1,119.999996337891,2|0,0:0|0:0,0:0:0:0:
256,95,24870,1,4,0:0:0:0:
96,192,26449,101,4,0:0:0:0:
416,192,27396,1,2,0:0:0:0:
96,192,28975,6,0,L|213:216,1,119.999996337891,4|0,0:0|0:0,0:0:0:0:
416,192,29449,2,0,L|299:216,1,119.999996337891,2|0,0:0|0:0,0:0:0:0:
256,289,29923,1,2,0:0:0:0:
120,65,31501,101,4,0:0:0:0:
392,65,32450,1,0,0:0:0:0:
120,65,34028,6,0,P|177:73|213:119,1,119.999996337891,4|0,0:0|0:0,0:0:0:0:
391,64,34502,2,0,P|334:73|298:119,1,119.999996337891,2|0,0:0|0:0,0:0:0:0:
256,192,34975,1,4,0:0:0:0:
445,311,36554,101,4,0:0:0:0:
194,365,37817,1,4,0:0:0:0:
445,311,39080,6,0,P|325:322|210:354,1,239.999992675781,4|0,0:0|0:0,0:0:0:0:
194,365,40659,101,4,0:3:0:0:
222,175,40975,1,8,0:0:0:0:
208,270,41133,1,0,1:0:0:0:
194,365,41291,1,0,1:0:0:0:
221,174,41607,102,0,P|285:194|344:159,1,139.999995727539,4|0,1:0|0:0,0:0:0:0:
277,111,42080,1,0,1:0:0:0:
210,354,42554,1,8,0:3:0:0:
210,354,43186,6,0,L|204:250,1,104.999996795654,0|0,1:0|0:0,0:0:0:0:
203,249,43501,1,8,0:0:0:0:
425,53,44133,102,0,L|416:192,1,139.999995727539,4|0,1:2|0:0,0:0:0:0:
408,332,44607,2,0,L|416:192,1,139.999995727539,4|0,0:3|0:0,0:0:0:0:
425,53,45080,1,4,1:2:0:0:
408,332,45712,5,0,1:0:0:0:
425,53,46028,1,8,0:0:0:0:
291,174,46659,102,0,P|226:194|167:159,1,139.999995727539,4|0,1:2|0:0,0:0:0:0:
235,111,47132,1,0,1:0:0:0:
302,354,47606,1,8,0:3:0:0:
302,354,48238,6,0,L|308:250,1,104.999996795654,0|0,1:0|0:0,0:0:0:0:
308,249,48553,1,8,0:0:0:0:
87,53,49185,102,0,L|95:192,1,139.999995727539,4|0,1:2|0:0,0:0:0:0:
104,332,49659,2,0,L|95:192,1,139.999995727539,8|0,0:0|0:0,0:0:0:0:
87,53,50132,1,4,1:2:0:0:
104,332,50764,5,2,1:2:0:0:
95,192,50922,2,0,L|90:122,1,69.9999978637695,0|8,0:0|0:0,0:0:0:0:
223,88,51238,1,2,0:0:0:0:
205,170,51396,1,0,0:0:0:0:
187,252,51554,1,0,0:0:0:0:
394,230,51712,102,0,B|330:260|330:260|268:227,1,139.999995727539,4|0,1:0|0:0,0:0:0:0:
333,172,52186,1,4,0:3:0:0:
295,356,52659,1,8,0:3:0:0:
333,172,53291,6,0,L|323:67,1,104.999996795654,0|0,1:0|0:0,0:0:0:0:
323,67,53607,1,8,0:0:0:0:
18,222,54238,102,0,B|79:254|79:254|143:224,1,139.999995727539,4|0,1:2|0:0,0:0:0:0:
268,227,54712,2,0,B|206:194|206:194|142:224,1,139.999995727539,4|0,0:3|0:0,0:0:0:0:
140,349,55186,1,4,1:2:0:0:
145,99,55817,5,0,1:0:0:0:
140,349,56133,1,8,0:0:0:0:
376,83,56764,102,0,P|328:175|335:278,1,209.999993591309,4|0,1:0|0:0,0:0:0:0:
391,342,57396,1,8,0:0:0:0:
376,83,57870,6,0,P|328:175|335:278,1,209.999993591309,4|0,1:2|1:0,0:0:0:0:
455,286,58659,1,8,0:0:0:0:
399,222,58817,1,4,0:3:0:0:
135,82,59291,102,0,P|183:175|176:278,1,209.999993591309,4|0,1:0|1:0,0:0:0:0:
121,342,59923,1,8,0:0:0:0:
135,82,60396,38,0,P|183:175|176:278,1,209.999993591309,4|12,1:2|0:2,0:0:0:0:
121,342,61028,1,0,0:0:0:0:
121,342,61107,1,0,0:0:0:0:
121,342,61186,1,8,0:0:0:0:
177,278,61344,1,4,0:3:0:0:
113,222,61501,1,0,1:0:0:0:
57,286,61659,1,0,0:0:0:0:
177,278,61817,85,4,1:0:0:0:
177,278,63712,6,0,L|236:272,1,59.9999981689453,2|0,0:0|0:0,0:0:0:0:
335,278,64343,101,2,0:0:0:0:
335,278,65607,5,2,0:0:0:0:
343,142,65922,1,0,0:0:0:0:
290,207,66080,1,0,0:0:0:0:
335,278,66238,1,4,0:3:0:0:
416,256,66396,1,0,0:0:0:0:
421,172,66554,1,0,1:0:0:0:
290,207,66870,102,0,P|186:216|84:197,1,209.999993591309,4|0,1:0|0:0,0:0:0:0:
83,197,67501,1,4,0:3:0:0:
83,197,68764,1,0,1:0:0:0:
292,208,69396,6,0,P|396:198|498:217,1,209.999993591309,4|0,1:2|0:0,0:0:0:0:
498,217,70027,1,4,0:3:0:0:
498,218,71290,1,0,1:0:0:0:
292,208,71922,102,0,P|282:138|285:68,1,139.999995727539,4|0,1:0|0:0,0:0:0:0:
195,209,72554,2,0,P|221:144|258:85,1,139.999995727539,4|4,0:3|0:3,0:0:0:0:
195,209,73028,1,0,0:0:0:0:
110,161,73186,6,0,P|165:117|226:85,1,139.999995727539,4|0,1:0|0:0,0:0:0:0:
60,76,73817,2,0,P|129:66|199:69,1,139.999995727539,4|4,0:3|0:3,0:0:0:0:
292,208,74449,85,4,1:2:0:0:
292,208,75080,1,0,1:0:0:0:
195,209,75396,1,0,1:0:0:0:
110,161,75712,5,0,1:0:0:0:
60,76,76028,1,0,1:0:0:0:
110,161,76264,101,8,0:0:0:0:
110,161,76343,1,8,0:0:0:0:
195,209,76501,1,4,0:3:0:0:
292,208,76659,1,12,0:0:0:0:
8,239,76975,38,0,P|100:217|195:209,1,189.999994926453,12|4,0:0|0:3,0:0:0:0:
381,239,77449,2,0,P|287:231|195:209,1,189.999994926453,12|4,0:0|0:3,0:0:0:0:
60,76,77922,6,0,B|116:54|173:98|173:98|226:135|286:108,1,240,12|0,0:0|1:0,0:0:0:0:
285,108,79501,6,0,L|275:267,1,160,4|0,1:0|1:0,0:0:0:0:
354,227,79975,1,4,0:3:0:0:
194,307,80133,2,0,B|140:295|140:295|116:250|116:250|64:234,1,160,8|0,0:0|1:0,0:0:0:0:
200,141,80607,6,0,L|195:220,1,79.9999999999999,8|0,0:3|0:0,0:0:0:0:
64,234,80922,2,0,L|69:154,1,79.9999999999999,8|4,0:0|0:3,0:0:0:0:
153,33,81238,1,0,1:0:0:0:
194,220,81396,2,0,L|184:379,1,160,12|0,0:0|1:0,0:0:0:0:
113,326,81870,1,0,1:0:0:0:
372,303,82028,102,0,P|333:304|294:296,1,79.9999999999999,4|0,1:2|0:0,0:0:0:0:
114,228,82343,2,0,P|153:227|193:219,1,79.9999999999999,0|4,1:0|0:3,0:0:0:0:
302,137,82659,1,8,0:0:0:0:
153,33,82817,2,0,L|149:112,1,79.9999999999999,4|8,0:3|0:3,0:0:0:0:
295,297,83133,6,0,L|302:137,1,160,4|8,1:2|0:0,0:0:0:0:
193,219,83607,1,4,0:3:0:0:
406,229,83764,1,0,1:0:0:0:
288,375,83922,1,12,0:0:0:0:
288,375,84080,2,0,P|286:335|294:296,1,79.9999999999999,0|0,1:0|0:2,0:0:0:0:
406,229,84396,1,8,0:0:0:0:
340,171,84554,102,0,B|293:167|267:192|267:192|242:220|192:218,1,160,4|0,1:0|1:0,0:0:0:0:
117,172,85028,1,4,0:3:0:0:
140,327,85186,2,0,B|189:325|215:353|215:353|241:378|287:374,1,160,8|0,0:0|1:0,0:0:0:0:
406,229,85659,6,0,B|391:267|391:267|403:304,1,79.9999999999999,4|0,1:2|0:0,0:0:0:0:
287,373,85976,2,0,B|302:335|302:335|289:297,1,79.9999999999999,8|0,0:0|0:0,0:0:0:0:
192,218,86291,1,4,0:3:0:0:
341,123,86449,2,0,L|420:118,1,79.9999999999999,8|8,0:0|0:3,0:0:0:0:
500,114,86764,2,0,L|420:118,1,79.9999999999999,4|0,0:3|1:0,0:0:0:0:
195,62,87080,102,0,B|203:116|203:116|184:162|184:162|192:218,1,160,4|4,1:0|0:3,0:0:0:0:
267,171,87554,1,0,0:0:0:0:
120,109,87712,2,0,L|40:104,1,79.9999999999999,8|8,0:0|0:3,0:0:0:0:
270,258,88028,1,4,0:3:0:0:
110,249,88186,6,0,L|269:257,1,160,4|12,1:0|0:0,0:0:0:0:
46,380,88659,2,0,P|35:341|37:301,1,79.9999999999999,8|4,0:3|0:3,0:0:0:0:
183,139,88975,2,0,P|193:177|191:217,1,79.9999999999999,8|0,0:0|1:0,0:0:0:0:
40,104,89291,1,8,0:0:0:0:
152,57,89449,1,8,0:0:0:0:
264,10,89607,102,0,B|313:8|339:36|339:36|365:61|411:57,1,160,4|0,1:2|1:0,0:0:0:0:
290,146,90080,1,0,0:0:0:0:
442,254,90238,2,0,L|450:174,1,79.9999999999999,12|0,0:1|0:0,0:0:0:0:
307,305,90554,1,4,0:3:0:0:
290,146,90712,6,0,L|307:305,1,160,0|8,1:0|0:0,0:0:0:0:
391,332,91186,1,4,0:3:0:0:
222,277,91343,2,0,P|183:273|144:282,1,79.9999999999999,0|8,1:0|0:0,0:0:0:0:
290,146,91659,1,4,0:3:0:0:
372,179,91817,2,0,P|411:183|450:174,1,79.9999999999999,4|0,0:3|1:0,0:0:0:0:
277,59,92133,102,0,B|220:67|220:67|191:106|191:106|138:114,1,160,4|0,1:2|1:0,0:0:0:0:
58,243,92607,1,4,0:3:0:0:
135,282,92764,2,0,P|139:242|135:202,1,79.9999999999999,12|4,0:0|0:3,0:0:0:0:
21,357,93080,1,0,1:0:0:0:
106,378,93238,6,0,L|265:361,1,160,4|0,1:0|1:0,0:0:0:0:
373,194,93712,1,8,0:0:0:0:
299,242,93870,2,0,L|303:281,2,40,8|8|12,0:0|0:0|0:0,0:0:0:0:
447,146,94186,1,4,0:3:0:0:
304,138,94343,1,8,0:0:0:0:
161,130,94501,1,8,0:0:0:0:
303,281,94659,102,0,L|462:264,1,160,4|0,1:0|1:0,0:0:0:0:
434,348,95133,1,4,0:3:0:0:
373,194,95291,2,0,B|358:155|358:155|363:116,1,79.9999999999999,12|4,0:0|0:3,0:0:0:0:
447,146,95607,1,0,1:0:0:0:
347,366,95764,6,0,L|187:349,1,160,4|12,1:2|0:2,0:0:0:0:
65,207,96238,2,0,P|62:246|50:284,1,79.9999999999999,4|0,0:3|1:0,0:0:0:0:
148,124,96554,2,0,P|136:85|133:46,1,79.9999999999999,8|0,0:0|0:0,0:0:0:0:
394,186,96870,101,4,0:3:0:0:
271,155,97028,1,0,1:0:0:0:
148,124,97186,2,0,B|179:172|179:172|158:272,1,160,4|0,1:0|1:0,0:0:0:0:
107,345,97659,1,4,0:3:0:0:
266,361,97817,2,0,L|346:369,1,79.9999999999999,8|4,0:0|0:3,0:0:0:0:
432,378,98133,1,0,1:0:0:0:
266,361,98291,6,0,L|106:344,1,160,4|8,1:0|0:0,0:0:0:0:
195,187,98764,2,0,B|207:225|207:225|193:262,1,79.9999999999999,4|0,1:2|0:0,0:0:0:0:
49,191,99080,2,0,P|27:176|14:152,2,53.3333333333333,8|8|8,0:0|0:0|0:0,0:0:0:0:
121,147,99396,2,0,P|122:120|136:97,2,53.3333333333333,8|4|0,0:3|0:3|1:0,0:0:0:0:
195,187,99712,101,4,1:0:0:0:
195,187,100975,5,4,1:2:0:0:
345,369,101607,1,4,1:2:0:0:
195,187,102239,101,4,1:2:0:0:
195,187,102870,2,0,L|273:172,1,79.9999999999999,4|0,0:3|0:0,0:0:0:0:
168,103,103186,2,0,L|246:88,1,79.9999999999999,4|0,0:3|0:0,0:0:0:0:
141,19,103501,5,8,0:0:0:0:
168,103,103817,1,8,0:0:0:0:
199,197,103975,1,4,0:3:0:0:
197,192,104054,1,8,0:0:0:0:
195,187,104133,101,8,0:0:0:0:
168,103,104291,1,8,0:3:0:0:
141,19,104449,2,0,L|219:4,1,79.9999999999999,4|0,0:3|1:0,0:0:0:0:
359,156,104764,21,4,1:0:0:0:
61,179,114080,21,4,0:3:0:0:
77,329,114238,1,8,0:3:0:0:
69,255,114554,5,4,0:3:0:0:
69,255,114870,86,0,L|208:243,1,139.999995727539,4|0,1:0|0:0,0:0:0:0:
276,292,115343,1,4,0:3:0:0:
69,255,115817,1,8,0:3:0:0:
375,304,116449,6,0,P|323:311|276:292,1,104.999996795654,4|0,0:3|0:0,0:0:0:0:
275,291,116764,1,8,0:0:0:0:
69,255,117396,102,0,B|116:250|116:250|155:271|155:271|202:262,1,139.999995727539,4|0,1:2|0:0,0:0:0:0:
85,171,117870,2,0,B|132:166|132:166|171:187|171:187|219:179,1,139.999995727539,8|0,0:0|0:0,0:0:0:0:
365,146,118343,6,0,P|332:225|417:213,1,209.999993591309,4|0,1:2|0:0,0:0:0:0:
450,134,118975,1,0,1:0:0:0:
268,289,119291,1,8,0:0:0:0:
450,134,119449,2,0,L|310:118,1,139.999995727539,4|0,0:3|1:0,0:0:0:0:
173,22,119922,102,0,B|196:64|196:64|177:155,1,139.999995727539,4|0,1:2|0:0,0:0:0:0:
117,215,120396,1,0,1:0:0:0:
450,134,120870,1,8,0:3:0:0:
117,215,121501,6,0,P|161:240|213:233,1,104.999996795654,0|0,1:0|0:0,0:0:0:0:
213,233,121817,1,8,0:0:0:0:
80,138,122449,102,0,P|36:189|43:257,1,139.999995727539,4|0,1:2|0:0,0:0:0:0:
249,310,122922,2,0,P|293:258|286:190,1,139.999995727539,8|0,0:0|0:0,0:0:0:0:
148,69,123396,6,0,B|202:107|202:107|342:75,1,209.999993591309,4|0,1:2|0:0,0:0:0:0:
412,28,124028,1,2,1:2:0:0:
434,175,124186,2,0,L|443:106,1,69.9999978637695,0|8,0:0|0:0,0:0:0:0:
506,220,124501,1,2,0:0:0:0:
370,229,124659,1,4,0:3:0:0:
234,238,124817,1,4,0:3:0:0:
347,348,124975,102,0,P|387:294|370:229,1,139.999995727539,4|0,1:0|0:0,0:0:0:0:
298,184,125449,1,0,1:0:0:0:
103,343,125922,1,8,0:3:0:0:
298,184,126554,6,0,L|193:191,1,104.999996795654,0|0,1:0|0:0,0:0:0:0:
193,191,126870,1,8,0:0:0:0:
406,76,127501,102,0,P|337:62|267:54,1,139.999995727539,4|0,1:2|0:0,0:0:0:0:
436,162,127975,2,0,P|366:170|297:183,1,139.999995727539,8|0,0:0|0:0,0:0:0:0:
138,285,128449,6,0,P|219:256|152:201,1,209.999993591309,4|0,1:2|0:0,0:0:0:0:
73,231,129080,1,4,0:3:0:0:
136,295,129238,1,4,0:3:0:0:
137,290,129317,1,4,0:3:0:0:
138,285,129396,1,8,0:0:0:0:
152,201,129554,1,0,0:0:0:0:
166,117,129712,1,4,0:3:0:0:
180,33,129870,1,0,1:0:0:0:
282,217,130028,102,0,B|238:221|238:221|199:194|199:194|151:200,1,139.999995727539,4|0,1:0|0:0,0:0:0:0:
138,285,130501,1,0,1:0:0:0:
166,117,130659,1,8,0:0:0:0:
339,278,130975,1,4,0:3:0:0:
363,197,131133,6,0,P|305:133|282:217,1,209.999993591309,4|4,1:2|0:3,0:0:0:0:
281,216,131922,2,0,L|141:206,1,139.999995727539,10|2,0:0|1:2,0:0:0:0:
339,278,132396,1,8,0:0:0:0:
420,259,132554,102,0,P|444:194|431:126,1,139.999995727539,4|0,1:0|0:0,0:0:0:0:
242,63,133028,1,0,1:0:0:0:
325,57,133186,2,0,L|465:48,1,139.999995727539,8|8,0:0|0:0,0:0:0:0:
247,146,133659,38,0,L|107:136,1,139.999995727539,4|0,1:2|0:0,0:0:0:0:
242,63,134133,1,0,3:0:0:0:
330,140,134291,1,0,3:0:0:0:
330,140,134370,1,0,3:0:0:0:
330,140,134449,1,8,0:0:0:0:
294,215,134607,1,4,0:3:0:0:
369,251,134764,1,0,1:0:0:0:
405,176,134922,1,0,0:0:0:0:
247,146,135079,85,4,1:0:0:0:
247,146,136975,6,0,L|250:205,1,59.9999981689453,2|0,0:0|0:0,0:0:0:0:
103,254,137607,101,2,0:0:0:0:
103,254,138870,5,2,0:0:0:0:
299,352,139186,1,0,0:0:0:0:
305,268,139343,1,0,0:0:0:0:
250,205,139501,1,4,0:3:0:0:
166,199,139659,1,0,0:0:0:0:
103,254,139816,1,0,1:0:0:0:
299,352,140133,86,0,P|377:314|304:267,1,209.999993591309,4|0,1:0|1:0,0:0:0:0:
228,303,140764,1,10,0:0:0:0:
252,69,141080,1,4,0:3:0:0:
252,69,141238,6,0,B|243:117|243:117|258:156|258:156|249:204,1,139.999995727539,2|8,1:2|0:0,0:0:0:0:
175,164,141712,1,4,0:3:0:0:
326,109,141870,1,0,1:0:0:0:
176,248,142028,1,8,0:0:0:0:
96,223,142186,1,8,0:0:0:0:
16,198,142343,1,0,1:0:0:0:
268,342,142659,102,0,L|407:332,1,139.999995727539,4|4,1:0|0:3,0:0:0:0:
491,323,143133,1,0,1:0:0:0:
408,181,143291,1,8,0:0:0:0:
492,191,143449,1,8,0:0:0:0:
442,257,143607,1,4,0:3:0:0:
325,172,143764,6,0,L|315:32,1,139.999995727539,4|8,1:2|0:0,0:0:0:0:
358,247,144238,2,0,L|353:316,1,69.9999978637695,4|0,0:3|1:0,0:0:0:0:
149,244,144554,2,0,B|183:239|214:262|214:262|242:283|280:271,1,139.999995727539,8|8,0:0|0:0,0:0:0:0:
162,327,145028,1,8,0:0:0:0:
83,296,145186,102,0,P|62:193|82:91,1,209.999993591309,4|0,1:0|1:0,0:0:0:0:
135,25,145817,2,0,L|203:37,1,69.9999978637695,8|4,0:0|0:3,0:0:0:0:
316,178,146134,1,0,1:0:0:0:
316,178,146291,1,0,1:0:0:0:
336,96,146449,6,0,L|199:122,1,139.999995727539,12|4,0:0|0:3,0:0:0:0:
453,203,147080,2,0,L|315:177,1,139.999995727539,12|8,0:0|0:3,0:0:0:0:
199,122,147554,1,4,0:3:0:0:
336,96,147712,101,4,1:2:0:0:
336,96,148343,1,0,1:0:0:0:
199,122,148659,1,0,1:0:0:0:
181,260,148975,5,0,1:0:0:0:
306,319,149291,1,0,1:0:0:0:
181,260,149528,101,4,0:3:0:0:
181,260,149607,1,8,0:0:0:0:
199,122,149764,1,8,0:3:0:0:
336,96,149922,1,4,0:3:0:0:
336,96,150238,38,0,B|326:160|326:160|346:213|346:213|336:280,1,189.999994926453,12|0,0:1|1:0,0:0:0:0:
429,82,150712,2,0,B|419:146|419:146|439:199|439:199|429:266,1,189.999994926453,12|0,0:1|1:0,0:0:0:0:
242,294,151186,2,0,L|147:290,1,94.9999974632263,12|4,0:1|0:3,0:0:0:0:
38,248,151501,6,0,P|117:323|8:324,1,279.999991455078,0|12,1:0|0:1,0:0:0:0:
8,59,152449,1,4,1:3:0:0:
8,59,152528,1,4,0:3:0:0:
8,59,152607,1,4,0:3:0:0:
8,59,152686,1,4,0:3:0:0:
8,58,152764,6,0,P|82:36|145:80,1,160,4|0,1:0|1:1,0:0:0:0:
68,123,153238,1,4,0:3:0:0:
223,37,153396,2,0,B|268:31|297:62|297:62|323:90|370:85,1,160,8|0,0:0|1:0,0:0:0:0:
238,200,153870,6,0,B|225:162|225:162|235:124,1,79.9999999999999,4|0,0:3|0:0,0:0:0:0:
440,44,154186,2,0,B|453:82|453:82|443:120,1,79.9999999999999,8|4,0:0|0:3,0:0:0:0:
317,159,154501,1,0,1:0:0:0:
458,212,154659,2,0,B|404:205|404:205|370:166|370:166|316:159,1,160,12|0,0:0|1:0,0:0:0:0:
238,200,155133,1,0,1:0:0:0:
320,321,155291,102,0,P|331:283|327:244,1,79.9999999999999,4|0,1:0|0:0,0:0:0:0:
155,78,155607,2,0,P|144:116|148:155,1,79.9999999999999,0|4,1:0|0:3,0:0:0:0:
207,294,155922,1,8,0:0:0:0:
39,301,156080,2,0,L|119:298,1,79.9999999999999,4|8,0:3|0:3,0:0:0:0:
290,179,156396,6,0,P|214:196|148:155,1,160,4|8,1:2|0:0,0:0:0:0:
227,281,156870,1,4,0:3:0:0:
228,96,157028,1,0,1:0:0:0:
367,172,157186,1,12,0:0:0:0:
367,172,157343,2,0,P|329:183|290:179,1,79.9999999999999,0|0,1:0|0:2,0:0:0:0:
147,66,157659,1,8,0:0:0:0:
147,154,157817,102,0,L|152:313,1,160,4|0,1:0|1:0,0:0:0:0:
67,288,158291,1,4,0:3:0:0:
228,223,158449,2,0,B|281:231|281:231|316:271|316:271|369:279,1,160,8|0,0:0|1:0,0:0:0:0:
235,382,158922,6,0,B|222:344|222:344|235:306,1,79.9999999999999,4|0,1:2|0:0,0:0:0:0:
361,119,159238,2,0,B|373:156|373:156|360:194,1,79.9999999999999,8|0,0:0|0:0,0:0:0:0:
228,223,159554,1,4,0:3:0:0:
341,365,159712,2,0,L|421:360,1,79.9999999999999,8|0,0:0|0:0,0:0:0:0:
500,355,160028,2,0,L|420:360,1,79.9999999999999,8|8,0:0|0:0,0:0:0:0:
228,223,160343,102,0,B|281:231|281:231|316:271|316:271|369:279,1,160,4|4,1:0|0:3,0:0:0:0:
361,190,160817,1,0,0:0:0:0:
235,311,160975,2,0,B|155:299,1,79.9999999999999,8|4,0:0|0:3,0:0:0:0:
73,159,161291,1,0,1:0:0:0:
57,311,161449,6,0,B|85:255|85:255|72:158,1,160,4|12,1:0|0:0,0:0:0:0:
184,21,161922,2,0,B|173:100,1,79.9999999999999,4|0,0:3|1:0,0:0:0:0:
302,248,162238,2,0,B|312:168,1,79.9999999999999,8|0,0:0|1:0,0:0:0:0:
312,9,162554,1,8,0:0:0:0:
184,21,162712,1,8,0:0:0:0:
56,33,162870,102,0,B|44:86|44:86|59:130|59:130|46:187,1,160,4|0,1:2|1:0,0:0:0:0:
130,82,163343,1,0,0:0:0:0:
138,267,163501,2,0,B|154:188,1,79.9999999999999,12|0,0:1|0:0,0:0:0:0:
205,30,163817,1,4,0:3:0:0:
345,154,163975,6,0,P|270:171|212:121,1,160,0|8,1:0|0:0,0:0:0:0:
293,85,164449,1,4,0:3:0:0:
398,224,164607,2,0,L|391:303,1,79.9999999999999,0|8,1:0|0:0,0:0:0:0:
230,288,164922,1,4,0:3:0:0:
218,200,165081,2,0,L|212:121,1,79.9999999999999,4|0,0:3|1:0,0:0:0:0:
16,26,165396,102,0,B|57:56|57:56|162:29,1,160,4|0,1:2|1:0,0:0:0:0:
370,43,165870,1,4,0:3:0:0:
293,85,166028,2,0,P|287:45|290:5,1,79.9999999999999,12|4,0:0|0:3,0:0:0:0:
490,101,166343,1,0,1:0:0:0:
419,153,166501,6,0,L|427:312,1,160,4|0,1:0|1:0,0:0:0:0:
331,162,166975,1,8,0:0:0:0:
367,82,167133,2,0,L|369:42,2,40,8|8|12,0:0|0:0|0:0,0:0:0:0:
295,242,167449,1,4,0:3:0:0:
218,129,167607,1,8,0:0:0:0:
141,16,167764,1,8,0:0:0:0:
74,182,167922,102,0,P|147:205|212:162,1,160,4|0,1:0|1:0,0:0:0:0:
136,117,168396,1,4,0:3:0:0:
93,288,168554,2,0,L|98:367,1,79.9999999999999,12|4,0:0|0:3,0:0:0:0:
10,356,168870,1,0,1:0:0:0:
199,330,169028,6,0,L|358:318,1,160,4|12,1:2|0:0,0:0:0:0:
296,166,169501,2,0,B|285:204|285:204|295:243,1,79.9999999999999,0|0,0:0|1:0,0:0:0:0:
451,343,169817,2,0,B|462:305|462:305|451:265,1,79.9999999999999,8|0,0:0|0:0,0:0:0:0:
275,148,170133,1,4,0:3:0:0:
388,110,170291,1,0,1:0:0:0:
500,72,170449,102,0,P|424:86|359:43,1,160,4|0,1:0|1:0,0:0:0:0:
281,2,170922,1,4,0:3:0:0:
297,161,171080,2,0,L|305:240,1,79.9999999999999,8|4,0:0|0:3,0:0:0:0:
313,326,171396,1,0,1:0:0:0:
297,161,171554,6,0,L|280:1,1,160,4|8,1:2|0:0,0:0:0:0:
114,104,172028,2,0,P|152:113|192:107,1,79.9999999999999,4|0,1:2|0:0,0:0:0:0:
365,46,172343,2,0,L|418:40,2,53.3333333333333,8|8|8,0:0|0:3|0:3,0:0:0:0:
377,130,172659,2,0,L|430:124,2,53.3333333333333,4|4|0,0:3|0:3|1:0,0:0:0:0:
297,161,172975,70,0,B|351:168|351:168|385:207|385:207|439:214,1,160,4|0,1:0|1:0,0:0:0:0:
309,248,173449,1,4,0:3:0:0:
222,234,173607,2,0,B|63:213,1,160,8|0,0:0|1:0,0:0:0:0:
260,340,174080,6,0,B|339:329,1,79.9999999999999,4|0,1:2|0:0,0:0:0:0:
509,301,174396,1,8,0:0:0:0:
426,268,174554,2,0,P|424:307|433:346,1,79.9999999999999,4|0,0:3|1:0,0:0:0:0:
496,214,174870,2,0,B|488:54,1,160,8|4,0:0|0:3,0:0:0:0:
188,148,175501,102,0,P|263:163|324:115,1,160,4|0,1:0|1:0,0:0:0:0:
181,59,175975,1,4,0:3:0:0:
93,54,176133,2,0,L|13:47,1,79.9999999999999,8|4,0:0|0:3,0:0:0:0:
188,148,176449,1,0,1:0:0:0:
82,295,176607,6,0,B|95:241|95:241|76:195|76:195|88:142,1,160,4|8,1:2|0:0,0:0:0:0:
246,6,177080,2,0,B|258:44|258:44|246:82,1,79.9999999999999,4|0,0:3|1:0,0:0:0:0:
213,233,177396,1,12,0:0:0:0:
340,180,177554,2,0,B|298:188|268:166|268:166|234:140|188:148,1,160,0|8,1:0|0:0,0:0:0:0:
391,252,178028,102,0,P|426:183|396:112,1,160,4|0,1:0|1:0,0:0:0:0:
303,261,178501,1,4,0:3:0:0:
354,333,178659,2,0,L|433:325,1,79.9999999999999,12|4,0:0|0:3,0:0:0:0:
252,189,178975,1,0,1:0:0:0:
216,270,179133,6,0,L|56:254,1,160,0|12,1:0|0:0,0:0:0:0:
107,181,179607,1,4,0:3:0:0:
156,350,179764,1,0,1:0:0:0:
252,188,179922,2,0,P|258:149|250:110,1,79.9999999999999,12|0,0:0|1:0,0:0:0:0:
45,21,180238,2,0,P|38:60|46:99,1,79.9999999999999,4|4,0:3|0:3,0:0:0:0:
271,22,180554,6,0,B|223:13|194:39|194:39|163:65|120:57,1,160,12|4,0:1|0:3,0:0:0:0:
249,109,181028,1,0,1:0:0:0:
90,281,181186,2,0,B|75:244|75:244|85:205,1,79.9999999999999,12|4,0:1|0:3,0:0:0:0:
142,138,181501,1,10,0:2:0:0:
328,242,181659,6,0,L|169:238,1,160,4|12,1:0|0:0,0:0:0:0:
257,147,182133,1,0,1:2:0:0:
215,334,182291,1,4,0:3:0:0:
406,280,182449,2,0,P|410:240|406:200,1,79.9999999999999,4|0,1:2|0:0,0:0:0:0:
284,23,182764,1,8,0:0:0:0:
398,67,182922,1,8,0:0:0:0:
512,111,183080,70,0,L|503:270,1,160,4|0,1:0|1:0,0:0:0:0:
376,362,183554,1,4,0:3:0:0:
267,226,183712,2,0,P|305:217|345:220,1,79.9999999999999,12|0,0:0|0:0,0:0:0:0:
244,338,184028,1,4,0:3:0:0:
183,274,184186,6,0,B|175:217|175:217|191:172|191:172|182:117,2,160,0|8|0,1:0|0:0|1:0,0:0:0:0:
98,165,184975,2,0,B|85:85,1,79.9999999999999,8|0,0:0|0:0,0:0:0:0:
343,142,185291,2,0,P|352:180|345:219,1,79.9999999999999,4|0,0:3|1:0,0:0:0:0:
244,337,185607,102,0,L|403:321,1,160,4|4,1:2|0:3,0:0:0:0:
183,274,186080,1,0,1:0:0:0:
95,261,186238,2,0,L|15:252,1,79.9999999999999,12|4,0:0|0:3,0:0:0:0:
257,148,186554,1,8,0:0:0:0:
98,165,186712,6,0,L|257:148,1,160,4|8,1:0|0:0,0:0:0:0:
394,259,187186,2,0,P|356:271|316:269,1,79.9999999999999,8|4,0:0|0:3,0:0:0:0:
248,228,187422,1,4,0:3:0:0:
248,228,187501,2,0,L|256:148,1,79.9999999999999,8|4,0:0|0:3,0:0:0:0:
394,259,187817,2,0,L|385:338,1,79.9999999999999,0|0,1:0|1:0,0:0:0:0:
161,346,188133,102,0,B|206:352|235:321|235:321|261:293|308:298,1,160,4|0,1:0|1:0,0:0:0:0:
385,338,188607,1,4,0:3:0:0:
175,266,188764,2,0,P|167:226|169:187,1,79.9999999999999,8|4,0:0|0:3,0:0:0:0:
161,346,189080,1,4,0:3:0:0:
249,218,189238,1,0,1:0:0:0:
46,187,189396,5,12,0:0:0:0:
249,218,189554,2,0,L|408:203,1,160,4|4,0:3|0:3,0:0:0:0:
478,86,190028,2,0,P|489:125|488:165,1,79.9999999999999,8|0,0:0|1:0,0:0:0:0:
340,324,190343,2,0,P|329:285|330:245,1,79.9999999999999,4|0,0:3|1:0,0:0:0:0:
374,77,190659,101,4,1:0:0:0:
374,77,191291,1,10,0:0:0:0:
286,67,191607,1,10,0:0:0:0:
198,57,191922,5,12,0:0:0:0:
110,47,192238,1,12,0:0:0:0:
374,77,192554,101,12,0:0:0:0:
286,67,192712,1,8,0:3:0:0:
198,57,192870,1,4,0:3:0:0:
110,47,193028,1,0,1:0:0:0:
22,37,193186,86,0,L|15:96,2,59.9999981689453,4|0|2,1:0|0:0|0:0,0:0:0:0:
131,164,194449,2,0,L|124:223,2,59.9999981689453,2|0|2,0:0|0:0|0:0,0:0:0:0:
199,115,195396,1,0,0:0:0:0:
260,172,195712,6,0,P|287:182|317:180,2,59.9999981689453,2|0|2,0:0|0:0|0:0,0:0:0:0:
229,144,196501,1,0,0:0:0:0:
198,222,196817,2,0,L|191:281,1,59.9999981689453,2|0,0:0|0:0,0:0:0:0:
192,324,197291,2,0,P|164:313|134:315,2,59.9999981689453,2|2|0,0:0|0:0|0:0,0:0:0:0:
276,313,198238,102,0,P|281:283|285:253,2,59.9999981689453,2|0|2,0:0|0:0|0:0,0:0:0:0:
340,367,199186,1,2,0:0:0:0:
340,366,199343,2,0,P|378:343|422:339,1,89.999997253418,2|0,0:0|0:0,0:0:0:0:
244,276,200133,85,4,0:3:0:0:
300,57,200764,86,0,L|220:60,1,79.9999999999999,4|0,1:0|0:0,0:0:0:0:
115,195,201080,2,0,L|194:191,1,79.9999999999999,0|0,1:0|0:0,0:0:0:0:
359,171,201396,1,8,0:0:0:0:
287,222,201554,2,0,P|276:183|275:143,1,79.9999999999999,8|0,0:3|1:0,0:0:0:0:
352,14,201870,6,0,P|368:91|359:171,1,160,4|12,1:2|0:0,0:0:0:0:
215,273,202343,2,0,L|136:277,1,79.9999999999999,4|0,0:3|1:0,0:0:0:0:
296,310,202659,1,12,0:0:0:0:
193,193,202817,1,4,0:3:0:0:
193,193,202896,1,0,0:0:0:0:
193,193,202975,2,0,L|153:195,3,40,8|0|8|0,0:0|0:0|0:3|0:0,0:0:0:0:
109,203,203291,102,0,B|117:150|117:150|102:101|102:101|109:46,1,160,4|0,1:2|1:0,0:0:0:0:
35,156,203764,1,0,0:0:0:0:
183,92,203922,2,0,P|260:90|315:146,1,160,12|0,0:1|0:0,0:0:0:0:
380,59,204396,6,0,L|364:219,1,160,0|8,1:0|0:0,0:0:0:0:
446,185,204870,1,4,0:3:0:0:
281,252,205028,1,0,1:0:0:0:
422,362,205186,2,0,P|461:361|501:354,1,79.9999999999999,8|4,0:0|0:3,0:0:0:0:
294,273,205501,2,0,P|254:273|214:280,1,79.9999999999999,4|0,0:3|1:0,0:0:0:0:
83,363,205817,102,0,B|91:310|91:310|76:261|76:261|83:206,1,160,4|0,1:2|1:0,0:0:0:0:
214,280,206291,1,4,0:3:0:0:
237,112,206449,2,0,L|227:191,1,79.9999999999999,12|4,0:0|0:3,0:0:0:0:
214,280,206764,1,0,1:0:0:0:
7,160,206922,6,0,P|71:116|143:141,1,160,4|8,1:0|0:0,0:0:0:0:
362,255,207396,2,0,B|379:220|379:220|371:180,1,79.9999999999999,0|4,1:0|0:3,0:0:0:0:
316,121,207633,1,4,0:3:0:0:
316,121,207712,2,0,L|236:111,1,79.9999999999999,8|4,0:0|0:3,0:0:0:0:
134,270,208028,2,0,L|213:279,1,79.9999999999999,0|0,1:0|1:0,0:0:0:0:
392,165,208343,102,0,P|327:208|254:186,1,160,4|0,1:0|1:0,0:0:0:0:
316,121,208817,1,0,0:0:0:0:
359,292,208975,2,0,L|354:371,1,79.9999999999999,8|0,0:0|0:0,0:0:0:0:
438,346,209291,1,0,1:0:0:0:
253,334,209449,6,0,L|94:322,1,160,4|8,1:0|0:0,0:0:0:0:
162,175,209922,2,0,B|173:213|173:213|163:252,1,79.9999999999999,4|0,0:3|1:0,0:0:0:0:
14,364,210238,2,0,B|3:326|3:326|14:286,1,79.9999999999999,8|0,0:0|0:0,0:0:0:0:
81,140,210554,1,4,0:3:0:0:
0,105,210712,1,8,0:0:0:0:
162,175,210870,102,0,L|321:163,1,160,4|0,1:2|1:0,0:0:0:0:
394,212,211343,1,4,0:3:0:0:
253,334,211501,2,0,P|246:294|248:254,1,79.9999999999999,12|0,0:0|0:0,0:0:0:0:
329,290,211817,1,4,3:0:0:0:
177,378,211975,6,0,B|130:383|104:355|104:355|75:324|30:330,1,160,4|8,1:0|0:0,0:0:0:0:
170,210,212449,2,0,L|165:290,1,79.9999999999999,2|0,1:1|0:0,0:0:0:0:
3,141,212764,2,0,L|0:87,2,53.3333333333333,14|8|4,0:1|0:3|0:3,0:0:0:0:
83,116,213080,2,0,L|79:62,2,53.3333333333333,4|0|0,0:3|1:0|1:0,0:0:0:0:
163,91,213396,102,0,L|322:101,1,160,4|0,1:0|1:0,0:0:0:0:
247,254,213870,1,4,0:3:0:0:
406,243,214028,2,0,L|246:253,1,160,12|0,0:0|1:0,0:0:0:0:
490,275,214501,6,0,P|491:235|482:196,1,79.9999999999999,4|0,0:3|0:0,0:0:0:0:
326,61,214817,1,8,0:1:0:0:
387,166,214975,1,4,0:3:0:0:
448,61,215133,1,0,1:0:0:0:
272,175,215291,2,0,L|192:169,1,79.9999999999999,12|0,0:0|0:0,0:0:0:0:
339,335,215607,2,0,L|418:329,1,79.9999999999999,0|4,1:2|0:3,0:0:0:0:
238,345,215922,102,0,B|185:337|185:337|150:297|150:297|97:289,1,160,4|0,1:0|1:0,0:0:0:0:
236,258,216396,1,4,0:3:0:0:
118,134,216554,2,0,B|104:172|104:172|118:209,1,79.9999999999999,12|0,0:0|1:2,0:0:0:0:
238,345,216870,1,0,0:2:0:0:
234,171,217028,6,0,L|216:11,1,160,4|8,1:2|0:0,0:0:0:0:
317,111,217501,1,4,0:3:0:0:
159,216,217659,1,0,1:0:0:0:
324,250,217817,1,12,0:0:0:0:
324,250,217975,2,0,L|404:241,1,79.9999999999999,0|0,1:0|0:2,0:0:0:0:
236,258,218291,1,8,0:0:0:0:
447,334,218449,102,0,B|455:281|455:281|440:232|440:232|447:177,1,160,4|0,1:0|1:0,0:0:0:0:
360,335,218922,1,4,0:3:0:0:
228,170,219080,2,0,L|148:161,1,79.9999999999999,14|0,0:0|1:2,0:0:0:0:
324,250,219396,1,0,1:0:0:0:
345,82,219554,6,0,L|336:162,1,79.9999999999999,4|0,1:2|0:0,0:0:0:0:
353,2,219870,2,0,L|344:82,1,79.9999999999999,8|4,0:0|0:3,0:0:0:0:
324,250,220186,1,0,1:0:0:0:
432,91,220343,1,12,0:0:0:0:
256,71,220501,1,8,0:1:0:0:
80,51,220659,2,0,L|89:131,1,79.9999999999999,4|0,0:3|1:0,0:0:0:0:
62,351,220975,102,0,P|138:328|218:330,1,160,14|0,0:1|0:0,0:0:0:0:
71,270,221607,2,0,P|148:288|216:330,1,160,14|0,0:1|0:0,0:0:0:0:
120,205,222238,6,0,P|177:260|216:329,1,160,14|0,0:1|0:0,0:0:0:0:
195,173,222870,2,0,P|217:249|215:329,1,160,14|0,0:1|0:0,0:0:0:0:
332,143,223501,6,0,L|322:247,1,104.999996795654
292,281,224133,86,0,B|337:275|366:306|366:306|392:334|439:329,1,160,4|0,1:0|0:0,0:0:0:0:
476,249,224607,1,4,0:3:0:0:
304,368,224764,6,0,L|224:360,1,79.9999999999999,0|0,1:0|0:0,0:0:0:0:
82,290,225080,2,0,P|63:309|51:333,2,53.3333333333333,4|4|4,0:3|0:3|0:3,0:0:0:0:
93,204,225396,2,0,P|67:205|42:213,2,53.3333333333333,8|8|4,0:0|0:3|0:3,0:0:0:0:
162,153,225712,2,0,P|142:134|118:122,2,53.3333333333333,4|0|0,0:3|1:0|1:0,0:0:0:0:
220,217,226028,102,0,B|274:210|274:210|315:237|315:237|370:225,1,160,4|8,1:0|0:3,0:0:0:0:
467,105,226501,1,0,1:0:0:0:
463,192,226659,2,0,L|459:271,1,79.9999999999999,12|12,0:1|0:0,0:0:0:0:
456,358,226975,1,8,0:0:0:0:
463,192,227133,6,0,L|469:32,1,160,12|8,0:1|0:3,0:0:0:0:
278,101,227607,2,0,P|316:112|355:112,1,79.9999999999999,4|0,0:3|1:0,0:0:0:0:
187,19,227922,1,8,0:0:0:0:
90,171,228080,1,8,0:3:0:0:
90,197,228158,1,4,0:3:0:0:
91,224,228237,1,4,0:3:0:0:
92,250,228316,1,0,1:3:0:0:
93,277,228395,1,0,1:0:0:0:
94,304,228474,1,0,1:0:0:0:
95,330,228554,102,0,P|173:329|229:275,1,160,4|0,1:0|1:0,0:0:0:0:
286,344,229028,1,4,0:3:0:0:
173,206,229186,2,0,L|177:127,1,79.9999999999999,12|4,0:0|0:3,0:0:0:0:
318,261,229501,1,0,1:0:0:0:
309,101,229659,6,0,L|317:260,1,160,6|2,1:2|1:2,0:0:0:0:
476,176,230133,2,0,P|437:172|397:178,1,79.9999999999999,8|4,0:0|0:3,0:0:0:0:
236,60,230449,2,0,P|314:61|380:18,1,160,12|0,0:0|1:2,0:0:0:0:
227,147,230922,1,4,3:0:0:0:
133,12,231080,102,0,L|142:172,1,160,4|0,1:0|1:0,0:0:0:0:
149,260,231554,1,4,0:3:0:0:
60,267,231712,1,8,0:0:0:0:
238,253,231870,1,8,0:0:0:0:
60,267,232028,1,12,0:3:0:0:
230,344,232186,6,0,B|284:337|284:337|318:298|318:298|372:291,1,160,4|0,1:0|1:2,0:0:0:0:
229,177,232659,2,0,B|222:216|222:216|238:253,1,79.9999999999999,8|0,0:0|0:0,0:0:0:0:
410,197,232975,2,0,L|466:192,2,53.3333333333333,8|8|8,0:0|0:0|0:0,0:0:0:0:
412,111,233291,2,0,L|435:60,2,53.3333333333333,4|4|0,0:3|0:3|1:0,0:0:0:0:
338,66,233607,101,4,1:0:0:0:
338,66,234870,5,4,1:2:0:0:
17,209,235501,1,4,1:2:0:0:
359,292,236133,101,4,1:0:0:0:
256,192,236212,12,0,238028,0:0:0:0:
281,254,238659,38,0,L|440:242,1,160,4|0,1:0|1:0,0:0:0:0:
299,167,239133,1,4,0:3:0:0:
215,195,239291,2,0,L|135:189,1,79.9999999999999,8|0,0:0|0:0,0:0:0:0:
60,299,239607,1,0,1:0:0:0:
59,142,239764,6,0,B|52:197|52:197|67:246|67:246|59:299,1,160,12|4,0:0|0:3,0:0:0:0:
135,189,240238,2,0,B|145:109,1,79.9999999999999,0|0,1:0|0:0,0:0:0:0:
359,104,240554,2,0,P|283:121|224:72,1,160,8|0,0:0|1:0,0:0:0:0:
304,35,241028,1,4,0:3:0:0:
220,256,241186,102,0,B|378:236,1,160,4|4,1:2|0:3,0:0:0:0:
435,305,241659,1,0,1:0:0:0:
322,168,241817,1,12,1:2:0:0:
446,180,241975,1,4,0:3:0:0:
309,293,242133,1,0,1:0:0:0:
292,57,242291,6,0,B|345:65|345:65|394:50|394:50|449:57,1,160,4|8,1:2|0:0,0:0:0:0:
322,168,242764,2,0,B|242:156,1,79.9999999999999,0|0,1:0|0:0,0:0:0:0:
51,144,243080,2,0,P|129:148|181:91,1,160,10|10,0:1|0:1,0:0:0:0:
95,66,243554,1,0,1:3:0:0:
181,224,243712,102,0,B|169:383,1,160,4|0,1:0|1:0,0:0:0:0:
311,306,244186,1,4,0:3:0:0:
270,228,244343,2,0,B|264:148,1,79.9999999999999,8|0,0:0|0:0,0:0:0:0:
397,113,244659,1,0,1:0:0:0:
255,60,244817,6,0,B|309:67|309:67|343:106|343:106|397:113,1,160,12|4,0:0|0:3,0:0:0:0:
264,148,245291,2,0,B|184:137,1,79.9999999999999,0|0,1:0|0:0,0:0:0:0:
25,191,245607,1,12,0:0:0:0:
66,268,245764,2,0,B|86:109,1,160,0|4,1:0|0:3,0:0:0:0:
252,243,246238,102,0,P|213:247|174:238,1,79.9999999999999,12|0,0:1|1:0,0:0:0:0:
335,179,246554,1,4,0:3:0:0:
241,349,246712,1,0,1:0:0:0:
184,137,246870,1,8,0:0:0:0:
348,282,247028,1,8,0:0:0:0:
140,351,247186,1,0,1:2:0:0:
252,243,247343,6,0,L|266:83,1,160,12|4,0:1|0:3,0:0:0:0:
105,142,247817,2,0,P|144:146|183:137,1,79.9999999999999,4|4,1:2|0:3,0:0:0:0:
413,184,248133,2,0,P|374:174|334:178,1,79.9999999999999,10|0,0:1|0:0,0:0:0:0:
172,271,248449,1,10,0:1:0:0:
348,282,248607,1,0,1:0:0:0:
140,351,248764,102,0,L|125:191,1,160,4|0,1:0|1:0,0:0:0:0:
9,103,249238,1,4,0:3:0:0:
177,86,249396,2,0,L|97:93,1,79.9999999999999,8|0,0:0|0:0,0:0:0:0:
9,103,249712,1,0,1:0:0:0:
218,179,249870,6,0,P|295:178|346:119,1,160,12|4,0:0|0:3,0:0:0:0:
429,223,250343,2,0,L|414:63,1,160,0|8,1:0|0:0,0:0:0:0:
354,270,250817,1,0,0:0:0:0:
432,311,250975,2,0,L|512:303,1,79.9999999999999,4|0,0:3|1:0,0:0:0:0:
354,270,251291,102,0,L|194:255,1,160,4|4,1:0|1:2,0:0:0:0:
112,223,251764,1,4,0:3:0:0:
123,347,251922,1,8,0:0:0:0:
214,151,252080,1,4,0:3:0:0:
1,170,252238,1,0,1:0:0:0:
188,45,252396,6,0,L|348:30,1,160,4|8,1:2|0:0,0:0:0:0:
322,198,252870,2,0,P|315:158|318:118,1,79.9999999999999,0|4,1:0|0:3,0:0:0:0:
499,29,253186,2,0,P|505:68|502:108,1,79.9999999999999,10|0,0:1|0:0,0:0:0:0:
377,270,253501,1,2,1:0:0:0:
506,193,253659,1,0,1:0:0:0:
358,289,253817,102,0,L|198:274,1,160,4|0,1:0|1:0,0:0:0:0:
29,207,254291,1,4,0:3:0:0:
110,174,254449,2,0,P|111:213|103:252,1,79.9999999999999,8|0,0:0|0:0,0:0:0:0:
26,77,254764,1,4,0:3:0:0:
95,22,254922,6,0,B|140:16|169:47|169:47|195:75|242:70,1,160,12|4,0:1|0:3,0:0:0:0:
320,30,255396,1,8,0:0:0:0:
289,240,255554,1,4,0:3:0:0:
289,240,255633,1,4,0:3:0:0:
289,240,255712,1,12,0:0:0:0:
320,30,255870,1,0,0:0:0:0:
417,177,256028,1,4,0:3:0:0:
241,70,256186,1,0,0:0:0:0:
157,285,256343,102,0,P|234:294|288:239,1,160,12|8,0:1|0:0,0:0:0:0:
183,51,256817,2,0,L|204:210,1,160,4|0,1:2|1:2,0:0:0:0:
325,338,257292,1,12,0:0:0:0:
467,190,257607,6,0,B|429:167|429:167|368:181,1,106.666666666667,0|4,1:0|0:3,0:0:0:0:
327,107,257922,2,0,B|378:94,2,53.3333333333333,8|4|4,0:3|0:3|0:3,0:0:0:0:
241,104,258238,2,0,B|256:52,2,53.3333333333333,4|0|0,0:3|1:0|1:0,0:0:0:0:
195,176,258554,2,0,B|158:137,2,53.3333333333333,0|0|0,1:0|1:0|1:0,0:0:0:0:
261,224,258870,5,4,1:0:0:0:
256,192,258949,12,0,268659,0:0:0:0:
