osu file format v14

[General]
AudioFilename: audio.mp3
AudioLeadIn: 0
PreviewTime: 77755
Countdown: 0
SampleSet: Soft
StackLeniency: 0.7
Mode: 2
LetterboxInBreaks: 0
WidescreenStoryboard: 0

[Editor]
DistanceSpacing: 3
BeatDivisor: 8
GridSize: 32
TimelineZoom: 3.099999

[Metadata]
Title:Towa ni Saku Hana (Short Ver.)
TitleUnicode:永遠に咲く花 (Short Ver.)
Artist:AiRI
ArtistUnicode:AiRI
Creator:Jemzuu
Version:Serenity
Source:枯れない世界と終わる花
Tags:ajamez yugu karenai sekai to owaru hana the rainbow appears after flowering rain sweet & tea galgame visual novel eroge opening
BeatmapID:2006732
BeatmapSetID:958431

[Difficulty]
HPDrainRate:7
CircleSize:5
OverallDifficulty:8.6
ApproachRate:8.6
SliderMultiplier:2.4
SliderTickRate:2

[Events]
//Background and Video events
0,0,"hanaa.jpg",0,0
//Break Periods
//Storyboard Layer 0 (Background)
//Storyboard Layer 1 (Fail)
//Storyboard Layer 2 (Pass)
//Storyboard Layer 3 (Foreground)
//Storyboard Layer 4 (Overlay)
//Storyboard Sound Samples

[TimingPoints]
538,631.578947368421,4,2,1,30,1,0
3064,-100,4,2,1,30,0,0
4011,-100,4,2,1,30,0,0
5590,-100,4,2,1,30,0,0
8116,-100,4,2,1,30,0,0
9064,-100,4,2,1,30,0,0
10643,-100,4,2,1,50,0,0
13169,-100,4,2,1,50,0,0
14116,-100,4,2,1,50,0,0
15695,-100,4,2,1,50,0,0
18222,-100,4,2,1,50,0,0
19169,-100,4,2,1,50,0,0
20748,-100,4,2,1,60,0,0
24222,-100,4,2,1,60,0,0
25169,-100,4,2,1,60,0,0
25801,-100,4,2,1,60,0,0
26748,-100,4,2,1,60,0,0
28011,-100,4,2,1,60,0,0
29274,-100,4,2,1,60,0,0
29906,-100,4,2,1,60,0,0
34327,-100,4,2,1,60,0,0
35116,-100,4,2,1,60,0,0
35906,-100,4,2,1,60,0,0
37169,-100,4,2,1,60,0,0
38432,-100,4,2,1,60,0,0
39695,-100,4,2,2,60,0,0
40959,-83.3333333333333,4,2,2,60,0,0
43485,-83.3333333333333,4,2,2,60,0,0
43959,-83.3333333333333,4,2,2,60,0,0
44432,-83.3333333333333,4,2,2,60,0,0
45380,-83.3333333333333,4,2,2,60,0,0
46011,-83.3333333333333,4,2,2,60,0,0
46880,-83.3333333333333,4,2,2,5,0,0
46959,-83.3333333333333,4,2,2,60,0,0
47511,-83.3333333333333,4,2,2,5,0,0
47590,-83.3333333333333,4,2,2,60,0,0
48538,-83.3333333333333,4,2,2,60,0,0
49011,-83.3333333333333,4,2,2,60,0,0
49485,-83.3333333333333,4,2,2,60,0,0
51064,-83.3333333333333,4,2,2,60,0,0
53590,-83.3333333333333,4,2,2,60,0,0
54064,-83.3333333333333,4,2,2,60,0,0
54538,-83.3333333333333,4,2,2,60,0,0
55485,-83.3333333333333,4,2,2,60,0,0
56116,-83.3333333333333,4,2,2,70,0,0
56748,-83.3333333333333,4,2,2,70,0,0
57222,-83.3333333333333,4,2,2,70,0,0
58011,-83.3333333333333,4,2,2,70,0,0
58327,-83.3333333333333,4,2,2,70,0,0
59274,-83.3333333333333,4,2,2,70,0,0
59748,-83.3333333333333,4,2,2,70,0,0
61169,-100,4,2,2,70,0,0
63064,-100,4,2,2,50,0,0
63695,-100,4,2,2,50,0,0
66222,-100,4,2,2,60,0,0
68432,-100,4,2,2,60,0,0
68748,-100,4,2,2,60,0,0
71274,-83.3333333333333,4,2,2,60,0,0
71511,-83.3333333333333,4,2,2,5,0,0
71590,-83.3333333333333,4,2,2,60,0,0
71827,-83.3333333333333,4,2,2,5,0,0
71906,-83.3333333333333,4,2,2,60,0,0
73801,-71.4285714285714,4,2,2,80,0,0
74353,-100,4,2,2,5,0,0
74432,-83.3333333333333,4,2,2,80,0,0
76011,-71.4285714285714,4,2,2,80,0,0
77432,-100,4,2,2,80,0,0
77472,-100,4,2,2,15,0,0
77511,-100,4,2,2,15,0,0
77551,-100,4,2,2,17,0,0
77590,-100,4,2,2,23,0,0
77630,-100,4,2,2,29,0,0
77669,-100,4,2,2,35,0,0
77709,-100,4,2,2,41,0,0
77748,-100,4,2,2,47,0,0
77787,-100,4,2,2,53,0,0
77827,-100,4,2,2,59,0,0
77866,-100,4,2,2,65,0,0
77906,-100,4,2,2,71,0,0
77945,-100,4,2,2,77,0,0
77985,-100,4,2,2,83,0,0
78024,-100,4,2,2,89,0,0
78064,-100,4,2,2,95,0,0
78103,-100,4,2,2,100,0,0
78143,-100,4,2,2,50,0,0
78182,-100,4,2,2,20,0,0
78222,-100,4,2,2,60,0,0
78853,-58.8235294117647,4,2,2,90,0,1
79090,-58.8235294117647,4,2,2,5,0,1
79169,-58.8235294117647,4,2,2,90,0,1
80985,-58.8235294117647,4,2,2,5,0,1
81064,-58.8235294117647,4,2,2,90,0,1
82485,-58.8235294117647,4,2,2,90,0,1
84143,-58.8235294117647,4,2,2,5,0,1
84222,-58.8235294117647,4,2,2,90,0,1
86669,-58.8235294117647,4,2,2,5,0,1
86748,-58.8235294117647,4,2,2,90,0,1
86985,-58.8235294117647,4,2,2,5,0,1
87064,-58.8235294117647,4,2,2,90,0,1
88248,-58.8235294117647,4,2,2,5,0,1
88327,-58.8235294117647,4,2,2,90,0,1
89590,-45.4545454545455,4,2,2,90,0,1
89669,-52.6315789473684,4,2,2,5,0,1
90064,-52.6315789473684,4,2,2,40,0,1
90222,-52.6315789473684,4,2,2,40,0,1
90695,-52.6315789473684,4,2,2,80,0,1
90853,-58.8235294117647,4,2,2,90,0,1
94248,-58.8235294117647,4,2,2,5,0,1
94327,-58.8235294117647,4,2,2,90,0,1
96774,-58.8235294117647,4,2,2,5,0,1
96853,-58.8235294117647,4,2,2,90,0,1
97880,-58.8235294117647,4,2,2,5,0,1
97959,-58.8235294117647,4,2,2,90,0,1
98432,-58.8235294117647,4,2,2,80,0,1
98748,-58.8235294117647,4,2,2,70,0,1
99064,-100,4,2,2,60,0,0
99143,-100,4,2,2,5,0,0
100169,-100,4,2,2,50,0,0
100327,-100,4,2,2,80,0,0
100643,-100,4,2,2,80,0,0
101274,-100,4,2,2,80,0,0
101590,-66.6666666666667,4,2,2,90,0,0
101748,-66.6666666666667,4,2,2,60,0,0
102222,-66.6666666666667,4,2,2,50,0,0
102537,-66.6666666666667,4,2,2,35,0,0
102853,-66.6666666666667,4,2,2,25,0,0
103169,-66.6666666666667,4,2,2,10,0,0
103485,-100,4,2,2,5,0,0
103801,-100,4,2,2,60,0,0
104116,-58.8235294117647,4,2,2,90,0,1
122274,-58.8235294117647,4,2,2,90,0,1
122748,-58.8235294117647,4,2,2,90,0,1
124327,-100,4,2,2,90,0,0
124485,-100,4,2,2,60,0,0
125590,-100,4,2,2,50,0,0
126222,-100,4,2,2,45,0,0
126853,-100,4,2,2,40,0,0
127485,-100,4,2,2,35,0,0
128116,-100,4,2,2,30,0,0
129380,-100,4,2,2,25,0,0
130643,-100,4,2,2,20,0,0
131906,-100,4,2,2,15,0,0
133169,-100,4,2,2,10,0,0
134274,-100,4,2,2,5,0,0

[Colours]
Combo1 : 210,210,210
Combo2 : 94,174,255
Combo3 : 255,151,255

[HitObjects]
425,313,538,5,2,0:0:0:0:
377,278,695,1,0,0:0:0:0:
371,220,853,1,0,0:0:0:0:
411,178,1011,1,0,0:0:0:0:
469,178,1169,1,0,0:0:0:0:
237,138,1485,5,2,0:0:0:0:
341,120,1643,1,0,0:0:0:0:
230,62,1801,1,0,0:0:0:0:
339,46,1959,1,0,0:0:0:0:
448,52,2116,1,0,0:0:0:0:
88,57,3064,5,2,0:0:0:0:
191,87,3222,1,0,0:0:0:0:
90,133,3380,1,0,0:0:0:0:
236,171,3538,1,2,0:0:0:0:
90,217,3695,1,0,0:0:0:0:
391,330,4011,5,2,0:0:0:0:
439,295,4168,1,0,0:0:0:0:
445,237,4326,1,0,0:0:0:0:
405,195,4484,1,0,0:0:0:0:
347,195,4642,1,0,0:0:0:0:
48,122,4959,2,0,L|30:266,1,120,0|0,0:0|0:0,0:0:0:0:
314,319,5590,5,2,0:0:0:0:
216,289,5748,1,0,0:0:0:0:
145,221,5906,1,0,0:0:0:0:
270,177,6064,1,0,0:0:0:0:
140,127,6222,1,0,0:0:0:0:
414,338,6538,5,2,0:0:0:0:
349,330,6696,1,0,0:0:0:0:
311,270,6854,1,0,0:0:0:0:
353,218,7012,1,0,0:0:0:0:
426,204,7169,2,0,P|499:150|391:16,1,300
192,28,8116,5,2,0:0:0:0:
88,57,8274,1,0,0:0:0:0:
36,148,8432,1,0,0:0:0:0:
199,162,8590,1,2,0:0:0:0:
207,269,8748,1,0,0:0:0:0:
463,262,9064,5,2,0:0:0:0:
366,285,9222,1,0,0:0:0:0:
281,343,9380,1,0,0:0:0:0:
401,374,9538,1,0,0:0:0:0:
281,343,9695,5,0,0:0:0:0:
397,350,9853,1,0,0:0:0:0:
252,311,10011,1,0,0:0:0:0:
117,269,10169,1,0,0:0:0:0:
264,217,10327,1,0,0:0:0:0:
15,172,10643,5,2,0:0:0:0:
16,102,10800,1,0,0:0:0:0:
116,107,10958,1,0,0:0:0:0:
124,44,11116,1,0,0:0:0:0:
250,53,11274,1,8,0:0:0:0:
482,222,11590,5,2,0:0:0:0:
365,185,11748,1,0,0:0:0:0:
485,150,11906,1,0,0:0:0:0:
357,108,12064,1,0,0:0:0:0:
226,95,12222,2,0,L|211:239,1,120,8|0,0:0|0:0,0:0:0:0:
490,253,13169,5,2,0:0:0:0:
468,332,13327,1,0,0:0:0:0:
390,357,13485,1,0,0:0:0:0:
223,333,13643,1,2,0:0:0:0:
356,286,13801,1,0,0:0:0:0:
99,238,14116,5,2,0:0:0:0:
203,196,14274,1,0,0:0:0:0:
297,128,14432,1,0,0:0:0:0:
157,98,14590,1,0,0:0:0:0:
267,30,14748,2,0,L|347:30,1,60
182,217,15064,2,0,P|117:224|6:299,1,180,8|0,0:0|0:0,0:0:0:0:
267,329,15695,5,2,0:0:0:0:
380,277,15853,1,0,0:0:0:0:
259,220,16011,1,0,0:0:0:0:
131,211,16169,1,0,0:0:0:0:
268,138,16327,1,8,0:0:0:0:
13,73,16643,5,2,0:0:0:0:
116,48,16801,1,0,0:0:0:0:
15,43,16959,1,0,0:0:0:0:
129,18,17116,1,0,0:0:0:0:
247,46,17274,2,0,L|255:176,1,120,8|0,0:0|0:0,0:0:0:0:
70,221,17906,1,0,0:0:0:0:
360,250,18222,5,2,0:0:0:0:
348,320,18380,1,0,0:0:0:0:
222,307,18538,1,0,0:0:0:0:
207,376,18695,1,2,0:0:0:0:
379,378,18853,1,0,0:0:0:0:
281,356,19011,1,0,0:0:0:0:
464,337,19169,5,2,0:0:0:0:
481,302,19801,1,0,0:0:0:0:
393,260,19959,1,0,0:0:0:0:
206,212,20116,1,10,0:0:0:0:
318,194,20274,2,0,P|391:170|432:101,1,120,0|0,0:0|0:0,0:0:0:0:
203,76,20748,6,0,P|144:75|50:115,1,120,2|0,0:0|0:0,0:0:0:0:
296,115,21380,1,8,0:0:0:0:
33,224,21695,1,2,0:0:0:0:
115,240,21853,2,0,L|142:377,1,120,0|8,0:0|0:0,0:0:0:0:
224,353,22327,1,0,0:0:0:0:
410,308,22643,2,0,L|255:286,1,120,8|0,0:0|0:0,0:0:0:0:
223,272,23116,1,0,0:0:0:0:
382,221,23274,2,0,L|252:196,1,120,2|0,0:0|0:0,0:0:0:0:
429,147,23748,2,0,L|307:125,1,120,2|0,0:0|0:0,0:0:0:0:
483,81,24222,6,0,P|497:148|432:234,1,180,2|0,0:0|0:0,0:0:0:0:
348,255,24853,1,0,0:0:0:0:
115,303,25169,1,0,0:0:0:0:
345,345,25485,1,0,0:0:0:0:
21,242,25801,6,0,L|54:83,1,120,2|0,0:0|0:0,0:0:0:0:
109,98,26274,1,0,0:0:0:0:
283,30,26432,1,8,0:0:0:0:
42,53,26748,2,0,L|192:43,1,120,2|0,0:0|0:0,0:0:0:0:
176,92,27222,1,0,0:0:0:0:
435,186,27538,1,0,0:0:0:0:
421,234,27695,2,0,L|284:249,1,120,8|8,0:0|0:0,0:0:0:0:
237,251,28169,1,0,0:0:0:0:
77,318,28327,6,0,L|219:337,1,120,2|0,0:0|0:0,0:0:0:0:
48,244,28801,2,0,L|176:262,1,120,2|0,0:0|0:0,0:0:0:0:
16,304,29274,2,0,P|0:240|84:176,1,180,2|8,0:0|0:0,0:0:0:0:
174,153,29906,1,0,0:0:0:0:
282,155,30064,1,0,0:0:0:0:
165,75,30222,1,8,0:0:0:0:
479,43,30695,1,8,0:0:0:0:
334,77,30853,6,0,P|418:108|333:194,1,240,2|8,0:0|0:0,0:0:0:0:
43,334,31801,2,0,L|250:364,2,180,2|8|8,0:0|0:0|0:0,0:0:0:0:
280,255,33064,2,0,L|358:242,1,60,0|0,0:0|0:0,0:0:0:0:
173,216,33380,2,0,P|90:183|68:139,1,120,2|0,0:0|0:0,0:0:0:0:
238,134,33853,2,0,P|321:101|343:57,1,120,2|0,0:0|0:0,0:0:0:0:
145,44,34327,6,0,L|125:235,1,180,2|0,0:0|0:0,0:0:0:0:
205,255,34959,1,0,0:0:0:0:
297,264,35116,1,0,0:0:0:0:
148,329,35274,2,0,L|19:335,1,120,8|0,0:0|0:0,0:0:0:0:
100,295,35748,1,0,0:0:0:0:
343,311,35906,6,0,P|385:261|305:241,1,180,2|0,0:0|0:0,0:0:0:0:
457,308,36538,2,0,L|470:180,1,120,8|0,0:0|0:0,0:0:0:0:
170,57,37169,2,0,L|309:41,1,120,2|0,0:0|0:0,0:0:0:0:
208,26,37643,1,2,0:0:0:0:
117,29,37801,1,8,0:0:0:0:
359,6,38116,1,2,0:0:0:0:
46,114,38432,6,0,P|160:153|34:266,1,360,2|0,0:0|0:0,0:0:0:0:
288,289,39695,1,0,0:0:0:0:
35,350,40011,2,0,L|134:357,1,60,6|0,0:0|0:0,0:0:0:0:
452,344,40327,2,0,L|459:324,1,15,8|0,0:0|0:0,0:0:0:0:
356,285,40485,2,0,P|430:249|481:249,1,120,2|0,0:0|0:0,0:0:0:0:
234,191,40959,6,0,P|157:179|85:126,1,143.999995605469,4|0,0:0|0:0,0:0:0:0:
217,91,41432,2,0,P|309:68|366:70,1,143.999995605469,2|0,0:0|0:0,0:0:0:0:
234,191,41906,2,0,P|157:179|85:126,1,143.999995605469,0|0,0:0|0:0,0:0:0:0:
181,91,42380,1,0,0:0:0:0:
276,73,42538,1,2,0:0:0:0:
153,26,42695,1,0,0:0:0:0:
23,30,42853,1,8,0:0:0:0:
181,91,43169,2,0,L|198:180,1,71.9999978027344,0|0,0:0|0:0,0:0:0:0:
376,219,43485,6,0,L|345:379,1,143.999995605469,2|0,0:0|0:0,0:0:0:0:
178,357,43959,2,0,L|102:357,2,71.9999978027344,8|0|0,0:0|0:0|0:0,0:0:0:0:
376,219,44432,2,0,L|345:379,1,143.999995605469,2|0,0:0|0:0,0:0:0:0:
502,364,45064,1,2,0:0:0:0:
225,249,45380,2,0,L|392:238,1,143.999995605469,8|0,0:0|0:0,0:0:0:0:
293,207,45853,1,0,0:0:0:0:
61,201,46011,6,0,P|17:137|126:89,1,215.999993408203,2|2,0:0|0:0,0:0:0:0:
217,117,46643,2,0,L|237:193,1,71.9999978027344,0|0,0:0|0:0,0:0:0:0:
61,201,46959,2,0,P|134:230|40:352,1,287.999991210938,0|2,0:0|0:0,0:0:0:0:
136,363,47748,1,0,0:0:0:0:
312,293,47906,2,0,L|151:269,1,143.999995605469,8|0,0:0|0:0,0:0:0:0:
248,223,48380,1,0,0:0:0:0:
467,216,48538,6,0,P|486:133|424:128,1,143.999995605469,2|0,0:0|0:0,0:0:0:0:
274,108,49011,2,0,L|264:-46,1,143.999995605469,8|0,0:0|0:0,0:0:0:0:
447,119,49485,2,0,P|500:159|467:216,1,143.999995605469,2|0,0:0|0:0,0:0:0:0:
240,267,50116,2,0,L|321:272,1,71.9999978027344,2|0,0:0|0:0,0:0:0:0:
126,347,50432,2,0,L|218:355,1,71.9999978027344,8|0,0:0|0:0,0:0:0:0:
311,354,50748,2,0,L|396:358,1,71.9999978027344,0|0,0:0|0:0,0:0:0:0:
113,267,51064,6,0,P|35:236|31:148,1,143.999995605469,6|0,0:0|0:0,0:0:0:0:
125,132,51538,1,2,0:0:0:0:
244,120,51695,1,0,0:0:0:0:
19,183,52011,1,0,0:0:0:0:
110,142,52169,1,0,0:0:0:0:
227,131,52327,6,0,L|241:226,1,71.9999978027344,0|0,0:0|0:0,0:0:0:0:
91,272,52643,2,0,L|76:345,1,71.9999978027344,2|0,0:0|0:0,0:0:0:0:
237,202,52959,2,0,P|292:273|240:306,1,143.999995605469,8|0,0:0|0:0,0:0:0:0:
177,333,53432,1,0,0:0:0:0:
416,141,53590,6,0,P|353:69|290:61,1,143.999995605469,2|0,0:0|0:0,0:0:0:0:
163,58,54063,1,8,0:0:0:0:
52,80,54221,1,0,0:0:0:0:
164,75,54379,1,0,0:0:0:0:
416,141,54538,2,0,P|353:69|290:61,1,143.999995605469,2|0,0:0|0:0,0:0:0:0:
496,22,55169,1,2,0:0:0:0:
191,171,55485,2,0,L|372:189,1,143.999995605469,8|0,0:0|0:0,0:0:0:0:
316,257,55959,1,0,0:0:0:0:
31,333,56116,6,0,P|42:240|97:186,1,143.999995605469,2|0,0:0|0:0,0:0:0:0:
162,168,56590,1,0,0:0:0:0:
358,112,56748,1,8,0:0:0:0:
147,80,57064,1,0,0:0:0:0:
367,137,57222,2,0,P|437:173|463:253,1,143.999995605469,2|0,0:0|0:0,0:0:0:0:
280,258,57695,1,2,0:0:0:0:
496,348,58011,2,0,L|413:357,1,71.9999978027344,8|2,0:0|0:0,0:0:0:0:
280,258,58327,2,0,L|363:262,1,71.9999978027344,0|0,0:0|0:0,0:0:0:0:
109,316,58643,6,0,P|36:280|40:169,1,143.999995605469,2|0,0:0|0:0,0:0:0:0:
96,181,59116,1,2,0:0:0:0:
267,144,59274,2,0,L|288:64,1,71.9999978027344,8|0,0:0|0:0,0:0:0:0:
181,45,59590,1,0,0:0:0:0:
425,35,59748,2,0,P|450:105|374:154,1,143.999995605469,4|0,0:0|0:0,0:0:0:0:
159,215,60222,1,0,0:0:0:0:
285,253,60380,2,0,L|293:295,1,35.9999989013672,0|0,0:0|0:0,0:0:0:0:
117,357,60538,2,0,L|33:350,1,71.9999978027344,8|2,0:0|0:0,0:0:0:0:
272,158,60853,2,0,L|170:145,1,71.9999978027344,2|2,0:0|0:0,0:0:0:0:
461,64,61169,6,0,L|463:318,1,240,6|0,0:0|0:0,0:0:0:0:
211,359,62116,2,0,L|137:368,1,60,0|0,0:0|0:0,0:0:0:0:
422,233,62590,2,0,L|493:234,1,60,0|0,0:0|0:0,0:0:0:0:
201,160,63064,2,0,L|349:149,1,120,2|0,0:2|0:0,0:0:0:0:
52,69,63695,6,0,P|41:223|117:258,1,240,2|0,0:2|0:0,0:0:0:0:
403,274,64959,1,2,0:2:0:0:
76,356,65274,2,0,L|167:361,1,60,2|0,0:0|0:0,0:0:0:0:
207,338,65590,2,0,L|56:316,1,120,2|2,0:0|0:0,0:0:0:0:
486,258,66222,6,0,P|465:183|342:134,1,180,4|0,0:0|0:0,0:0:0:0:
208,117,66853,1,2,0:0:0:0:
430,52,67169,1,0,0:0:0:0:
354,26,67327,2,0,L|214:9,1,120,0|0,0:0|0:0,0:0:0:0:
61,195,67959,1,0,0:0:0:0:
127,175,68116,1,2,0:0:0:0:
199,166,68274,1,0,0:0:0:0:
24,278,68432,2,0,L|6:366,1,60
257,353,68748,6,0,L|280:216,1,120,0|0,0:0|0:0,0:0:0:0:
338,209,69222,1,0,0:0:0:0:
492,134,69380,2,0,L|426:121,1,60,2|0,0:0|0:0,0:0:0:0:
304,140,69695,1,0,0:0:0:0:
481,295,69853,2,0,L|361:280,1,120,0|0,0:0|0:0,0:0:0:0:
276,296,70327,2,0,L|251:366,1,60,0|0,0:0|0:0,0:0:0:0:
78,211,70643,2,0,L|231:194,1,120,2|0,0:0|0:0,0:0:0:0:
59,135,71116,1,0,0:0:0:0:
338,105,71274,6,0,L|180:80,1,143.999995605469,2|0,0:0|0:0,0:0:0:0:
289,34,71748,1,0,0:0:0:0:
398,56,71906,1,2,0:0:0:0:
258,183,72064,1,0,0:0:0:0:
399,256,72222,1,0,0:0:0:0:
155,310,72380,1,2,0:0:0:0:
61,347,72537,6,0,L|216:364,1,143.999995605469,2|0,0:0|0:0,0:0:0:0:
84,276,73011,1,0,0:0:0:0:
301,135,73169,1,2,0:0:0:0:
468,73,73485,1,0,0:0:0:0:
60,47,73801,6,0,P|150:49|117:213,1,293.999991027832,6|0,0:0|0:0,0:0:0:0:
33,242,74432,2,0,P|64:282|175:297,1,143.999995605469,8|8,0:0|0:0,0:0:0:0:
402,278,75064,1,8,0:0:0:0:
151,305,75380,1,8,0:0:0:0:
66,337,75537,2,0,L|64:299,1,35.9999989013672,8|8,0:0|0:0,0:0:0:0:
261,216,75695,1,8,0:0:0:0:
145,205,75853,1,8,0:0:0:0:
267,128,76011,2,0,L|428:115,1,125.999996154785,8|0,0:0|0:0,0:0:0:0:
130,100,76327,5,4,0:0:0:0:
369,82,76643,1,8,0:0:0:0:
103,10,76801,1,4,0:0:0:0:
347,49,77116,1,8,0:0:0:0:
14,1,77274,1,4,0:0:0:0:
147,86,77432,6,0,P|183:113|79:253,1,270
328,259,78222,1,2,3:2:0:0:
71,329,78537,2,0,L|147:340,1,60
373,331,78853,6,0,P|264:311|234:246,1,153.000002918243,4|0,0:0|0:0,0:0:0:0:
328,259,79169,2,0,P|375:251|437:277,1,102.000001945496,2|2,0:0|0:0,0:0:0:0:
192,205,79485,2,0,P|263:93|337:82,1,204.000003890991,8|0,0:0|0:0,0:0:0:0:
205,48,79959,1,2,0:0:0:0:
457,51,80116,1,0,0:0:0:0:
341,159,80274,2,0,P|327:197|332:276,1,102.000001945496,2|0,0:0|0:0,0:0:0:0:
479,327,80590,1,2,0:0:0:0:
254,379,80748,2,0,P|319:399|421:373,1,153.000002918243,8|0,0:0|0:0,0:0:0:0:
387,300,81064,2,0,P|340:323|286:325,1,102.000001945496,0|0,0:0|0:0,0:0:0:0:
15,217,81380,6,0,P|112:188|183:189,1,102.000001945496,2|0,0:0|0:0,0:0:0:0:
257,153,81695,1,2,0:0:0:0:
122,97,81853,1,2,0:0:0:0:
277,60,82011,2,0,L|389:53,1,102.000001945496,8|0,0:0|0:0,0:0:0:0:
126,13,82327,1,2,0:0:0:0:
185,2,82406,1,0,0:0:0:0:
245,9,82485,2,0,L|260:122,1,102.000001945496,2|0,0:0|0:0,0:0:0:0:
415,168,82801,1,2,0:0:0:0:
232,214,82959,2,0,L|210:324,1,102.000001945496,0|2,0:0|0:0,0:0:0:0:
482,358,83274,5,8,0:0:0:0:
371,339,83432,1,2,0:0:0:0:
46,163,83590,1,10,0:0:0:0:
157,144,83748,1,2,0:0:0:0:
450,79,83906,6,0,P|367:92|305:148,1,153.000002918243,6|0,0:0|0:0,0:0:0:0:
388,125,84222,2,0,L|490:152,1,102.000001945496,0|2,0:0|0:0,0:0:0:0:
225,262,84537,2,0,P|302:282|334:282,1,102.000001945496,8|0,0:0|0:0,0:0:0:0:
441,309,84853,1,0,0:0:0:0:
178,317,85011,2,0,P|148:236|200:204,1,102.000001945496,2|0,0:0|0:0,0:0:0:0:
320,201,85327,1,2,0:0:0:0:
210,135,85485,1,0,0:0:0:0:
79,123,85643,1,2,0:0:0:0:
341,63,85801,5,8,0:0:0:0:
202,36,85959,1,8,0:0:0:0:
347,268,86116,1,2,0:0:0:0:
478,256,86274,1,0,0:0:0:0:
185,327,86432,6,0,L|345:342,1,153.000002918243,6|0,0:0|0:0,0:0:0:0:
268,305,86748,2,0,L|105:286,1,153.000002918243,2|0,0:0|0:0,0:0:0:0:
297,216,87064,1,8,0:0:0:0:
359,203,87142,1,0,0:0:0:0:
412,168,87221,1,8,0:0:0:0:
252,129,87380,1,8,0:0:0:0:
495,89,87537,6,0,P|412:53|319:44,1,153.000002918243,6|0,0:0|0:0,0:0:0:0:
299,74,87853,1,8,0:0:0:0:
448,15,88011,2,0,L|265:-2,1,153.000002918243,2|0,0:0|0:0,0:0:0:0:
91,176,88327,2,0,L|113:306,1,102.000001945496,12|0,0:0|0:0,0:0:0:0:
250,324,88643,2,0,L|311:334,1,51.0000009727478,8|8,0:0|0:0,0:0:0:0:
113,365,88801,2,0,L|49:373,1,51.0000009727478,8|0,0:0|0:0,0:0:0:0:
273,222,88959,6,0,P|397:248|421:328,1,204.000003890991,6|2,0:0|0:0,0:0:0:0:
300,334,89432,1,2,0:0:0:0:
28,289,89590,2,0,B|79:302|181:298|270:291|334:258|387:184|383:99|252:75|212:80|136:96|61:118|-28:165|-67:98|-44:13|60:-33|141:-39|238:-23,1,924.000028198243,8|2,0:0|0:0,0:0:0:0:
394,62,90853,2,0,P|347:170|265:196,1,204.000003890991,8|2,0:0|0:0,0:0:0:0:
150,201,91327,1,0,0:0:0:0:
397,288,91485,6,0,L|283:296,1,102.000001945496,2|0,0:0|0:0,0:0:0:0:
450,362,91801,1,0,0:0:0:0:
197,290,91959,1,2,0:0:0:0:
333,225,92116,2,0,P|337:173|293:126,1,102.000001945496,8|2,0:0|0:0,0:0:0:0:
34,89,92432,1,2,0:0:0:0:
322,36,92590,6,0,P|195:14|102:23,1,204.000003890991,6|2,0:0|0:0,0:0:0:0:
380,146,93064,1,2,0:0:0:0:
254,180,93222,2,0,L|240:231,1,51.0000009727478,2|2,0:0|0:0,0:0:0:0:
426,268,93380,2,0,L|440:370,1,102.000001945496,10|2,0:0|0:0,0:0:0:0:
153,357,93695,1,10,0:0:0:0:
303,344,93853,1,2,0:0:0:0:
15,296,94011,6,0,P|48:231|134:197,1,153.000002918243,6|0,0:0|0:0,0:0:0:0:
192,166,94327,2,0,L|67:144,1,102.000001945496,2|2,0:0|0:0,0:0:0:0:
338,104,94643,1,8,0:0:0:0:
213,51,94801,1,0,0:0:0:0:
73,44,94959,1,0,0:0:0:0:
354,35,95116,6,0,P|414:97|314:155,1,204.000003890991,6|2,0:0|0:0,0:0:0:0:
477,245,95590,1,0,0:0:0:0:
346,315,95748,1,2,0:0:0:0:
101,368,95906,1,8,0:0:0:0:
215,313,96064,1,0,0:0:0:0:
346,315,96222,1,10,0:0:0:0:
58,240,96380,1,2,0:0:0:0:
356,157,96537,6,0,P|294:112|198:112,1,153.000002918243,6|0,0:0|0:0,0:0:0:0:
156,211,96853,2,0,P|199:219|267:184,1,102.000001945496,2|2,0:0|0:0,0:0:0:0:
485,57,97169,1,8,0:0:0:0:
334,26,97327,1,8,0:0:0:0:
488,36,97485,1,8,0:0:0:0:
170,163,97643,6,0,P|245:191|332:192,1,153.000002918243,6|0,0:0|0:0,0:0:0:0:
240,217,97959,2,0,L|129:222,1,102.000001945496,8|2,0:0|0:0,0:0:0:0:
296,282,98274,1,0,0:0:0:0:
45,338,98432,1,10,0:0:0:0:
127,304,98537,1,8,0:0:0:0:
45,338,98643,1,8,0:0:0:0:
227,352,98748,1,2,0:0:0:0:
309,376,98853,1,2,0:0:0:0:
227,352,98959,1,2,0:0:0:0:
440,326,99064,6,0,P|450:220|437:328,1,420,6|0,0:0|0:0,0:0:0:0:
185,57,100327,2,0,P|265:30|385:17,1,180,4|0,0:0|0:0,0:0:0:0:
109,84,100959,2,0,P|56:109|35:238,1,180,4|0,0:0|0:0,0:0:0:0:
354,304,101590,5,4,0:0:0:0:
256,192,101669,12,0,103485,0:0:0:0:
462,318,104116,6,0,L|479:215,1,102.000001945496,6|0,0:0|0:0,0:0:0:0:
318,181,104432,2,0,L|300:67,1,102.000001945496,2|2,0:0|0:0,0:0:0:0:
470,38,104748,1,8,0:0:0:0:
340,7,104906,1,0,0:0:0:0:
472,54,105064,1,2,0:0:0:0:
215,108,105222,6,0,P|302:174|394:169,1,204.000003890991,6|0,0:0|0:0,0:0:0:0:
264,198,105695,1,0,0:0:0:0:
393,264,105853,1,0,0:0:0:0:
217,293,106011,2,0,P|320:306|428:366,1,204.000003890991,8|0,0:0|0:0,0:0:0:0:
304,334,106485,1,2,0:0:0:0:
23,325,106643,6,0,L|31:203,1,102.000001945496,6|0,0:0|0:0,0:0:0:0:
186,163,106959,2,0,L|205:50,1,102.000001945496,2|2,0:0|0:0,0:0:0:0:
439,28,107274,1,8,0:0:0:0:
298,11,107432,1,8,0:0:0:0:
447,63,107590,1,8,0:0:0:0:
102,137,107748,6,0,P|177:226|279:239,1,204.000003890991,6|8,0:0|0:0,0:0:0:0:
163,289,108222,1,2,0:0:0:0:
55,309,108380,1,0,0:0:0:0:
297,348,108537,1,8,0:0:0:0:
403,364,108694,1,0,0:0:0:0:
141,275,108853,1,8,0:0:0:0:
35,291,109010,1,8,0:0:0:0:
332,224,109169,5,6,0:0:0:0:
207,197,109327,1,0,0:0:0:0:
330,147,109485,1,2,0:0:0:0:
465,126,109643,1,2,0:0:0:0:
277,58,109801,2,0,P|409:58|468:120,1,204.000003890991,8|2,0:0|0:0,0:0:0:0:
197,172,110274,6,0,P|80:199|8:275,1,204.000003890991,6|8,0:0|0:0,0:0:0:0:
143,308,110748,1,2,0:0:0:0:
23,359,110906,1,0,0:0:0:0:
268,347,111064,2,0,L|292:235,1,102.000001945496,8|2,0:0|0:0,0:0:0:0:
95,180,111380,2,0,L|208:171,1,102.000001945496
485,160,111695,6,0,L|452:384,1,204.000003890991,12|2,0:0|0:0,0:0:0:0:
356,370,112169,1,2,0:0:0:0:
120,346,112327,1,8,0:0:0:0:
230,295,112485,1,0,0:0:0:0:
352,280,112643,1,2,0:0:0:0:
92,223,112801,6,0,L|62:112,1,102.000001945496,6|0,0:0|0:0,0:0:0:0:
220,97,113116,1,8,0:0:0:0:
34,99,113274,2,0,L|68:-4,1,102.000001945496,2|0,0:0|0:0,0:0:0:0:
304,187,113590,2,0,L|187:200,1,102.000001945496,8|0,0:0|0:0,0:0:0:0:
346,261,113906,1,8,0:0:0:0:
89,313,114064,2,0,L|106:364,1,51.0000009727478,8|0,0:0|0:0,0:0:0:0:
288,342,114222,6,0,P|381:342|442:243,1,204.000003890991,6|2,0:0|0:0,0:0:0:0:
325,222,114695,1,2,0:0:0:0:
72,179,114853,1,8,0:0:0:0:
201,131,115011,1,0,0:0:0:0:
65,84,115169,1,2,0:0:0:0:
326,69,115327,6,0,P|231:18|133:21,1,204.000003890991,6|0,0:0|0:0,0:0:0:0:
256,0,115801,1,2,0:0:0:0:
392,8,115959,1,0,0:0:0:0:
141,91,116116,1,8,0:0:0:0:
288,119,116274,1,0,0:0:0:0:
163,226,116432,1,0,0:0:0:0:
29,272,116590,1,2,0:0:0:0:
421,371,116748,6,0,L|457:255,1,102.000001945496,6|0,0:0|0:0,0:0:0:0:
233,186,117064,2,0,L|194:291,1,102.000001945496,2|2,0:0|0:0,0:0:0:0:
375,180,117380,1,10,0:0:0:0:
100,61,117537,1,2,0:0:0:0:
117,111,117615,1,0,0:0:0:0:
166,143,117694,1,2,0:0:0:0:
454,122,117853,6,0,P|338:106|276:168,1,204.000003890991,6|8,0:0|0:0,0:0:0:0:
437,207,118327,1,2,0:0:0:0:
283,286,118485,1,0,0:0:0:0:
43,337,118643,1,8,0:0:0:0:
160,353,118801,1,0,0:0:0:0:
467,29,118959,1,8,0:0:0:0:
350,13,119117,1,8,0:0:0:0:
15,251,119274,6,0,P|161:208|239:211,1,204.000003890991,6|2,0:0|0:0,0:0:0:0:
56,148,119748,1,2,0:0:0:0:
325,93,119906,1,8,0:0:0:0:
197,53,120064,1,0,0:0:0:0:
67,46,120222,1,2,0:0:0:0:
419,210,120380,6,0,P|291:242|230:298,1,204.000003890991,6|0,0:0|0:0,0:0:0:0:
403,339,120853,1,2,0:0:0:0:
232,369,121011,2,0,L|173:357,1,51.0000009727478,2|2,0:0|0:0,0:0:0:0:
383,253,121169,1,8,0:0:0:0:
250,185,121327,1,2,0:0:0:0:
201,170,121405,1,0,0:0:0:0:
150,165,121484,1,2,0:0:0:0:
324,120,121643,1,0,0:0:0:0:
48,89,121801,6,0,P|76:26|221:-2,1,204.000003890991,4|8,0:0|0:0,0:0:0:0:
445,151,122274,1,4,0:0:0:0:
175,236,122432,1,2,0:0:0:0:
332,281,122590,1,2,0:0:0:0:
41,362,122748,6,0,P|15:280|44:211,1,136.000002593994,12|0,0:0|0:0,0:0:0:0:
265,151,123064,1,6,0:0:0:0:
106,102,123274,1,2,0:0:0:0:
328,41,123380,1,2,0:0:0:0:
402,12,123485,1,2,0:0:0:0:
476,10,123590,1,2,0:0:0:0:
293,216,123695,5,8,0:0:0:0:
203,239,123800,1,2,0:0:0:0:
293,216,123905,1,2,0:0:0:0:
109,342,124011,1,10,0:0:0:0:
24,290,124116,1,2,0:0:0:0:
105,224,124221,1,2,0:0:0:0:
337,288,124327,5,6,0:0:0:0:
256,192,124406,12,4,134274,0:0:0:0:
