osu file format v14

[General]
AudioFilename: audio.mp3
AudioLeadIn: 0
PreviewTime: 77755
Countdown: 0
SampleSet: Soft
StackLeniency: 0.7
Mode: 2
LetterboxInBreaks: 0
WidescreenStoryboard: 1

[Editor]
DistanceSpacing: 3
BeatDivisor: 4
GridSize: 32
TimelineZoom: 3.099999

[Metadata]
Title:Towa ni Saku Hana (Short Ver.)
TitleUnicode:永遠に咲く花 (Short Ver.)
Artist:AiRI
ArtistUnicode:AiRI
Creator:Jemzuu
Version:Salad
Source:枯れない世界と終わる花
Tags:ajamez yugu karenai sekai to owaru hana the rainbow appears after flowering rain sweet & tea galgame visual novel eroge opening
BeatmapID:2009277
BeatmapSetID:958431

[Difficulty]
HPDrainRate:4
CircleSize:3.5
OverallDifficulty:6.6
ApproachRate:6.6
SliderMultiplier:1.8
SliderTickRate:1

[Events]
//Background and Video events
0,0,"hanaa.jpg",0,0
//Break Periods
//Storyboard Layer 0 (Background)
//Storyboard Layer 1 (Fail)
//Storyboard Layer 2 (Pass)
//Storyboard Layer 3 (Foreground)
//Storyboard Layer 4 (Overlay)
//Storyboard Sound Samples

[TimingPoints]
538,631.578947368421,4,2,1,30,1,0
3064,-100,4,2,1,30,0,0
4011,-100,4,2,1,30,0,0
5590,-100,4,2,1,30,0,0
8116,-100,4,2,1,30,0,0
9064,-100,4,2,1,30,0,0
10643,-100,4,2,1,50,0,0
13169,-100,4,2,1,50,0,0
14116,-100,4,2,1,50,0,0
15695,-100,4,2,1,50,0,0
18222,-100,4,2,1,50,0,0
19169,-100,4,2,1,50,0,0
20748,-100,4,2,1,60,0,0
24222,-100,4,2,1,60,0,0
25169,-100,4,2,1,60,0,0
25801,-100,4,2,1,60,0,0
26748,-100,4,2,1,60,0,0
28011,-100,4,2,1,60,0,0
29274,-100,4,2,1,60,0,0
29906,-100,4,2,1,60,0,0
34327,-100,4,2,1,60,0,0
35116,-100,4,2,1,60,0,0
35906,-100,4,2,1,60,0,0
37169,-100,4,2,1,60,0,0
38432,-100,4,2,1,60,0,0
39695,-100,4,2,2,60,0,0
40959,-83.3333333333333,4,2,2,60,0,0
43485,-83.3333333333333,4,2,2,60,0,0
43959,-83.3333333333333,4,2,2,60,0,0
44432,-83.3333333333333,4,2,2,60,0,0
45380,-83.3333333333333,4,2,2,60,0,0
46011,-83.3333333333333,4,2,2,60,0,0
46880,-83.3333333333333,4,2,2,5,0,0
46959,-83.3333333333333,4,2,2,60,0,0
47511,-83.3333333333333,4,2,2,5,0,0
47590,-83.3333333333333,4,2,2,60,0,0
48538,-83.3333333333333,4,2,2,60,0,0
49011,-83.3333333333333,4,2,2,60,0,0
49485,-83.3333333333333,4,2,2,60,0,0
51064,-83.3333333333333,4,2,2,60,0,0
53590,-83.3333333333333,4,2,2,60,0,0
54064,-83.3333333333333,4,2,2,60,0,0
54538,-83.3333333333333,4,2,2,60,0,0
55485,-83.3333333333333,4,2,2,60,0,0
56116,-83.3333333333333,4,2,2,70,0,0
56748,-83.3333333333333,4,2,2,70,0,0
57222,-83.3333333333333,4,2,2,70,0,0
58011,-83.3333333333333,4,2,2,70,0,0
58327,-83.3333333333333,4,2,2,70,0,0
59274,-83.3333333333333,4,2,2,70,0,0
59748,-83.3333333333333,4,2,2,70,0,0
61169,-100,4,2,2,70,0,0
63064,-100,4,2,2,50,0,0
63695,-100,4,2,2,50,0,0
66222,-100,4,2,2,60,0,0
68432,-100,4,2,2,60,0,0
68748,-100,4,2,2,60,0,0
71274,-83.3333333333333,4,2,2,60,0,0
71511,-83.3333333333333,4,2,2,5,0,0
71590,-83.3333333333333,4,2,2,60,0,0
71827,-83.3333333333333,4,2,2,5,0,0
71906,-83.3333333333333,4,2,2,60,0,0
73801,-71.4285714285714,4,2,2,80,0,0
74353,-100,4,2,2,5,0,0
74432,-83.3333333333333,4,2,2,80,0,0
76011,-71.4285714285714,4,2,2,80,0,0
77432,-100,4,2,2,80,0,0
77472,-100,4,2,2,15,0,0
77511,-100,4,2,2,15,0,0
77551,-100,4,2,2,17,0,0
77590,-100,4,2,2,23,0,0
77630,-100,4,2,2,29,0,0
77669,-100,4,2,2,35,0,0
77709,-100,4,2,2,41,0,0
77748,-100,4,2,2,47,0,0
77787,-100,4,2,2,53,0,0
77827,-100,4,2,2,59,0,0
77866,-100,4,2,2,65,0,0
77906,-100,4,2,2,71,0,0
77945,-100,4,2,2,77,0,0
77985,-100,4,2,2,83,0,0
78024,-100,4,2,2,89,0,0
78064,-100,4,2,2,95,0,0
78103,-100,4,2,2,100,0,0
78143,-100,4,2,2,50,0,0
78182,-100,4,2,2,20,0,0
78222,-100,4,2,2,60,0,0
78853,-66.6666666666667,4,2,2,90,0,1
79090,-66.6666666666667,4,2,2,5,0,1
79169,-66.6666666666667,4,2,2,90,0,1
80985,-66.6666666666667,4,2,2,5,0,1
81064,-66.6666666666667,4,2,2,90,0,1
82485,-66.6666666666667,4,2,2,90,0,1
84143,-66.6666666666667,4,2,2,5,0,1
84222,-66.6666666666667,4,2,2,90,0,1
86669,-66.6666666666667,4,2,2,5,0,1
86748,-66.6666666666667,4,2,2,90,0,1
86985,-66.6666666666667,4,2,2,5,0,1
87064,-66.6666666666667,4,2,2,90,0,1
88248,-66.6666666666667,4,2,2,5,0,1
88327,-66.6666666666667,4,2,2,90,0,1
89590,-52.6315789473684,4,2,2,90,0,1
89669,-52.6315789473684,4,2,2,5,0,1
90064,-66.6666666666667,4,2,2,40,0,1
90222,-66.6666666666667,4,2,2,40,0,1
90695,-66.6666666666667,4,2,2,80,0,1
90853,-66.6666666666667,4,2,2,90,0,1
94248,-66.6666666666667,4,2,2,5,0,1
94327,-66.6666666666667,4,2,2,90,0,1
96774,-66.6666666666667,4,2,2,5,0,1
96853,-66.6666666666667,4,2,2,90,0,1
97880,-66.6666666666667,4,2,2,5,0,1
97959,-66.6666666666667,4,2,2,90,0,1
98432,-66.6666666666667,4,2,2,80,0,1
98748,-66.6666666666667,4,2,2,70,0,1
99064,-100,4,2,2,60,0,0
99143,-100,4,2,2,5,0,0
100169,-100,4,2,2,50,0,0
100327,-100,4,2,2,80,0,0
100643,-100,4,2,2,80,0,0
101274,-100,4,2,2,80,0,0
101590,-66.6666666666667,4,2,2,90,0,0
101748,-66.6666666666667,4,2,2,60,0,0
102222,-66.6666666666667,4,2,2,50,0,0
102537,-66.6666666666667,4,2,2,35,0,0
102853,-66.6666666666667,4,2,2,25,0,0
103169,-66.6666666666667,4,2,2,10,0,0
103485,-100,4,2,2,5,0,0
103801,-100,4,2,2,60,0,0
104116,-58.8235294117647,4,2,2,90,0,1
122274,-58.8235294117647,4,2,2,90,0,1
122748,-58.8235294117647,4,2,2,90,0,1
124327,-100,4,2,2,90,0,0
124485,-100,4,2,2,60,0,0
125590,-100,4,2,2,50,0,0
126222,-100,4,2,2,45,0,0
126853,-100,4,2,2,40,0,0
127485,-100,4,2,2,35,0,0
128116,-100,4,2,2,30,0,0
129380,-100,4,2,2,25,0,0
130643,-100,4,2,2,20,0,0
131906,-100,4,2,2,15,0,0
133169,-100,4,2,2,10,0,0
134274,-100,4,2,2,5,0,0

[Colours]
Combo1 : 210,210,210
Combo2 : 94,174,255
Combo3 : 255,151,255

[HitObjects]
366,243,538,6,0,L|464:226,2,90,2|0|0,0:0|0:0|0:0,0:0:0:0:
236,179,1485,2,0,L|138:162,2,90,2|0|0,0:0|0:0|0:0,0:0:0:0:
39,273,3064,2,0,L|63:144,1,90,2|0,0:0|0:0,0:0:0:0:
103,160,3538,2,0,L|163:148,1,45,2|0,0:0|0:0,0:0:0:0:
303,85,4011,6,0,L|181:59,2,90,2|0|0,0:0|0:0|0:0,0:0:0:0:
422,113,4959,1,0,0:0:0:0:
204,177,5590,6,0,L|81:183,1,90,2|0,0:0|0:0,0:0:0:0:
204,266,6222,1,0,0:0:0:0:
298,356,6538,2,0,L|201:349,2,90,2|0|0,0:0|0:0|0:0,0:0:0:0:
489,341,8116,2,0,P|465:256|446:237,1,90,2|0,0:0|0:0,0:0:0:0:
413,237,8590,2,0,L|358:230,1,45,2|0,0:0|0:0,0:0:0:0:
220,159,9064,6,0,L|112:140,2,90,2|0|0,0:0|0:0|0:0,0:0:0:0:
385,138,10011,1,0,0:0:0:0:
424,103,10168,1,0,0:0:0:0:
433,52,10326,1,0,0:0:0:0:
179,23,10643,6,0,L|87:13,2,90,2|0|8,0:0|0:0|0:0,0:0:0:0:
57,112,11590,2,0,L|43:208,1,90,2|0,0:0|0:0,0:0:0:0:
194,229,12222,2,0,L|225:356,1,90,8|0,0:0|0:0,0:0:0:0:
475,348,13169,2,0,P|458:293|411:247,1,90,2|0,0:0|0:0,0:0:0:0:
390,242,13643,2,0,L|331:227,1,45,2|0,0:0|0:0,0:0:0:0:
200,133,14116,6,0,L|306:118,2,90,2|0|0,0:0|0:0|0:0,0:0:0:0:
93,179,15064,2,0,L|98:289,1,90,8|0,0:0|0:0,0:0:0:0:
241,315,15695,2,0,L|340:315,2,90,2|0|8,0:0|0:0|0:0,0:0:0:0:
386,357,16643,6,0,L|371:248,1,90,2|0,0:0|0:0,0:0:0:0:
226,214,17274,2,0,L|238:111,1,90,8|0,0:0|0:0,0:0:0:0:
482,66,18222,6,0,L|377:49,1,90,2|0,0:0|0:0,0:0:0:0:
335,60,18695,1,2,0:0:0:0:
312,113,18853,1,0,0:0:0:0:
341,162,19011,1,0,0:0:0:0:
399,165,19169,1,2,0:0:0:0:
208,194,19801,2,0,L|188:248,1,45,0|0,0:0|0:0,0:0:0:0:
259,263,20116,2,0,L|276:314,1,45,10|0,0:0|0:0,0:0:0:0:
72,377,20748,6,0,L|18:276,1,90,2|0,0:0|0:0,0:0:0:0:
125,201,21380,1,8,0:0:0:0:
383,181,21695,6,0,L|233:154,1,135,2|8,0:0|0:0,0:0:0:0:
451,42,22643,2,0,L|457:159,1,90,8|0,0:0|0:0,0:0:0:0:
332,168,23274,2,0,L|310:296,1,90,2|0,0:0|0:0,0:0:0:0:
366,282,23748,2,0,L|433:286,1,45,2|0,0:0|0:0,0:0:0:0:
268,344,24222,6,0,L|112:346,1,135,2|0,0:0|0:0,0:0:0:0:
347,263,25169,2,0,L|251:250,1,90,0|0,0:0|0:0,0:0:0:0:
108,219,25801,2,0,P|142:176|242:153,1,135,2|0,0:0|0:0,0:0:0:0:
265,146,26432,1,8,0:0:0:0:
101,73,26748,6,0,L|240:41,2,135,2|0|8,0:0|0:0|0:0,0:0:0:0:
246,197,28011,2,0,L|295:198,1,45,8|0,0:0|0:0,0:0:0:0:
244,279,28327,6,0,L|126:288,1,90,2|0,0:0|0:0,0:0:0:0:
109,285,28801,2,0,L|154:285,1,45,2|0,0:0|0:0,0:0:0:0:
310,361,29274,6,0,L|157:378,1,135,2|8,0:0|0:0,0:0:0:0:
200,338,29905,1,0,0:0:0:0:
236,312,30063,1,0,0:0:0:0:
280,302,30221,1,8,0:0:0:0:
447,278,30695,1,8,0:0:0:0:
379,249,30853,6,0,L|271:215,2,90,2|0|8,0:0|0:0|0:0,0:0:0:0:
118,95,31801,2,0,L|251:68,2,135,2|8|8,0:0|0:0|0:0,0:0:0:0:
272,190,33064,2,0,L|342:195,1,45,0|0,0:0|0:0,0:0:0:0:
368,202,33380,6,0,P|428:219|471:295,1,135,2|2,0:0|0:0,0:0:0:0:
306,355,34327,2,0,L|272:211,1,135,2|0,0:0|0:0,0:0:0:0:
191,194,34959,2,0,L|104:182,1,45,0|0,0:0|0:0,0:0:0:0:
214,115,35274,2,0,L|339:100,1,90,8|0,0:0|0:0,0:0:0:0:
18,84,35906,6,0,P|59:130|148:135,1,135,2|0,0:0|0:0,0:0:0:0:
181,140,36538,2,0,L|204:238,1,90,8|0,0:0|0:0,0:0:0:0:
341,248,37169,2,0,P|329:314|238:350,1,135,2|2,0:0|0:0,0:0:0:0:
221,354,37801,2,0,L|121:346,1,90,8|2,0:0|0:0,0:0:0:0:
408,325,38432,6,0,P|455:278|400:179,1,180,2|0,0:0|0:0,0:0:0:0:
69,138,40011,2,0,L|55:243,1,90,6|8,0:0|0:0,0:0:0:0:
104,246,40485,1,2,0:0:0:0:
446,344,40959,6,0,P|433:263|350:209,1,161.999995056153,4|2,0:0|0:0,0:0:0:0:
204,163,41906,1,0,0:0:0:0:
258,131,42064,2,0,L|414:95,1,107.999996704102,0|0,0:0|0:0,0:0:0:0:
426,100,42538,1,2,0:0:0:0:
294,40,42853,1,8,0:0:0:0:
161,93,43169,2,0,L|108:109,1,53.9999983520508,0|0,0:0|0:0,0:0:0:0:
53,141,43485,6,0,P|116:182|233:192,1,161.999995056153,2|8,0:0|0:0,0:0:0:0:
19,280,44432,2,0,L|30:397,1,107.999996704102,2|0,0:0|0:0,0:0:0:0:
143,360,45064,1,2,0:0:0:0:
299,272,45380,2,0,P|243:220|168:217,1,107.999996704102,8|0,0:0|0:0,0:0:0:0:
153,204,45853,1,0,0:0:0:0:
312,151,46011,6,0,P|409:100|461:101,1,161.999995056153,2|2,0:0|0:0,0:0:0:0:
406,79,46643,1,0,0:0:0:0:
259,41,46959,2,0,L|386:27,1,107.999996704102,0|0,0:0|0:0,0:0:0:0:
246,146,47590,2,0,L|125:139,2,107.999996704102,2|8|0,0:0|0:0|0:0,0:0:0:0:
303,154,48380,1,0,0:0:0:0:
150,232,48538,6,0,P|85:239|44:333,1,161.999995056153,2|8,0:0|0:0,0:0:0:0:
206,362,49485,2,0,L|232:244,1,107.999996704102,2|0,0:0|0:0,0:0:0:0:
367,226,50116,2,0,L|352:169,1,53.9999983520508,2|0,0:0|0:0,0:0:0:0:
306,147,50432,2,0,L|192:128,1,107.999996704102,8|0,0:0|0:0,0:0:0:0:
493,94,51064,6,0,L|305:29,1,161.999995056153,6|2,0:0|0:0,0:0:0:0:
314,78,51695,1,0,0:0:0:0:
463,178,52011,2,0,L|482:306,1,107.999996704102,0|0,0:0|0:0,0:0:0:0:
346,344,52643,2,0,L|281:343,1,53.9999983520508,2|0,0:0|0:0,0:0:0:0:
232,334,52959,2,0,P|263:276|299:249,1,107.999996704102,8|0,0:0|0:0,0:0:0:0:
461,165,53590,2,0,L|313:69,1,161.999995056153,2|8,0:0|0:0,0:0:0:0:
145,47,54538,5,0,0:0:0:0:
263,14,54853,1,0,0:0:0:0:
396,57,55169,1,0,0:0:0:0:
148,144,55485,2,0,P|105:179|120:229,1,107.999996704102,8|0,0:0|0:0,0:0:0:0:
177,219,55959,1,0,0:0:0:0:
345,292,56116,6,0,P|415:280|455:249,1,107.999996704102,2|0,0:0|0:0,0:0:0:0:
394,229,56590,1,0,0:0:0:0:
334,226,56748,1,8,0:0:0:0:
156,184,57064,1,0,0:0:0:0:
212,161,57222,2,0,L|386:118,1,161.999995056153,2|2,0:0|0:0,0:0:0:0:
202,69,58011,1,8,0:0:0:0:
251,48,58168,1,2,0:0:0:0:
304,38,58326,1,0,0:0:0:0:
30,115,58643,6,0,P|85:186|199:207,1,161.999995056153,2|2,0:0|0:0,0:0:0:0:
209,211,59274,2,0,P|288:235|318:284,1,107.999996704102,8|0,0:0|0:0,0:0:0:0:
126,333,59748,2,0,L|107:160,1,161.999995056153,4|0,0:0|0:0,0:0:0:0:
169,149,60380,1,0,0:0:0:0:
236,120,60538,1,8,0:0:0:0:
166,81,60695,1,2,0:0:0:0:
97,67,60853,2,0,L|151:61,1,53.9999983520508,2|2,0:0|0:0,0:0:0:0:
342,49,61169,5,6,0:0:0:0:
256,192,61485,12,2,63064,0:2:0:0:
29,220,63695,6,0,P|61:128|150:83,1,180,2|0,0:2|0:0,0:0:0:0:
317,40,64959,2,0,L|191:20,1,90,2|2,0:2|0:0,0:0:0:0:
274,71,65432,1,0,0:0:0:0:
334,82,65590,1,2,0:0:0:0:
468,102,65906,1,2,0:0:0:0:
202,178,66222,6,0,L|181:327,1,135,4|0,0:0|0:0,0:0:0:0:
238,326,66853,2,0,L|335:328,1,90,2|0,0:0|0:0,0:0:0:0:
272,364,67327,2,0,L|141:360,1,90,0|0,0:0|0:0,0:0:0:0:
26,295,67959,1,0,0:0:0:0:
76,276,68116,2,0,L|196:263,1,90,2|0,0:0|0:0,0:0:0:0:
310,228,68748,6,0,L|324:130,1,90,0|0,0:0|0:0,0:0:0:0:
170,84,69380,2,0,L|114:73,2,45,2|0|0,0:0|0:0|0:0,0:0:0:0:
225,80,69853,2,0,P|279:82|355:20,1,135,0|0,0:0|0:0,0:0:0:0:
169,11,70643,2,0,L|68:11,1,90,2|0,0:0|0:0,0:0:0:0:
370,127,71274,6,0,L|393:250,1,107.999996704102,2|0,0:0|0:0,0:0:0:0:
212,243,71906,2,0,L|182:374,1,107.999996704102,2|0,0:0|0:0,0:0:0:0:
248,356,72380,1,2,0:0:0:0:
305,352,72537,2,0,P|412:335|439:305,1,107.999996704102,2|0,0:0|0:0,0:0:0:0:
239,248,73169,2,0,P|346:265|373:295,1,107.999996704102,2|0,0:0|0:0,0:0:0:0:
40,286,73801,6,0,P|65:203|204:117,1,251.999992309571,6|8,0:0|0:0,0:0:0:0:
49,95,74748,1,8,0:0:0:0:
199,28,75064,2,0,L|313:25,1,107.999996704102,8|8,0:0|0:0,0:0:0:0:
371,32,75537,1,8,0:0:0:0:
307,98,75695,2,0,L|247:100,1,53.9999983520508,8|8,0:0|0:0,0:0:0:0:
326,178,76011,1,8,0:0:0:0:
74,212,76327,6,0,L|87:352,1,125.999996154785,4|8,0:0|0:0,0:0:0:0:
230,368,76801,2,0,L|253:237,1,125.999996154785,4|8,0:0|0:0,0:0:0:0:
74,212,77274,1,4,0:0:0:0:
256,192,77590,12,2,78222,3:2:0:0:
429,252,78853,6,0,P|379:182|300:148,1,135.000005149842,4|2,0:0|0:0,0:0:0:0:
273,149,79327,1,2,0:0:0:0:
211,153,79485,1,8,0:0:0:0:
375,68,79801,1,0,0:0:0:0:
310,51,79959,2,0,L|159:37,1,135.000005149842,2|2,0:0|0:0,0:0:0:0:
243,78,80432,1,0,0:0:0:0:
83,111,80748,2,0,P|58:173|74:258,1,135.000005149842,8|0,0:0|0:0,0:0:0:0:
347,297,81380,6,0,P|265:314|224:349,1,135.000005149842,2|2,0:0|0:0,0:0:0:0:
290,366,81853,1,2,0:0:0:0:
350,358,82011,1,8,0:0:0:0:
295,315,82169,1,0,0:0:0:0:
48,300,82485,6,0,P|57:217|106:148,1,135.000005149842,2|2,0:0|0:0,0:0:0:0:
137,146,82959,1,0,0:0:0:0:
297,110,83274,1,8,0:0:0:0:
238,77,83431,1,2,0:0:0:0:
172,64,83589,1,10,0:0:0:0:
446,111,83906,6,0,P|416:186|298:236,1,202.500007724762,6|2,0:0|0:0,0:0:0:0:
252,235,84537,1,8,0:0:0:0:
415,258,84853,1,0,0:0:0:0:
474,275,85011,2,0,P|462:352|350:378,1,202.500007724762,2|0,0:0|0:0,0:0:0:0:
314,336,85643,1,2,0:0:0:0:
398,317,85801,2,0,L|427:238,1,67.5000025749208,8|8,0:0|0:0,0:0:0:0:
339,216,86116,1,2,0:0:0:0:
56,136,86432,6,0,L|223:114,2,135.000005149842,6|2|8,0:0|0:0|0:0,0:0:0:0:
27,193,87221,1,8,0:0:0:0:
63,246,87379,1,8,0:0:0:0:
235,298,87537,2,0,P|242:217|194:191,1,135.000005149842,6|8,0:0|0:0,0:0:0:0:
142,185,88011,1,2,0:0:0:0:
296,120,88327,2,0,L|148:91,1,135.000005149842,12|8,0:0|0:0,0:0:0:0:
240,75,88801,1,8,0:0:0:0:
409,72,88959,6,0,P|462:123|468:213,1,135.000005149842,6|2,0:0|0:0,0:0:0:0:
200,165,89590,2,0,P|46:306|235:185,1,683.99998173523,8|8,0:0|0:0,0:0:0:0:
81,160,91169,2,0,L|97:93,1,67.5000025749208,2|0,0:0|0:0,0:0:0:0:
162,76,91485,2,0,P|227:58|297:-10,1,135.000005149842,2|0,0:0|0:0,0:0:0:0:
119,8,92116,2,0,L|25:4,1,67.5000025749208,8|2,0:0|0:0,0:0:0:0:
336,95,92590,6,0,P|339:148|226:235,1,202.500007724762,6|2,0:0|0:0,0:0:0:0:
167,243,93222,1,2,0:0:0:0:
235,286,93380,2,0,L|332:301,1,67.5000025749208,10|2,0:0|0:0,0:0:0:0:
237,340,93695,2,0,L|147:343,1,67.5000025749208,10|2,0:0|0:0,0:0:0:0:
322,363,94011,6,0,P|423:334|443:275,2,135.000005149842,6|2|8,0:0|0:0|0:0,0:0:0:0:
398,361,94801,1,0,0:0:0:0:
472,314,94959,1,0,0:0:0:0:
312,268,95116,6,0,P|221:245|152:145,1,202.500007724762,6|0,0:0|0:0,0:0:0:0:
228,133,95748,1,2,0:0:0:0:
297,124,95906,2,0,P|373:88|383:13,1,135.000005149842,8|10,0:0|0:0,0:0:0:0:
104,71,96537,6,0,P|34:122|79:193,1,135.000005149842,6|2,0:0|0:0,0:0:0:0:
191,220,97169,1,8,0:0:0:0:
124,227,97326,1,8,0:0:0:0:
61,251,97484,1,8,0:0:0:0:
219,315,97643,6,0,P|311:291|348:163,1,202.500007724762,6|2,0:0|0:0,0:0:0:0:
209,147,98432,2,0,L|124:131,1,67.5000025749208,10|0,0:0|0:0,0:0:0:0:
220,89,98748,2,0,L|300:78,1,67.5000025749208,2|0,0:0|0:0,0:0:0:0:
106,37,99064,5,6,0:0:0:0:
61,80,100327,2,0,L|60:190,1,90,4|0,0:0|0:0,0:0:0:0:
311,206,100959,2,0,L|314:328,1,90,4|0,0:0|0:0,0:0:0:0:
51,344,101590,5,4,0:0:0:0:
256,192,101906,12,0,103485,0:0:0:0:
455,298,104116,6,0,P|406:233|318:224,1,153.000002918243,6|2,0:0|0:0,0:0:0:0:
403,188,104590,1,2,0:0:0:0:
463,172,104748,1,8,0:0:0:0:
195,109,105064,1,2,0:0:0:0:
126,115,105222,6,0,P|73:211|155:277,1,229.500004377365,6|0,0:0|0:0,0:0:0:0:
311,315,106011,2,0,P|345:236|334:155,1,153.000002918243,8|0,0:0|0:0,0:0:0:0:
270,155,106485,1,2,0:0:0:0:
112,125,106643,6,0,P|41:166|26:262,1,153.000002918243,6|2,0:0|0:0,0:0:0:0:
72,257,107116,1,2,0:0:0:0:
138,266,107274,1,8,0:0:0:0:
80,321,107432,1,8,0:0:0:0:
19,336,107590,1,8,0:0:0:0:
180,360,107748,6,0,P|266:348|311:284,1,153.000002918243,6|8,0:0|0:0,0:0:0:0:
317,247,108222,1,2,0:0:0:0:
161,211,108537,2,0,P|65:157|59:97,1,153.000002918243,8|8,0:0|0:0,0:0:0:0:
114,95,109011,1,8,0:0:0:0:
297,126,109169,6,0,P|377:99|371:1,1,153.000002918243,6|2,0:0|0:0,0:0:0:0:
321,14,109643,1,2,0:0:0:0:
244,11,109801,1,8,0:0:0:0:
491,233,110116,1,2,0:0:0:0:
414,238,110274,6,0,P|317:256|247:362,1,229.500004377365,6|2,0:0|0:0,0:0:0:0:
403,349,111064,2,0,P|406:254|363:193,1,153.000002918243,8|0,0:0|0:0,0:0:0:0:
103,158,111695,2,0,P|175:109|278:94,1,153.000002918243,12|2,0:0|0:0,0:0:0:0:
309,81,112169,2,0,L|317:-4,1,76.5000014591217,2|8,0:0|0:0,0:0:0:0:
42,80,112643,1,2,0:0:0:0:
123,106,112801,6,0,P|205:127|296:278,1,229.500004377365,6|2,0:0|0:0,0:0:0:0:
132,291,113590,1,8,0:0:0:0:
306,340,113906,2,0,L|219:361,1,76.5000014591217,8|8,0:0|0:0,0:0:0:0:
59,327,114222,6,0,P|86:244|178:203,1,153.000002918243,6|2,0:0|0:0,0:0:0:0:
208,189,114695,1,2,0:0:0:0:
284,192,114853,2,0,P|180:143|106:141,1,153.000002918243,8|2,0:0|0:0,0:0:0:0:
314,84,115327,6,0,P|396:115|458:264,1,229.500004377365,6|2,0:0|0:0,0:0:0:0:
281,282,116116,2,0,P|366:314|463:324,1,153.000002918243,8|0,0:0|0:0,0:0:0:0:
351,347,116590,1,2,0:0:0:0:
181,352,116748,6,0,L|45:270,2,153.000002918243,6|2|10,0:0|0:0|0:0,0:0:0:0:
252,330,117537,1,2,0:0:0:0:
289,265,117695,1,2,0:0:0:0:
115,228,117853,6,0,L|83:58,1,153.000002918243,6|8,0:0|0:0,0:0:0:0:
155,45,118327,1,2,0:0:0:0:
316,51,118643,2,0,P|221:82|164:153,1,153.000002918243,8|8,0:0|0:0,0:0:0:0:
266,145,119116,1,8,0:0:0:0:
437,164,119274,6,0,P|481:226|457:311,1,153.000002918243,6|2,0:0|0:0,0:0:0:0:
396,313,119748,1,2,0:0:0:0:
319,328,119906,2,0,L|478:356,1,153.000002918243,8|2,0:0|0:0,0:0:0:0:
303,229,120380,6,0,P|199:215|104:118,1,229.500004377365,6|2,0:0|0:0,0:0:0:0:
186,100,121011,1,2,0:0:0:0:
270,91,121169,2,0,P|319:178|266:232,1,153.000002918243,8|2,0:0|0:0,0:0:0:0:
21,277,121801,6,0,P|82:335|178:354,1,153.000002918243,4|8,0:0|0:0,0:0:0:0:
225,350,122274,2,0,P|145:291|77:291,1,153.000002918243,4|2,0:0|0:0,0:0:0:0:
251,256,122748,2,0,L|288:81,1,153.000002918243,12|6,0:0|0:0,0:0:0:0:
185,119,123274,1,2,0:0:0:0:
144,208,123485,1,2,0:0:0:0:
196,291,123695,1,8,0:0:0:0:
293,292,123906,1,2,0:0:0:0:
196,291,124116,1,2,0:0:0:0:
400,315,124327,5,6,0:0:0:0:
256,192,124643,12,4,134274,0:0:0:0:
