osu file format v14

[General]
AudioFilename: audio.mp3
AudioLeadIn: 0
PreviewTime: 77755
Countdown: 0
SampleSet: Soft
StackLeniency: 0.7
Mode: 2
LetterboxInBreaks: 0
WidescreenStoryboard: 1

[Editor]
DistanceSpacing: 3
BeatDivisor: 4
GridSize: 32
TimelineZoom: 3.099999

[Metadata]
Title:Towa ni Saku Hana (Short Ver.)
TitleUnicode:永遠に咲く花 (Short Ver.)
Artist:AiRI
ArtistUnicode:AiRI
Creator:Jemzuu
Version:Platter
Source:枯れない世界と終わる花
Tags:ajamez yugu karenai sekai to owaru hana the rainbow appears after flowering rain sweet & tea galgame visual novel eroge opening
BeatmapID:2009275
BeatmapSetID:958431

[Difficulty]
HPDrainRate:5
CircleSize:4
OverallDifficulty:7.7
ApproachRate:7.7
SliderMultiplier:2
SliderTickRate:2

[Events]
//Background and Video events
0,0,"hanaa.jpg",0,0
//Break Periods
//Storyboard Layer 0 (Background)
//Storyboard Layer 1 (Fail)
//Storyboard Layer 2 (Pass)
//Storyboard Layer 3 (Foreground)
//Storyboard Layer 4 (Overlay)
//Storyboard Sound Samples

[TimingPoints]
538,631.578947368421,4,2,1,30,1,0
3064,-100,4,2,1,30,0,0
4011,-100,4,2,1,30,0,0
5590,-100,4,2,1,30,0,0
8116,-100,4,2,1,30,0,0
9064,-100,4,2,1,30,0,0
10643,-100,4,2,1,50,0,0
13169,-100,4,2,1,50,0,0
14116,-100,4,2,1,50,0,0
15695,-100,4,2,1,50,0,0
18222,-100,4,2,1,50,0,0
19169,-100,4,2,1,50,0,0
20748,-100,4,2,1,60,0,0
24222,-100,4,2,1,60,0,0
25169,-100,4,2,1,60,0,0
25801,-100,4,2,1,60,0,0
26748,-100,4,2,1,60,0,0
28011,-100,4,2,1,60,0,0
29274,-100,4,2,1,60,0,0
29906,-100,4,2,1,60,0,0
34327,-100,4,2,1,60,0,0
35116,-100,4,2,1,60,0,0
35906,-100,4,2,1,60,0,0
37169,-100,4,2,1,60,0,0
38432,-100,4,2,1,60,0,0
39695,-100,4,2,2,60,0,0
40959,-83.3333333333333,4,2,2,60,0,0
43485,-83.3333333333333,4,2,2,60,0,0
43959,-83.3333333333333,4,2,2,60,0,0
44432,-83.3333333333333,4,2,2,60,0,0
45380,-83.3333333333333,4,2,2,60,0,0
46011,-83.3333333333333,4,2,2,60,0,0
46880,-83.3333333333333,4,2,2,5,0,0
46959,-83.3333333333333,4,2,2,60,0,0
47511,-83.3333333333333,4,2,2,5,0,0
47590,-83.3333333333333,4,2,2,60,0,0
48538,-83.3333333333333,4,2,2,60,0,0
49011,-83.3333333333333,4,2,2,60,0,0
49485,-83.3333333333333,4,2,2,60,0,0
51064,-83.3333333333333,4,2,2,60,0,0
53590,-83.3333333333333,4,2,2,60,0,0
54064,-83.3333333333333,4,2,2,60,0,0
54538,-83.3333333333333,4,2,2,60,0,0
55485,-83.3333333333333,4,2,2,60,0,0
56116,-83.3333333333333,4,2,2,70,0,0
56748,-83.3333333333333,4,2,2,70,0,0
57222,-83.3333333333333,4,2,2,70,0,0
58011,-83.3333333333333,4,2,2,70,0,0
58327,-83.3333333333333,4,2,2,70,0,0
59274,-83.3333333333333,4,2,2,70,0,0
59748,-83.3333333333333,4,2,2,70,0,0
61169,-100,4,2,2,70,0,0
63064,-100,4,2,2,50,0,0
63695,-100,4,2,2,50,0,0
66222,-100,4,2,2,60,0,0
68432,-100,4,2,2,60,0,0
68748,-100,4,2,2,60,0,0
71274,-83.3333333333333,4,2,2,60,0,0
71511,-83.3333333333333,4,2,2,5,0,0
71590,-83.3333333333333,4,2,2,60,0,0
71827,-83.3333333333333,4,2,2,5,0,0
71906,-83.3333333333333,4,2,2,60,0,0
73801,-71.4285714285714,4,2,2,80,0,0
74353,-100,4,2,2,5,0,0
74432,-83.3333333333333,4,2,2,80,0,0
76011,-71.4285714285714,4,2,2,80,0,0
77432,-100,4,2,2,80,0,0
77472,-100,4,2,2,15,0,0
77511,-100,4,2,2,15,0,0
77551,-100,4,2,2,17,0,0
77590,-100,4,2,2,23,0,0
77630,-100,4,2,2,29,0,0
77669,-100,4,2,2,35,0,0
77709,-100,4,2,2,41,0,0
77748,-100,4,2,2,47,0,0
77787,-100,4,2,2,53,0,0
77827,-100,4,2,2,59,0,0
77866,-100,4,2,2,65,0,0
77906,-100,4,2,2,71,0,0
77945,-100,4,2,2,77,0,0
77985,-100,4,2,2,83,0,0
78024,-100,4,2,2,89,0,0
78064,-100,4,2,2,95,0,0
78103,-100,4,2,2,100,0,0
78143,-100,4,2,2,50,0,0
78182,-100,4,2,2,20,0,0
78222,-100,4,2,2,60,0,0
78853,-66.6666666666667,4,2,2,90,0,1
79090,-66.6666666666667,4,2,2,5,0,1
79169,-66.6666666666667,4,2,2,90,0,1
80985,-66.6666666666667,4,2,2,5,0,1
81064,-66.6666666666667,4,2,2,90,0,1
82485,-66.6666666666667,4,2,2,90,0,1
84143,-66.6666666666667,4,2,2,5,0,1
84222,-66.6666666666667,4,2,2,90,0,1
86669,-66.6666666666667,4,2,2,5,0,1
86748,-66.6666666666667,4,2,2,90,0,1
86985,-66.6666666666667,4,2,2,5,0,1
87064,-66.6666666666667,4,2,2,90,0,1
88248,-66.6666666666667,4,2,2,5,0,1
88327,-66.6666666666667,4,2,2,90,0,1
89590,-52.6315789473684,4,2,2,90,0,1
89669,-52.6315789473684,4,2,2,5,0,1
90064,-66.6666666666667,4,2,2,40,0,1
90222,-66.6666666666667,4,2,2,40,0,1
90695,-66.6666666666667,4,2,2,80,0,1
90853,-66.6666666666667,4,2,2,90,0,1
94248,-66.6666666666667,4,2,2,5,0,1
94327,-66.6666666666667,4,2,2,90,0,1
96774,-66.6666666666667,4,2,2,5,0,1
96853,-66.6666666666667,4,2,2,90,0,1
97880,-66.6666666666667,4,2,2,5,0,1
97959,-66.6666666666667,4,2,2,90,0,1
98432,-58.8235294117647,4,2,2,80,0,1
98748,-66.6666666666667,4,2,2,70,0,1
99064,-100,4,2,2,60,0,0
99143,-100,4,2,2,5,0,0
100169,-100,4,2,2,50,0,0
100327,-100,4,2,2,80,0,0
100643,-100,4,2,2,80,0,0
100959,-58.8235294117647,4,2,2,80,0,0
101274,-100,4,2,2,80,0,0
101590,-66.6666666666667,4,2,2,90,0,0
101748,-66.6666666666667,4,2,2,60,0,0
102222,-66.6666666666667,4,2,2,50,0,0
102537,-66.6666666666667,4,2,2,35,0,0
102853,-66.6666666666667,4,2,2,25,0,0
103169,-66.6666666666667,4,2,2,10,0,0
103485,-100,4,2,2,5,0,0
103801,-100,4,2,2,60,0,0
104116,-58.8235294117647,4,2,2,90,0,1
122274,-58.8235294117647,4,2,2,90,0,1
122748,-58.8235294117647,4,2,2,90,0,1
124327,-100,4,2,2,90,0,0
124485,-100,4,2,2,60,0,0
125590,-100,4,2,2,50,0,0
126222,-100,4,2,2,45,0,0
126853,-100,4,2,2,40,0,0
127485,-100,4,2,2,35,0,0
128116,-100,4,2,2,30,0,0
129380,-100,4,2,2,25,0,0
130643,-100,4,2,2,20,0,0
131906,-100,4,2,2,15,0,0
133169,-100,4,2,2,10,0,0
134274,-100,4,2,2,5,0,0

[Colours]
Combo1 : 210,210,210
Combo2 : 94,174,255
Combo3 : 255,151,255

[HitObjects]
362,273,538,5,2,0:0:0:0:
406,254,695,1,0,0:0:0:0:
424,208,853,1,0,0:0:0:0:
403,164,1011,1,0,0:0:0:0:
357,148,1169,1,0,0:0:0:0:
218,131,1485,5,2,0:0:0:0:
173,112,1642,1,0,0:0:0:0:
155,66,1800,1,0,0:0:0:0:
176,22,1958,1,0,0:0:0:0:
222,6,2116,1,0,0:0:0:0:
35,163,3064,6,0,L|41:297,1,100,2|0,0:0|0:0,0:0:0:0:
114,296,3538,2,0,L|111:173,1,100,2|0,0:0|0:0,0:0:0:0:
190,180,4011,2,0,L|203:104,1,50,2|0,0:0|0:0,0:0:0:0:
125,94,4327,2,0,L|120:37,1,50,0|0,0:0|0:0,0:0:0:0:
197,21,4643,1,0,0:0:0:0:
340,32,4959,1,0,0:0:0:0:
120,188,5590,5,2,0:0:0:0:
166,201,5747,1,0,0:0:0:0:
185,245,5905,1,0,0:0:0:0:
162,288,6063,1,0,0:0:0:0:
114,296,6221,1,0,0:0:0:0:
249,256,6538,5,2,0:0:0:0:
203,269,6695,1,0,0:0:0:0:
184,313,6853,1,0,0:0:0:0:
207,356,7011,1,0,0:0:0:0:
255,364,7169,1,0,0:0:0:0:
472,344,8116,6,0,L|462:214,1,100,2|0,0:0|0:0,0:0:0:0:
381,226,8590,2,0,L|368:110,1,100,2|0,0:0|0:0,0:0:0:0:
321,118,9063,5,2,0:0:0:0:
292,79,9221,1,0,0:0:0:0:
297,30,9379,1,0,0:0:0:0:
334,0,9537,1,0,0:0:0:0:
383,1,9695,1,0,0:0:0:0:
230,70,10011,1,0,0:0:0:0:
259,109,10168,1,0,0:0:0:0:
306,125,10326,1,0,0:0:0:0:
23,182,10643,5,2,0:0:0:0:
49,224,10800,1,0,0:0:0:0:
88,255,10958,1,0,0:0:0:0:
135,271,11116,1,0,0:0:0:0:
185,271,11274,1,8,0:0:0:0:
310,252,11590,5,2,0:0:0:0:
274,216,11747,1,0,0:0:0:0:
231,191,11905,1,0,0:0:0:0:
183,178,12063,1,0,0:0:0:0:
133,177,12222,2,0,L|239:151,1,100,8|0,0:0|0:0,0:0:0:0:
474,46,13169,6,0,P|407:55|343:97,1,100,2|0,0:0|0:0,0:0:0:0:
296,120,13643,2,0,P|349:148|426:149,1,100,2|0,0:0|0:0,0:0:0:0:
470,182,14116,2,0,L|479:250,1,50,2|0,0:0|0:0,0:0:0:0:
401,263,14432,2,0,L|390:342,1,50,0|0,0:0|0:0,0:0:0:0:
470,342,14748,1,0,0:0:0:0:
325,365,15064,1,8,0:0:0:0:
54,374,15695,5,2,0:0:0:0:
95,348,15852,1,0,0:0:0:0:
108,301,16010,1,0,0:0:0:0:
83,259,16168,1,0,0:0:0:0:
36,246,16326,1,8,0:0:0:0:
182,212,16643,5,2,0:0:0:0:
223,187,16800,1,0,0:0:0:0:
229,139,16958,1,0,0:0:0:0:
196,104,17116,1,0,0:0:0:0:
148,108,17274,2,0,L|282:93,1,100,8|0,0:0|0:0,0:0:0:0:
21,69,18222,6,0,L|17:206,1,100,2|0,0:0|0:0,0:0:0:0:
92,186,18695,2,0,L|104:300,1,100,2|0,0:0|0:0,0:0:0:0:
185,312,19169,2,0,P|244:281|166:190,1,200,2|0,0:0|0:0,0:0:0:0:
114,175,19959,1,0,0:0:0:0:
33,186,20116,1,10,0:0:0:0:
336,150,20590,1,0,0:0:0:0:
397,143,20748,6,0,P|408:93|292:43,1,200,2|8,0:0|0:0,0:0:0:0:
486,133,21695,1,2,0:0:0:0:
428,153,21853,2,0,L|294:197,1,100,0|8,0:0|0:0,0:0:0:0:
179,270,22643,2,0,L|197:407,1,100,8|0,0:0|0:0,0:0:0:0:
256,369,23116,1,0,0:0:0:0:
401,335,23274,6,0,L|425:214,1,100,2|0,0:0|0:0,0:0:0:0:
328,208,23748,2,0,L|304:78,1,100,2|0,0:0|0:0,0:0:0:0:
152,40,24222,2,0,P|82:66|51:147,1,150,2|0,0:0|0:0,0:0:0:0:
120,169,24853,1,0,0:0:0:0:
264,223,25169,2,0,L|128:251,1,100,0|0,0:0|0:0,0:0:0:0:
458,294,25801,6,0,P|485:239|395:178,1,150,2|0,0:0|0:0,0:0:0:0:
361,164,26432,1,8,0:0:0:0:
101,46,26748,2,0,L|275:68,2,150,2|0|8,0:0|0:0|0:0,0:0:0:0:
289,168,28011,2,0,L|352:175,1,50,8|0,0:0|0:0,0:0:0:0:
291,229,28327,6,0,L|169:239,1,100,2|0,0:0|0:0,0:0:0:0:
253,281,28801,2,0,P|301:294|315:345,1,100,2|0,0:0|0:0,0:0:0:0:
150,366,29274,2,0,P|69:347|48:245,1,150,2|8,0:0|0:0,0:0:0:0:
109,249,29906,1,0,0:0:0:0:
270,224,30222,2,0,L|294:74,1,150,8|8,0:0|0:0,0:0:0:0:
114,30,30853,6,0,L|17:56,2,100,2|0|8,0:0|0:0|0:0,0:0:0:0:
309,159,31801,2,0,L|144:175,2,150,2|8|8,0:0|0:0|0:0,0:0:0:0:
473,174,33064,2,0,L|474:249,1,50,0|0,0:0|0:0,0:0:0:0:
320,257,33380,6,0,P|250:275|186:310,1,100,2|0,0:0|0:0,0:0:0:0:
313,326,33853,2,0,P|388:337|414:358,1,100,2|0,0:0|0:0,0:0:0:0:
228,384,34327,2,0,L|59:369,1,150,2|0,0:0|0:0,0:0:0:0:
134,311,34959,1,0,0:0:0:0:
205,284,35116,1,0,0:0:0:0:
280,268,35274,2,0,P|303:214|302:158,1,100,8|0,0:0|0:0,0:0:0:0:
28,106,35906,6,0,L|149:78,1,100,2|0,0:0|0:0,0:0:0:0:
183,62,36380,1,0,0:0:0:0:
245,59,36538,1,8,0:0:0:0:
70,13,36853,1,0,0:0:0:0:
361,8,37169,6,0,P|419:29|495:118,1,150,2|2,0:0|0:0,0:0:0:0:
415,120,37801,2,0,L|292:135,1,100,8|2,0:0|0:0,0:0:0:0:
41,178,38432,6,0,P|87:232|222:253,2,200,2|0|0,0:0|0:0|0:0,0:0:0:0:
156,129,40011,1,6,0:0:0:0:
403,131,40327,1,8,0:0:0:0:
332,149,40485,2,0,L|444:165,1,100,2|0,0:0|0:0,0:0:0:0:
147,247,40959,6,0,L|14:259,1,119.999996337891,4|0,0:0|0:0,0:0:0:0:
96,295,41432,2,0,L|223:312,1,119.999996337891,2|0,0:0|0:0,0:0:0:0:
132,367,41906,2,0,P|77:315|166:247,1,179.999994506836,0|0,0:0|0:0,0:0:0:0:
202,228,42538,1,2,0:0:0:0:
482,121,42853,2,0,L|466:268,1,119.999996337891,8|0,0:0|0:0,0:0:0:0:
401,239,43327,1,0,0:0:0:0:
251,172,43485,6,0,P|182:150|111:78,1,119.999996337891,2|0,0:0|0:0,0:0:0:0:
218,120,43959,2,0,L|347:100,1,119.999996337891,8|0,0:0|0:0,0:0:0:0:
178,33,44432,2,0,L|30:14,2,119.999996337891,2|0|2,0:0|0:0|0:0,0:0:0:0:
15,141,45380,2,0,L|29:269,1,119.999996337891,8|0,0:0|0:0,0:0:0:0:
96,284,45853,1,0,0:0:0:0:
253,300,46011,6,0,P|304:254|210:196,1,179.999994506836,2|2,0:0|0:0,0:0:0:0:
174,170,46643,1,0,0:0:0:0:
320,105,46959,2,0,L|174:93,2,119.999996337891,0|0|2,0:0|0:0|0:0,0:0:0:0:
55,160,47906,2,0,L|70:295,1,119.999996337891,8|0,0:0|0:0,0:0:0:0:
137,295,48380,1,0,0:0:0:0:
305,331,48538,6,0,P|370:313|406:248,1,119.999996337891,2|0,0:0|0:0,0:0:0:0:
314,238,49011,2,0,L|301:105,1,119.999996337891,8|0,0:0|0:0,0:0:0:0:
467,42,49485,2,0,L|478:202,1,119.999996337891,2|0,0:0|0:0,0:0:0:0:
330,250,50116,2,0,L|265:257,1,59.9999981689454,2|0,0:0|0:0,0:0:0:0:
351,326,50432,2,0,L|460:330,2,59.9999981689454,8|0|0,0:0|0:0|0:0,0:0:0:0:
45,226,51064,6,0,P|90:160|142:130,1,119.999996337891,6|0,0:0|0:0,0:0:0:0:
197,117,51538,1,2,0:0:0:0:
274,117,51695,1,0,0:0:0:0:
37,55,52011,1,0,0:0:0:0:
101,33,52169,2,0,L|261:13,1,119.999996337891,0|0,0:0|0:0,0:0:0:0:
243,82,52643,1,2,0:0:0:0:
484,212,52959,2,0,L|458:357,1,119.999996337891,8|0,0:0|0:0,0:0:0:0:
392,356,53432,1,0,0:0:0:0:
228,359,53590,6,0,P|140:354|106:349,1,119.999996337891,2|0,0:0|0:0,0:0:0:0:
182,300,54064,2,0,P|296:297|347:276,1,119.999996337891,8|0,0:0|0:0,0:0:0:0:
143,201,54538,2,0,P|68:195|22:173,2,119.999996337891,2|0|2,0:0|0:0|0:0,0:0:0:0:
434,191,55485,2,0,P|436:128|376:80,1,119.999996337891,8|0,0:0|0:0,0:0:0:0:
328,69,55959,1,0,0:0:0:0:
96,37,56116,6,0,P|37:74|28:140,1,119.999996337891,2|0,0:0|0:0,0:0:0:0:
92,157,56590,1,0,0:0:0:0:
169,177,56748,1,8,0:0:0:0:
435,246,57064,1,0,0:0:0:0:
363,259,57222,2,0,P|291:275|239:303,1,119.999996337891,2|0,0:0|0:0,0:0:0:0:
330,345,57695,1,2,0:0:0:0:
80,355,58011,5,8,0:0:0:0:
33,321,58168,1,2,0:0:0:0:
38,264,58326,1,0,0:0:0:0:
91,241,58484,1,0,0:0:0:0:
246,218,58643,6,0,P|321:191|332:113,1,119.999996337891,2|0,0:0|0:0,0:0:0:0:
255,132,59116,1,2,0:0:0:0:
397,74,59274,2,0,P|443:123|444:182,1,119.999996337891,8|0,0:0|0:0,0:0:0:0:
199,231,59748,6,0,P|109:249|26:297,1,179.999994506836,4|0,0:0|0:0,0:0:0:0:
115,336,60380,1,0,0:0:0:0:
298,346,60538,2,0,L|387:341,1,59.9999981689454,8|2,0:0|0:0,0:0:0:0:
258,232,60853,2,0,L|184:230,1,59.9999981689454,2|2,0:0|0:0,0:0:0:0:
461,277,61169,5,6,0:0:0:0:
474,173,61801,1,0,0:0:0:0:
60,143,63064,1,2,0:2:0:0:
45,47,63380,1,0,0:0:0:0:
292,37,63695,6,0,L|146:39,1,100,2|0,0:2|0:0,0:0:0:0:
347,187,64327,2,0,L|489:199,1,100,0|0,0:0|0:0,0:0:0:0:
162,329,64959,2,0,L|179:231,1,100,2|2,0:2|0:0,0:0:0:0:
242,191,65432,1,0,0:0:0:0:
314,189,65590,1,2,0:0:0:0:
468,171,65906,1,2,0:0:0:0:
79,193,66222,6,0,P|23:148|125:77,1,200,4|2,0:0|0:0,0:0:0:0:
263,50,67169,1,0,0:0:0:0:
197,38,67327,2,0,P|123:43|61:73,1,100,0|0,0:0|0:0,0:0:0:0:
292,123,68116,2,0,P|363:132|424:146,1,100,2|0,0:0|0:0,0:0:0:0:
462,174,68590,1,0,0:0:0:0:
288,229,68748,6,0,L|175:242,2,100,0|0|2,0:0|0:0|0:0,0:0:0:0:
372,267,69537,2,0,L|372:325,1,50,0|0,0:0|0:0,0:0:0:0:
286,336,69853,2,0,P|196:345|113:344,1,150,0|0,0:0|0:0,0:0:0:0:
336,260,70643,2,0,P|388:226|415:175,1,100,2|0,0:0|0:0,0:0:0:0:
341,159,71116,1,0,0:0:0:0:
174,107,71274,6,0,L|43:88,1,119.999996337891,2|0,0:0|0:0,0:0:0:0:
229,31,71906,2,0,P|126:18|92:18,1,119.999996337891,2|0,0:0|0:0,0:0:0:0:
174,107,72380,1,2,0:0:0:0:
356,158,72537,6,0,L|378:293,1,119.999996337891,2|0,0:0|0:0,0:0:0:0:
215,308,73169,1,2,0:0:0:0:
66,324,73485,1,0,0:0:0:0:
456,336,73801,6,0,P|504:268|365:182,1,279.999991455078,6|8,0:0|0:0,0:0:0:0:
211,166,74748,1,8,0:0:0:0:
37,157,75064,1,8,0:0:0:0:
313,72,75380,2,0,L|241:68,1,59.9999981689454,8|8,0:0|0:0,0:0:0:0:
205,67,75616,1,8,0:0:0:0:
156,80,75695,2,0,L|123:145,1,59.9999981689454,8|8,0:0|0:0,0:0:0:0:
277,216,76011,2,0,L|367:205,1,69.9999978637696,8|0,0:0|0:0,0:0:0:0:
104,348,76327,6,0,P|35:308|66:229,1,139.999995727539,4|8,0:0|0:0,0:0:0:0:
212,166,76801,2,0,L|58:135,1,139.999995727539,4|8,0:0|0:0,0:0:0:0:
342,87,77274,1,4,0:0:0:0:
432,111,77432,2,0,P|482:188|373:208,1,200
125,358,78222,5,2,3:2:0:0:
26,269,78537,2,0,L|98:268,1,50,0|0,0:0|0:0,0:0:0:0:
314,244,78853,6,0,P|396:191|380:130,1,150.000005722046,4|2,0:0|0:0,0:0:0:0:
312,132,79327,1,2,0:0:0:0:
154,111,79485,2,0,P|135:23|206:11,1,150.000005722046,8|0,0:0|0:0,0:0:0:0:
327,31,79959,2,0,L|337:119,1,75.0000028610231,2|0,0:0|0:0,0:0:0:0:
228,125,80274,2,0,L|210:239,1,75.0000028610231,2|0,0:0|0:0,0:0:0:0:
338,228,80590,1,2,0:0:0:0:
178,285,80748,2,0,P|89:295|6:328,1,150.000005722046,8|0,0:0|0:0,0:0:0:0:
343,358,81380,6,0,P|401:293|322:260,1,150.000005722046,2|2,0:0|0:0,0:0:0:0:
265,237,81853,1,2,0:0:0:0:
356,176,82011,1,8,0:0:0:0:
494,97,82169,2,0,L|404:81,1,75.0000028610231,0|2,0:0|0:0,0:0:0:0:
246,42,82485,6,0,P|154:78|139:149,1,150.000005722046,2|2,0:0|0:0,0:0:0:0:
235,157,82959,2,0,L|270:233,1,75.0000028610231,0|2,0:0|0:0,0:0:0:0:
104,269,83274,2,0,L|73:356,1,75.0000028610231,8|2,0:0|0:0,0:0:0:0:
224,363,83590,2,0,L|328:379,1,75.0000028610231,10|2,0:0|0:0,0:0:0:0:
57,158,83906,6,0,P|102:97|207:88,1,150.000005722046,6|0,0:0|0:0,0:0:0:0:
278,123,84380,1,2,0:0:0:0:
171,79,84537,1,8,0:0:0:0:
415,56,84853,1,0,0:0:0:0:
334,24,85011,2,0,P|250:0|125:-7,1,150.000005722046,2|2,0:0|0:0,0:0:0:0:
28,86,85643,1,2,0:0:0:0:
194,148,85801,2,0,L|283:166,1,75.0000028610231,8|8,0:0|0:0,0:0:0:0:
114,232,86116,2,0,L|20:244,1,75.0000028610231,2|0,0:0|0:0,0:0:0:0:
292,331,86432,6,0,P|397:304|429:240,1,150.000005722046,6|2,0:0|0:0,0:0:0:0:
332,244,86906,1,0,0:0:0:0:
163,186,87064,2,0,L|65:176,2,75.0000028610231,8|8|8,0:0|0:0|0:0,0:0:0:0:
389,156,87537,6,0,P|348:89|243:64,1,150.000005722046,6|8,0:0|0:0,0:0:0:0:
190,49,88011,1,2,0:0:0:0:
479,29,88327,2,0,L|475:201,1,150.000005722046,12|8,0:0|0:0,0:0:0:0:
388,209,88801,1,8,0:0:0:0:
142,236,88959,6,0,P|63:264|28:329,1,150.000005722046,6|2,0:0|0:0,0:0:0:0:
125,346,89432,1,2,0:0:0:0:
322,348,89590,2,0,B|440:352|488:298|519:224|490:137|386:91|306:185|242:168|197:124|202:60|243:-13|345:-30|409:-6|483:48,1,759.999979705811,8|8,0:0|0:0,0:0:0:0:
314,26,91169,2,0,L|222:20,1,75.0000028610231,2|0,0:0|0:0,0:0:0:0:
55,98,91485,2,0,P|48:185|114:222,1,150.000005722046,2|0,0:0|0:0,0:0:0:0:
175,234,91959,1,2,0:0:0:0:
355,246,92116,2,0,L|337:160,1,75.0000028610231,8|2,0:0|0:0,0:0:0:0:
247,148,92432,1,2,0:0:0:0:
486,121,92590,6,0,P|437:55|355:31,1,150.000005722046,6|2,0:0|0:0,0:0:0:0:
236,38,93064,2,0,L|252:115,1,75.0000028610231,2|2,0:0|0:0,0:0:0:0:
309,132,93301,1,2,0:0:0:0:
372,155,93380,2,0,L|364:261,1,75.0000028610231,10|2,0:0|0:0,0:0:0:0:
224,273,93695,1,10,0:0:0:0:
299,302,93853,1,2,0:0:0:0:
58,359,94011,6,0,P|19:307|71:242,1,150.000005722046,6|2,0:0|0:0,0:0:0:0:
148,226,94485,1,2,0:0:0:0:
321,152,94643,2,0,L|416:144,2,75.0000028610231,8|0|0,0:0|0:0|0:0,0:0:0:0:
90,107,95116,6,0,P|143:50|237:33,1,150.000005722046,6|2,0:0|0:0,0:0:0:0:
311,33,95590,1,0,0:0:0:0:
23,55,95906,2,0,L|41:238,1,150.000005722046,8|10,0:0|0:0,0:0:0:0:
125,229,96380,1,2,0:0:0:0:
357,254,96537,6,0,P|406:297|316:335,1,150.000005722046,6|2,0:0|0:0,0:0:0:0:
264,357,97011,1,2,0:0:0:0:
398,153,97169,2,0,L|295:144,1,75.0000028610231,8|8,0:0|0:0,0:0:0:0:
430,77,97485,1,8,0:0:0:0:
185,37,97643,6,0,P|97:62|65:138,1,150.000005722046,6|8,0:0|0:0,0:0:0:0:
147,154,98116,1,2,0:0:0:0:
381,310,98432,2,0,L|286:319,2,56.6666677474976,10|8|8,0:0|0:0|0:0,0:0:0:0:
460,261,98748,2,0,L|388:256,1,50.0000019073487,2|2,0:0|0:0,0:0:0:0:
110,346,99064,5,6,0:0:0:0:
483,313,100327,2,0,L|460:195,1,100,4|0,0:0|0:0,0:0:0:0:
229,135,100959,2,0,L|455:111,1,170.000003242493,4|0,0:0|0:0,0:0:0:0:
22,71,101590,5,4,0:0:0:0:
256,192,101748,12,0,103485,0:0:0:0:
51,93,104116,6,0,P|101:166|182:175,1,170.000003242493,6|2,0:0|0:0,0:0:0:0:
280,162,104590,1,2,0:0:0:0:
114,247,104748,2,0,P|35:297|68:366,1,170.000003242493,8|2,0:0|0:0,0:0:0:0:
290,349,105222,6,0,P|377:333|438:258,1,170.000003242493,6|0,0:0|0:0,0:0:0:0:
345,240,105695,1,0,0:0:0:0:
100,208,106011,2,0,L|89:25,1,170.000003242493,8|0,0:0|0:0,0:0:0:0:
175,26,106485,1,2,0:0:0:0:
418,87,106643,6,0,L|509:107,1,85.0000016212464,6|0,0:0|0:0,0:0:0:0:
411,178,106959,2,0,L|288:197,1,85.0000016212464,2|2,0:0|0:0,0:0:0:0:
488,264,107274,2,0,L|390:278,1,85.0000016212464,8|8,0:0|0:0,0:0:0:0:
311,308,107590,1,8,0:0:0:0:
75,351,107748,6,0,P|129:280|239:266,1,170.000003242493,6|8,0:0|0:0,0:0:0:0:
311,308,108222,1,2,0:0:0:0:
39,219,108537,2,0,L|66:122,1,85.0000016212464,8|0,0:0|0:0,0:0:0:0:
196,63,108853,2,0,L|88:48,1,85.0000016212464,8|8,0:0|0:0,0:0:0:0:
361,62,109169,6,0,P|450:90|475:180,1,170.000003242493,6|2,0:0|0:0,0:0:0:0:
406,186,109643,1,2,0:0:0:0:
332,200,109801,1,8,0:0:0:0:
479,270,110116,1,2,0:0:0:0:
211,297,110274,6,0,P|217:209|301:152,1,170.000003242493,6|8,0:0|0:0,0:0:0:0:
371,129,110748,1,2,0:0:0:0:
115,73,111064,2,0,L|210:60,1,85.0000016212464,8|2,0:0|0:0,0:0:0:0:
372,7,111380,2,0,L|255:-3,1,85.0000016212464,0|0,0:0|0:0,0:0:0:0:
61,156,111695,6,0,P|108:237|210:232,1,170.000003242493,12|2,0:0|0:0,0:0:0:0:
268,251,112169,1,2,0:0:0:0:
437,224,112327,2,0,P|410:137|289:119,1,170.000003242493,8|2,0:0|0:0,0:0:0:0:
61,364,112801,6,0,P|41:265|108:219,1,170.000003242493,6|8,0:0|0:0,0:0:0:0:
184,195,113274,1,2,0:0:0:0:
426,113,113590,2,0,L|331:94,1,85.0000016212464,8|0,0:0|0:0,0:0:0:0:
170,29,113906,2,0,L|273:20,1,85.0000016212464,8|8,0:0|0:0,0:0:0:0:
473,197,114222,6,0,P|428:268|337:287,1,170.000003242493,6|2,0:0|0:0,0:0:0:0:
254,281,114695,1,2,0:0:0:0:
348,288,114853,1,8,0:0:0:0:
186,345,115169,1,2,0:0:0:0:
449,255,115327,6,0,P|467:166|394:128,1,170.000003242493,6|0,0:0|0:0,0:0:0:0:
316,114,115801,1,2,0:0:0:0:
111,60,116116,2,0,L|86:148,1,85.0000016212464,8|0,0:0|0:0,0:0:0:0:
208,171,116432,2,0,L|230:294,1,85.0000016212464,0|2,0:0|0:0,0:0:0:0:
452,335,116748,6,0,P|403:262|272:235,1,170.000003242493,6|2,0:0|0:0,0:0:0:0:
208,171,117222,1,2,0:0:0:0:
379,101,117380,2,0,L|480:100,2,85.0000016212464,10|2|0,0:0|0:0|0:0,0:0:0:0:
128,80,117853,6,0,P|52:132|140:198,1,170.000003242493,6|8,0:0|0:0,0:0:0:0:
165,224,118327,1,2,0:0:0:0:
400,288,118643,2,0,L|292:304,1,85.0000016212464,8|0,0:0|0:0,0:0:0:0:
428,361,118959,2,0,L|319:378,1,85.0000016212464,8|8,0:0|0:0,0:0:0:0:
121,330,119274,6,0,P|173:260|277:235,1,170.000003242493,6|2,0:0|0:0,0:0:0:0:
124,206,119748,1,2,0:0:0:0:
259,155,119906,2,0,L|195:100,1,85.0000016212464,8|0,0:0|0:0,0:0:0:0:
98,108,120222,1,2,0:0:0:0:
380,26,120380,6,0,P|459:71|453:144,1,170.000003242493,6|0,0:0|0:0,0:0:0:0:
335,171,120853,1,2,0:0:0:0:
203,205,121011,2,0,L|195:270,1,42.5000008106232,2|2,0:0|0:0,0:0:0:0:
215,280,121169,2,0,L|309:281,1,85.0000016212464,8|2,0:0|0:0,0:0:0:0:
458,359,121485,2,0,L|366:367,1,85.0000016212464,2|0,0:0|0:0,0:0:0:0:
136,351,121801,6,0,P|206:290|302:280,1,170.000003242493,4|8,0:0|0:0,0:0:0:0:
422,240,122274,2,0,P|354:178|267:166,1,170.000003242493,4|2,0:0|0:0,0:0:0:0:
46,139,122748,2,0,P|97:70|189:50,1,170.000003242493,12|6,0:0|0:0,0:0:0:0:
319,35,123274,1,2,0:0:0:0:
175,48,123485,1,2,0:0:0:0:
390,160,123695,5,8,0:0:0:0:
439,185,123801,1,2,0:0:0:0:
448,232,123906,1,2,0:0:0:0:
418,267,124011,1,8,0:0:0:0:
366,277,124116,1,2,0:0:0:0:
61,321,124327,5,6,0:0:0:0:
256,192,124485,12,4,134274,0:0:0:0:
