osu file format v14

[General]
AudioFilename: audio.mp3
AudioLeadIn: 0
PreviewTime: 77755
Countdown: 0
SampleSet: Soft
StackLeniency: 0.7
Mode: 2
LetterboxInBreaks: 0
WidescreenStoryboard: 1

[Editor]
DistanceSpacing: 3
BeatDivisor: 4
GridSize: 32
TimelineZoom: 3.099999

[Metadata]
Title:Towa ni Saku Hana (Short Ver.)
TitleUnicode:永遠に咲く花 (Short Ver.)
Artist:AiRI
ArtistUnicode:AiRI
Creator:Jemzuu
Version:Cup
Source:枯れない世界と終わる花
Tags:ajamez yugu karenai sekai to owaru hana the rainbow appears after flowering rain sweet & tea galgame visual novel eroge opening
BeatmapID:2009274
BeatmapSetID:958431

[Difficulty]
HPDrainRate:3
CircleSize:3
OverallDifficulty:5.5
ApproachRate:5.5
SliderMultiplier:1.6
SliderTickRate:1

[Events]
//Background and Video events
0,0,"hanaa.jpg",0,0
//Break Periods
//Storyboard Layer 0 (Background)
//Storyboard Layer 1 (Fail)
//Storyboard Layer 2 (Pass)
//Storyboard Layer 3 (Foreground)
//Storyboard Layer 4 (Overlay)
//Storyboard Sound Samples

[TimingPoints]
538,631.578947368421,4,2,1,30,1,0
3064,-100,4,2,1,30,0,0
4011,-100,4,2,1,30,0,0
5590,-100,4,2,1,30,0,0
8116,-100,4,2,1,30,0,0
9064,-100,4,2,1,30,0,0
10643,-100,4,2,1,50,0,0
13169,-100,4,2,1,50,0,0
14116,-100,4,2,1,50,0,0
15695,-100,4,2,1,50,0,0
18222,-100,4,2,1,50,0,0
19169,-100,4,2,1,50,0,0
20748,-100,4,2,1,60,0,0
24222,-100,4,2,1,60,0,0
25169,-100,4,2,1,60,0,0
25801,-100,4,2,1,60,0,0
26748,-100,4,2,1,60,0,0
28011,-100,4,2,1,60,0,0
29274,-100,4,2,1,60,0,0
29906,-100,4,2,1,60,0,0
34327,-100,4,2,1,60,0,0
35116,-100,4,2,1,60,0,0
35906,-100,4,2,1,60,0,0
37169,-100,4,2,1,60,0,0
38432,-100,4,2,1,60,0,0
39695,-100,4,2,2,60,0,0
40959,-83.3333333333333,4,2,2,60,0,0
43485,-83.3333333333333,4,2,2,60,0,0
43959,-83.3333333333333,4,2,2,60,0,0
44432,-83.3333333333333,4,2,2,60,0,0
45380,-83.3333333333333,4,2,2,60,0,0
46011,-83.3333333333333,4,2,2,60,0,0
46880,-83.3333333333333,4,2,2,5,0,0
46959,-83.3333333333333,4,2,2,60,0,0
47511,-83.3333333333333,4,2,2,5,0,0
47590,-83.3333333333333,4,2,2,60,0,0
48538,-83.3333333333333,4,2,2,60,0,0
49011,-83.3333333333333,4,2,2,60,0,0
49485,-83.3333333333333,4,2,2,60,0,0
51064,-83.3333333333333,4,2,2,60,0,0
53590,-83.3333333333333,4,2,2,60,0,0
54064,-83.3333333333333,4,2,2,60,0,0
54538,-83.3333333333333,4,2,2,60,0,0
55485,-83.3333333333333,4,2,2,60,0,0
56116,-83.3333333333333,4,2,2,70,0,0
56748,-83.3333333333333,4,2,2,70,0,0
57222,-83.3333333333333,4,2,2,70,0,0
58011,-83.3333333333333,4,2,2,70,0,0
58327,-83.3333333333333,4,2,2,70,0,0
59274,-83.3333333333333,4,2,2,70,0,0
59748,-83.3333333333333,4,2,2,70,0,0
61169,-100,4,2,2,70,0,0
63064,-100,4,2,2,50,0,0
63695,-100,4,2,2,50,0,0
66222,-100,4,2,2,60,0,0
68432,-100,4,2,2,60,0,0
68748,-100,4,2,2,60,0,0
71274,-83.3333333333333,4,2,2,60,0,0
71511,-83.3333333333333,4,2,2,5,0,0
71590,-83.3333333333333,4,2,2,60,0,0
71827,-83.3333333333333,4,2,2,5,0,0
71906,-83.3333333333333,4,2,2,60,0,0
73801,-71.4285714285714,4,2,2,80,0,0
74353,-100,4,2,2,5,0,0
74432,-83.3333333333333,4,2,2,80,0,0
76011,-71.4285714285714,4,2,2,80,0,0
77432,-100,4,2,2,80,0,0
77472,-100,4,2,2,15,0,0
77511,-100,4,2,2,15,0,0
77551,-100,4,2,2,17,0,0
77590,-100,4,2,2,23,0,0
77630,-100,4,2,2,29,0,0
77669,-100,4,2,2,35,0,0
77709,-100,4,2,2,41,0,0
77748,-100,4,2,2,47,0,0
77787,-100,4,2,2,53,0,0
77827,-100,4,2,2,59,0,0
77866,-100,4,2,2,65,0,0
77906,-100,4,2,2,71,0,0
77945,-100,4,2,2,77,0,0
77985,-100,4,2,2,83,0,0
78024,-100,4,2,2,89,0,0
78064,-100,4,2,2,95,0,0
78103,-100,4,2,2,100,0,0
78143,-100,4,2,2,50,0,0
78182,-100,4,2,2,20,0,0
78222,-100,4,2,2,60,0,0
78853,-66.6666666666667,4,2,2,90,0,1
79090,-66.6666666666667,4,2,2,5,0,1
79169,-66.6666666666667,4,2,2,90,0,1
80985,-66.6666666666667,4,2,2,5,0,1
81064,-66.6666666666667,4,2,2,90,0,1
82485,-66.6666666666667,4,2,2,90,0,1
84143,-66.6666666666667,4,2,2,5,0,1
84222,-66.6666666666667,4,2,2,90,0,1
86669,-66.6666666666667,4,2,2,5,0,1
86748,-66.6666666666667,4,2,2,90,0,1
86985,-66.6666666666667,4,2,2,5,0,1
87064,-66.6666666666667,4,2,2,90,0,1
88248,-66.6666666666667,4,2,2,5,0,1
88327,-66.6666666666667,4,2,2,90,0,1
89669,-66.6666666666667,4,2,2,5,0,1
90064,-66.6666666666667,4,2,2,40,0,1
90222,-66.6666666666667,4,2,2,40,0,1
90695,-66.6666666666667,4,2,2,80,0,1
90853,-66.6666666666667,4,2,2,90,0,1
94248,-66.6666666666667,4,2,2,5,0,1
94327,-66.6666666666667,4,2,2,90,0,1
96774,-66.6666666666667,4,2,2,5,0,1
96853,-66.6666666666667,4,2,2,90,0,1
97880,-66.6666666666667,4,2,2,5,0,1
97959,-66.6666666666667,4,2,2,90,0,1
98432,-66.6666666666667,4,2,2,80,0,1
98748,-66.6666666666667,4,2,2,70,0,1
99064,-100,4,2,2,60,0,0
99143,-100,4,2,2,5,0,0
100169,-100,4,2,2,50,0,0
100327,-100,4,2,2,80,0,0
100643,-100,4,2,2,80,0,0
101274,-100,4,2,2,80,0,0
101590,-66.6666666666667,4,2,2,90,0,0
101748,-66.6666666666667,4,2,2,60,0,0
102222,-66.6666666666667,4,2,2,50,0,0
102537,-66.6666666666667,4,2,2,35,0,0
102853,-66.6666666666667,4,2,2,25,0,0
103169,-66.6666666666667,4,2,2,10,0,0
103485,-100,4,2,2,5,0,0
103801,-100,4,2,2,60,0,0
104116,-66.6666666666667,4,2,2,90,0,1
122274,-66.6666666666667,4,2,2,90,0,1
122748,-66.6666666666667,4,2,2,90,0,1
124327,-100,4,2,2,90,0,0
124485,-100,4,2,2,60,0,0
125590,-100,4,2,2,50,0,0
126222,-100,4,2,2,45,0,0
126853,-100,4,2,2,40,0,0
127485,-100,4,2,2,35,0,0
128116,-100,4,2,2,30,0,0
129380,-100,4,2,2,25,0,0
130643,-100,4,2,2,20,0,0
131906,-100,4,2,2,15,0,0
133169,-100,4,2,2,10,0,0
134274,-100,4,2,2,5,0,0

[Colours]
Combo1 : 210,210,210
Combo2 : 94,174,255
Combo3 : 255,151,255

[HitObjects]
459,276,538,6,0,P|420:208|260:157,1,240,2|2,0:0|0:0,0:0:0:0:
24,95,3064,6,0,L|156:75,1,120,2|2,0:0|0:0,0:0:0:0:
288,172,4011,2,0,P|185:180|87:297,1,240,2|0,0:0|0:0,0:0:0:0:
317,353,5590,6,0,P|449:266|447:173,1,240,2|2,0:0|0:0,0:0:0:0:
155,106,8116,2,0,L|6:111,1,120,2|2,0:0|0:0,0:0:0:0:
189,198,9064,2,0,P|246:203|332:286,1,160,2|0,0:0|0:0,0:0:0:0:
221,299,10011,2,0,L|134:306,1,80,0|0,0:0|0:0,0:0:0:0:
259,376,10643,6,0,L|426:361,1,160,2|8,0:0|0:0,0:0:0:0:
318,322,11590,2,0,P|284:289|408:212,1,240,2|0,0:0|0:0,0:0:0:0:
207,161,13169,6,0,L|66:139,1,120,2|2,0:0|0:0,0:0:0:0:
262,83,14116,2,0,L|271:264,1,160,2|0,0:0|0:0,0:0:0:0:
157,286,15064,1,8,0:0:0:0:
350,325,15695,6,0,P|457:282|479:211,1,160,2|8,0:0|0:0,0:0:0:0:
363,200,16643,2,0,P|267:192|191:52,1,240,2|0,0:0|0:0,0:0:0:0:
9,31,18222,6,0,L|12:188,1,120,2|2,0:0|0:0,0:0:0:0:
163,209,19169,2,0,P|112:215|41:305,1,160,2|0,0:0|0:0,0:0:0:0:
142,306,20116,1,10,0:0:0:0:
366,337,20748,6,0,P|331:280|238:257,1,160,2|8,0:0|0:0,0:0:0:0:
355,226,21695,2,0,L|472:182,2,120,2|8|8,0:0|0:0|0:0,0:0:0:0:
179,172,23274,6,0,L|168:40,1,120,2|2,0:0|0:0,0:0:0:0:
386,158,24222,2,0,L|405:310,1,120,2|0,0:0|0:0,0:0:0:0:
264,358,25169,2,0,L|181:371,1,80,0|0,0:0|0:0,0:0:0:0:
55,328,25801,6,0,P|99:264|189:246,1,160,2|8,0:0|0:0,0:0:0:0:
28,211,26748,2,0,L|48:75,1,120,2|0,0:0|0:0,0:0:0:0:
174,84,27695,2,0,L|211:1,1,80,8|8,0:0|0:0,0:0:0:0:
330,31,28327,6,0,L|279:172,1,120,2|2,0:0|0:0,0:0:0:0:
429,187,29274,2,0,L|462:327,1,120,2|8,0:0|0:0,0:0:0:0:
323,340,30222,2,0,L|232:360,1,80,8|0,0:0|0:0,0:0:0:0:
116,320,30853,6,0,P|50:294|39:182,1,160,2|8,0:0|0:0,0:0:0:0:
136,177,31801,2,0,P|223:158|269:124,1,120,2|8,0:0|0:0,0:0:0:0:
392,49,32748,2,0,L|410:155,1,80,8|0,0:0|0:0,0:0:0:0:
285,175,33380,6,0,P|228:180|164:249,1,120,2|2,0:0|0:0,0:0:0:0:
332,269,34327,2,0,P|410:289|490:359,1,160,2|0,0:0|0:0,0:0:0:0:
427,345,35116,2,0,L|353:341,1,40,0|8,0:0|0:0,0:0:0:0:
159,333,35906,5,2,0:0:0:0:
309,257,36380,1,0,0:0:0:0:
290,207,36538,2,0,L|188:193,1,80,8|0,0:0|0:0,0:0:0:0:
81,127,37169,2,0,L|217:107,2,120,2|2|2,0:0|0:0|0:0,0:0:0:0:
237,19,38432,6,0,P|295:31|374:105,1,160,2|0,0:0|0:0,0:0:0:0:
104,173,40011,1,6,0:0:0:0:
219,218,40327,2,0,L|236:274,1,40,8|2,0:0|0:0,0:0:0:0:
393,306,40959,6,0,L|252:363,2,143.999995605469,4|2|0,0:0|0:0|0:0,0:0:0:0:
225,237,42538,2,0,L|104:217,1,95.9999970703126,2|8,0:0|0:0,0:0:0:0:
237,142,43169,1,0,0:0:0:0:
95,106,43485,2,0,P|132:39|235:5,1,143.999995605469,2|8,0:0|0:0,0:0:0:0:
361,52,44432,6,0,L|468:60,2,95.9999970703126,2|0|2,0:0|0:0|0:0,0:0:0:0:
243,106,45380,2,0,L|244:217,1,95.9999970703126,8|0,0:0|0:0,0:0:0:0:
374,235,46011,2,0,P|436:251|486:326,1,143.999995605469,2|2,0:0|0:0,0:0:0:0:
303,335,46959,6,0,P|398:298|339:223,1,191.999994140625,0|2,0:0|0:0,0:0:0:0:
334,204,47748,1,0,0:0:0:0:
283,187,47906,1,8,0:0:0:0:
159,165,48222,1,0,0:0:0:0:
36,130,48538,6,0,P|73:89|187:55,1,143.999995605469,2|8,0:0|0:0,0:0:0:0:
345,54,49485,2,0,L|218:27,2,95.9999970703126,2|0|2,0:0|0:0|0:0,0:0:0:0:
462,95,50432,2,0,P|470:160|459:197,1,95.9999970703126,8|0,0:0|0:0,0:0:0:0:
316,238,51064,6,0,P|238:251|143:288,1,143.999995605469,6|2,0:0|0:0,0:0:0:0:
41,329,52011,2,0,P|52:266|84:224,1,95.9999970703126,0|0,0:0|0:0,0:0:0:0:
176,168,52643,1,2,0:0:0:0:
297,144,52959,2,0,P|307:83|305:29,1,95.9999970703126,8|0,0:0|0:0,0:0:0:0:
134,10,53590,6,0,L|115:193,1,143.999995605469,2|8,0:0|0:0,0:0:0:0:
296,258,54538,2,0,L|414:280,2,95.9999970703126,2|0|2,0:0|0:0|0:0,0:0:0:0:
174,276,55485,1,8,0:0:0:0:
295,353,55801,2,0,L|363:353,1,47.9999985351563,0|0,0:0|0:0,0:0:0:0:
394,344,56116,6,0,P|400:278|391:237,1,95.9999970703126,2|0,0:0|0:0,0:0:0:0:
263,174,56748,2,0,P|194:163|146:142,1,95.9999970703126,8|0,0:0|0:0,0:0:0:0:
166,99,57222,2,0,L|327:73,1,143.999995605469,2|2,0:0|0:0,0:0:0:0:
431,44,58011,2,0,L|496:45,2,47.9999985351563,8|2|0,0:0|0:0|0:0,0:0:0:0:
290,83,58643,6,0,P|358:95|447:195,1,191.999994140625,2|8,0:0|0:0,0:0:0:0:
254,216,59748,2,0,L|243:368,1,143.999995605469,4|0,0:0|0:0,0:0:0:0:
71,358,60538,2,0,L|52:242,1,95.9999970703126,8|2,0:0|0:0,0:0:0:0:
224,218,61169,5,6,0:0:0:0:
256,192,61485,12,0,63064,0:0:0:0:
241,158,63695,6,0,P|203:124|288:61,1,160,2|0,0:2|0:0,0:0:0:0:
456,291,64959,2,0,L|340:302,1,80,2|2,0:2|0:0,0:0:0:0:
256,302,65590,2,0,L|240:200,1,80,2|2,0:0|0:0,0:0:0:0:
81,191,66222,6,0,P|85:140|198:66,1,160,4|2,0:0|0:0,0:0:0:0:
336,29,67327,2,0,L|349:138,1,80,0|0,0:0|0:0,0:0:0:0:
205,173,68116,1,2,0:0:0:0:
56,222,68432,2,0,L|52:277,1,40,0|0,0:0|0:0,0:0:0:0:
66,302,68748,6,0,L|182:321,1,80,0|0,0:0|0:0,0:0:0:0:
290,274,69380,2,0,P|245:244|162:221,1,120,2|0,0:0|0:0,0:0:0:0:
325,177,70327,1,0,0:0:0:0:
445,168,70643,2,0,L|472:75,1,80,2|0,0:0|0:0,0:0:0:0:
334,42,71274,6,0,L|234:25,2,95.9999970703126,2|0|2,0:0|0:0|0:0,0:0:0:0:
446,71,72222,1,0,0:0:0:0:
326,144,72537,2,0,L|216:123,1,95.9999970703126,2|0,0:0|0:0,0:0:0:0:
128,240,73169,2,0,L|245:224,1,95.9999970703126,2|0,0:0|0:0,0:0:0:0:
72,313,73801,6,0,P|41:265|135:152,1,223.999993164063,6|8,0:0|0:0,0:0:0:0:
257,133,74748,1,8,0:0:0:0:
120,55,75064,2,0,L|7:24,1,95.9999970703126,8|8,0:0|0:0,0:0:0:0:
168,16,75695,2,0,L|191:131,1,95.9999970703126,8|8,0:0|0:0,0:0:0:0:
343,189,76327,5,4,0:0:0:0:
256,192,76643,12,2,78222,3:2:0:0:
65,111,78853,6,0,L|217:94,1,120.000004577637,4|2,0:0|0:0,0:0:0:0:
57,224,79485,2,0,L|52:355,1,120.000004577637,8|0,0:0|0:0,0:0:0:0:
181,340,80116,2,0,L|324:326,1,120.000004577637,0|0,0:0|0:0,0:0:0:0:
427,236,80748,2,0,L|296:212,1,120.000004577637,8|0,0:0|0:0,0:0:0:0:
169,169,81380,5,2,0:0:0:0:
297,108,81695,2,0,L|357:76,1,60.0000022888184,2|2,0:0|0:0,0:0:0:0:
296,40,82011,2,0,L|216:27,1,60.0000022888184,8|0,0:0|0:0,0:0:0:0:
101,72,82485,2,0,P|77:130|145:220,1,180.000006866455,2|0,0:0|0:0,0:0:0:0:
270,244,83274,2,0,L|282:382,1,120.000004577637,8|10,0:0|0:0,0:0:0:0:
126,358,83906,6,0,P|181:291|343:264,1,240.000009155274,6|8,0:0|0:0,0:0:0:0:
456,176,84853,1,0,0:0:0:0:
406,138,85011,2,0,L|240:108,1,120.000004577637,2|2,0:0|0:0,0:0:0:0:
159,58,85643,1,2,0:0:0:0:
101,75,85801,2,0,L|105:234,1,120.000004577637,8|2,0:0|0:0,0:0:0:0:
248,247,86432,6,0,L|120:277,1,120.000004577637,6|2,0:0|0:0,0:0:0:0:
26,344,87064,2,0,L|177:361,1,120.000004577637,8|8,0:0|0:0,0:0:0:0:
212,326,87537,6,0,P|287:249|276:152,1,180.000006866455,6|2,0:0|0:0,0:0:0:0:
163,128,88327,1,12,0:0:0:0:
298,64,88643,2,0,L|366:57,1,60.0000022888184,8|8,0:0|0:0,0:0:0:0:
420,75,88959,6,0,P|444:177|442:220,1,120.000004577637,6|2,0:0|0:0,0:0:0:0:
294,222,89590,2,0,P|224:244|319:230,1,480.000018310548,8|8,0:0|0:0,0:0:0:0:
205,196,91169,1,2,0:0:0:0:
73,177,91485,6,0,P|42:115|123:58,1,180.000006866455,2|2,0:0|0:0,0:0:0:0:
177,46,92116,1,8,0:0:0:0:
334,131,92432,1,2,0:0:0:0:
274,144,92590,6,0,P|156:177|110:227,1,180.000006866455,6|2,0:0|0:0,0:0:0:0:
248,266,93380,2,0,L|381:279,1,120.000004577637,10|10,0:0|0:0,0:0:0:0:
199,362,94011,6,0,L|69:369,1,120.000004577637,6|2,0:0|0:0,0:0:0:0:
215,267,94643,1,8,0:0:0:0:
75,253,94959,1,0,0:0:0:0:
14,211,95116,6,0,P|116:140|215:138,1,180.000006866455,6|0,0:0|0:0,0:0:0:0:
307,51,95906,2,0,L|181:29,1,120.000004577637,8|10,0:0|0:0,0:0:0:0:
333,150,96537,6,0,L|468:131,1,120.000004577637,6|2,0:0|0:0,0:0:0:0:
331,279,97169,2,0,L|264:254,2,60.0000022888184,8|8|8,0:0|0:0|0:0,0:0:0:0:
403,288,97643,6,0,P|450:232|365:173,1,180.000006866455,6|2,0:0|0:0,0:0:0:0:
256,122,98432,1,10,0:0:0:0:
385,73,98748,1,2,0:0:0:0:
218,29,99064,5,6,0:0:0:0:
479,224,100327,5,4,0:0:0:0:
255,309,100959,1,4,0:0:0:0:
26,333,101590,5,4,0:0:0:0:
256,192,101906,12,0,103485,0:0:0:0:
444,288,104116,6,0,P|444:218|401:160,1,120.000004577637,6|2,0:0|0:0,0:0:0:0:
299,123,104748,1,8,0:0:0:0:
168,96,105064,1,2,0:0:0:0:
104,140,105222,6,0,P|227:167|288:222,1,180.000006866455,6|0,0:0|0:0,0:0:0:0:
164,250,106011,2,0,L|31:274,1,120.000004577637,8|0,0:0|0:0,0:0:0:0:
193,338,106643,6,0,L|330:351,2,120.000004577637,6|2|8,0:0|0:0|0:0,0:0:0:0:
326,257,107590,1,8,0:0:0:0:
389,244,107748,6,0,P|450:213|470:92,1,180.000006866455,6|2,0:0|0:0,0:0:0:0:
351,26,108537,2,0,L|316:163,1,120.000004577637,8|8,0:0|0:0,0:0:0:0:
166,194,109169,6,0,L|184:320,1,120.000004577637,6|2,0:0|0:0,0:0:0:0:
314,348,109801,1,8,0:0:0:0:
173,346,110116,1,2,0:0:0:0:
114,338,110274,6,0,P|39:304|84:226,1,180.000006866455,6|2,0:0|0:0,0:0:0:0:
189,173,111064,2,0,P|266:140|341:136,1,120.000004577637,8|0,0:0|0:0,0:0:0:0:
163,71,111695,6,0,P|130:151|137:197,1,120.000004577637,12|2,0:0|0:0,0:0:0:0:
183,208,112169,2,0,L|266:228,1,60.0000022888184,2|8,0:0|0:0,0:0:0:0:
396,271,112643,1,2,0:0:0:0:
337,297,112801,6,0,P|256:302|159:349,1,180.000006866455,6|2,0:0|0:0,0:0:0:0:
294,352,113590,2,0,L|311:232,1,120.000004577637,8|8,0:0|0:0,0:0:0:0:
470,186,114222,6,0,L|443:58,1,120.000004577637,6|2,0:0|0:0,0:0:0:0:
313,31,114853,2,0,P|223:21|171:28,1,120.000004577637,8|2,0:0|0:0,0:0:0:0:
255,64,115327,6,0,P|334:100|439:51,1,180.000006866455,6|2,0:0|0:0,0:0:0:0:
299,183,116116,2,0,L|159:201,1,120.000004577637,8|0,0:0|0:0,0:0:0:0:
38,335,116748,6,0,L|52:164,1,120.000004577637,6|2,0:0|0:0,0:0:0:0:
190,184,117380,1,10,0:0:0:0:
152,137,117537,1,2,0:0:0:0:
99,110,117695,1,2,0:0:0:0:
40,105,117853,6,0,P|90:175|208:193,1,180.000006866455,6|2,0:0|0:0,0:0:0:0:
317,240,118643,1,8,0:0:0:0:
178,317,118959,2,0,L|114:314,1,60.0000022888184,8|8,0:0|0:0,0:0:0:0:
60,297,119274,6,0,P|38:217|55:149,1,120.000004577637,6|2,0:0|0:0,0:0:0:0:
172,144,119906,2,0,L|314:134,1,120.000004577637,8|2,0:0|0:0,0:0:0:0:
221,100,120380,6,0,P|140:97|8:27,1,180.000006866455,6|2,0:0|0:0,0:0:0:0:
174,18,121169,2,0,L|306:1,1,120.000004577637,8|2,0:0|0:0,0:0:0:0:
452,102,121801,6,0,P|437:190|385:222,1,120.000004577637,4|8,0:0|0:0,0:0:0:0:
361,220,122274,2,0,L|228:229,1,120.000004577637,4|2,0:0|0:0,0:0:0:0:
185,240,122748,6,0,P|142:286|177:334,1,120.000004577637,12|6,0:0|0:0,0:0:0:0:
296,328,123380,1,2,0:0:0:0:
391,215,123695,1,8,0:0:0:0:
268,147,124011,1,10,0:0:0:0:
119,144,124327,5,6,0:0:0:0:
256,192,124643,12,4,134274,0:0:0:0:
