osu file format v14

[General]
AudioFilename: audio.mp3
AudioLeadIn: 0
PreviewTime: 77472
Countdown: 0
SampleSet: Soft
StackLeniency: 0.7
Mode: 3
LetterboxInBreaks: 0
SpecialStyle: 0
WidescreenStoryboard: 1
SamplesMatchPlaybackRate: 1

[Editor]
Bookmarks: 10525,20630,40841,66104
DistanceSpacing: 0.7
BeatDivisor: 4
GridSize: 8
TimelineZoom: 0.7999998

[Metadata]
Title:Towa ni Saku Hana
TitleUnicode:永遠に咲く花
Artist:AiRI
ArtistUnicode:AiRI
Creator:MCPXiaoBai
Version:Hard
Source:枯れない世界と終わる花
Tags:The rainbow appears after flowering rain karehana kareseka Sweet & Tea visual novel vn eroge op opening short version video game japanese pop jpop j-pop dudehacker drum-hitnormal muse dash
BeatmapID:2457096
BeatmapSetID:1080804

[Difficulty]
HPDrainRate:8
CircleSize:4
OverallDifficulty:8
ApproachRate:5
SliderMultiplier:1.4
SliderTickRate:1

[Events]
//Background and Video events
0,0,"91vAS2HR8eL.09._SCLZZZZZZZ_.jpg",0,0
//Break Periods
//Storyboard Layer 0 (Background)
//Storyboard Layer 1 (Fail)
//Storyboard Layer 2 (Pass)
//Storyboard Layer 3 (Foreground)
//Storyboard Layer 4 (Overlay)
//Storyboard Sound Samples

[TimingPoints]
420,631.578947368421,4,2,1,11,1,0
20630,-100,4,2,1,22,0,0
39577,-100,4,2,1,45,0,0
78735,-100,4,2,1,45,0,1
98946,-100,4,2,1,45,0,0
103998,-100,4,2,1,45,0,1
124209,-100,4,2,1,45,0,0

[HitObjects]
64,192,420,5,0,0:0:0:0:
192,192,420,1,0,0:0:0:0:
320,192,577,1,0,0:0:0:0:
192,192,735,1,0,0:0:0:0:
320,192,893,1,0,0:0:0:0:
448,192,1051,1,0,0:0:0:0:
64,192,1367,1,0,0:0:0:0:
192,192,1367,1,0,0:0:0:0:
320,192,1525,1,0,0:0:0:0:
192,192,1683,1,0,0:0:0:0:
320,192,1841,1,0,0:0:0:0:
448,192,1998,1,0,0:0:0:0:
320,192,2946,1,0,0:0:0:0:
448,192,2946,1,0,0:0:0:0:
192,192,3104,1,0,0:0:0:0:
320,192,3262,1,0,0:0:0:0:
192,192,3420,1,0,0:0:0:0:
448,192,3420,1,0,0:0:0:0:
64,192,3577,1,0,0:0:0:0:
320,192,3893,1,0,0:0:0:0:
448,192,3893,1,0,0:0:0:0:
192,192,4051,1,0,0:0:0:0:
320,192,4209,1,0,0:0:0:0:
192,192,4367,1,0,0:0:0:0:
64,192,4525,1,0,0:0:0:0:
448,192,4841,1,0,0:0:0:0:
64,192,5472,1,0,0:0:0:0:
192,192,5472,1,0,0:0:0:0:
320,192,5630,1,0,0:0:0:0:
192,192,5788,1,0,0:0:0:0:
320,192,5946,1,0,0:0:0:0:
448,192,6104,1,0,0:0:0:0:
64,192,6420,1,0,0:0:0:0:
192,192,6420,1,0,0:0:0:0:
320,192,6577,1,0,0:0:0:0:
192,192,6735,1,0,0:0:0:0:
320,192,6893,1,0,0:0:0:0:
448,192,7051,1,0,0:0:0:0:
320,192,7998,1,0,0:0:0:0:
448,192,7998,1,0,0:0:0:0:
192,192,8156,1,0,0:0:0:0:
320,192,8314,1,0,0:0:0:0:
192,192,8472,1,0,0:0:0:0:
448,192,8472,1,0,0:0:0:0:
64,192,8630,1,0,0:0:0:0:
320,192,8946,1,0,0:0:0:0:
448,192,8946,1,0,0:0:0:0:
192,192,9104,1,0,0:0:0:0:
320,192,9262,1,0,0:0:0:0:
192,192,9420,1,0,0:0:0:0:
448,192,9577,1,0,0:0:0:0:
64,192,9735,1,0,0:0:0:0:
192,192,9893,1,0,0:0:0:0:
320,192,10051,1,0,0:0:0:0:
448,192,10209,1,0,0:0:0:0:
64,192,10525,1,0,0:0:0:0:
192,192,10525,1,0,0:0:0:0:
320,192,10683,1,0,0:0:0:0:
192,192,10841,1,0,0:0:0:0:
320,192,10998,1,0,0:0:0:0:
448,192,11156,1,8,0:0:0:0:
64,192,11472,1,0,0:0:0:0:
192,192,11472,1,0,0:0:0:0:
320,192,11630,1,0,0:0:0:0:
192,192,11788,1,0,0:0:0:0:
320,192,11946,1,8,0:0:0:0:
448,192,12104,1,0,0:0:0:0:
64,192,12419,1,8,0:0:0:0:
320,192,13051,1,0,0:0:0:0:
448,192,13051,1,0,0:0:0:0:
192,192,13209,1,0,0:0:0:0:
320,192,13367,1,0,0:0:0:0:
192,192,13525,1,0,0:0:0:0:
448,192,13525,1,0,0:0:0:0:
64,192,13683,1,8,0:0:0:0:
320,192,13998,1,0,0:0:0:0:
448,192,13998,1,0,0:0:0:0:
192,192,14156,1,0,0:0:0:0:
320,192,14314,1,0,0:0:0:0:
192,192,14472,1,8,0:0:0:0:
64,192,14630,1,0,0:0:0:0:
320,192,14788,1,0,0:0:0:0:
448,192,14946,1,8,0:0:0:0:
320,192,15419,1,8,0:0:0:0:
64,192,15577,1,0,0:0:0:0:
192,192,15577,1,0,0:0:0:0:
320,192,15735,1,0,0:0:0:0:
192,192,15893,1,0,0:0:0:0:
320,192,16051,1,0,0:0:0:0:
448,192,16209,1,8,0:0:0:0:
64,192,16525,1,0,0:0:0:0:
192,192,16525,1,0,0:0:0:0:
320,192,16683,1,0,0:0:0:0:
192,192,16841,1,0,0:0:0:0:
320,192,16998,1,8,0:0:0:0:
448,192,17156,1,0,0:0:0:0:
192,192,17314,1,0,0:0:0:0:
64,192,17472,1,8,0:0:0:0:
192,192,17788,1,0,0:0:0:0:
320,192,18104,1,0,0:0:0:0:
448,192,18104,1,0,0:0:0:0:
192,192,18262,1,0,0:0:0:0:
320,192,18420,1,0,0:0:0:0:
192,192,18577,1,0,0:0:0:0:
448,192,18577,1,0,0:0:0:0:
64,192,18735,1,8,0:0:0:0:
320,192,18893,1,0,0:0:0:0:
64,192,19051,1,0,0:0:0:0:
192,192,19051,1,0,0:0:0:0:
448,192,19525,1,8,0:0:0:0:
320,192,19683,1,0,0:0:0:0:
192,192,19841,1,0,0:0:0:0:
64,192,19998,1,8,0:0:0:0:
320,192,20156,1,0,0:0:0:0:
448,192,20472,1,8,0:0:0:0:
64,192,20630,1,0,0:0:0:0:
192,192,20630,1,0,0:0:0:0:
192,192,20946,128,0,21262:0:0:0:0:
320,192,21262,128,8,21577:0:0:0:0:
448,192,21262,1,0,0:0:0:0:
64,192,21577,128,0,21735:0:0:0:0:
192,192,21577,1,0,0:0:0:0:
448,192,21735,128,0,22051:0:0:0:0:
64,192,22051,1,8,0:0:0:0:
320,192,22051,128,0,22209:0:0:0:0:
192,192,22209,128,0,22525:0:0:0:0:
320,192,22525,1,8,0:0:0:0:
448,192,22525,1,0,0:0:0:0:
320,192,22841,1,0,0:0:0:0:
192,192,22998,1,0,0:0:0:0:
320,192,23156,128,0,23472:0:0:0:0:
448,192,23156,1,0,0:0:0:0:
64,192,23472,128,0,23630:0:0:0:0:
320,192,23630,1,0,0:0:0:0:
448,192,23630,1,0,0:0:0:0:
64,192,23788,1,8,0:0:0:0:
192,192,23788,1,0,0:0:0:0:
192,192,23946,128,0,24104:0:0:0:0:
320,192,24104,1,0,0:0:0:0:
448,192,24104,128,0,24420:0:0:0:0:
192,192,24577,1,8,0:0:0:0:
448,192,24577,1,0,0:0:0:0:
64,192,25051,128,8,25367:0:0:0:0:
192,192,25051,1,0,0:0:0:0:
320,192,25367,128,0,25683:0:0:0:0:
64,192,25683,1,0,0:0:0:0:
192,192,25683,1,0,0:0:0:0:
320,192,26314,128,8,26630:0:0:0:0:
448,192,26314,1,0,0:0:0:0:
64,192,26630,1,0,0:0:0:0:
192,192,26630,128,0,26946:0:0:0:0:
192,192,27104,1,8,0:0:0:0:
448,192,27104,1,0,0:0:0:0:
320,192,27577,1,8,0:0:0:0:
448,192,27577,1,0,0:0:0:0:
448,192,27893,1,0,0:0:0:0:
64,192,28051,1,0,0:0:0:0:
320,192,28209,128,0,28525:0:0:0:0:
448,192,28209,1,0,0:0:0:0:
192,192,28525,128,0,28683:0:0:0:0:
320,192,28683,1,0,0:0:0:0:
448,192,28683,1,0,0:0:0:0:
64,192,28841,1,8,0:0:0:0:
192,192,28841,1,0,0:0:0:0:
64,192,28998,128,0,29156:0:0:0:0:
320,192,29156,1,0,0:0:0:0:
448,192,29156,128,0,29472:0:0:0:0:
192,192,29630,1,8,0:0:0:0:
448,192,29630,1,0,0:0:0:0:
64,192,30104,1,8,0:0:0:0:
192,192,30104,1,0,0:0:0:0:
448,192,30577,1,8,0:0:0:0:
64,192,30735,1,0,0:0:0:0:
192,192,30735,1,0,0:0:0:0:
192,192,31051,128,0,31367:0:0:0:0:
320,192,31367,128,8,31683:0:0:0:0:
448,192,31367,1,0,0:0:0:0:
64,192,31683,128,0,31841:0:0:0:0:
192,192,31683,1,0,0:0:0:0:
448,192,31841,128,0,32156:0:0:0:0:
64,192,32156,1,8,0:0:0:0:
320,192,32156,128,0,32314:0:0:0:0:
192,192,32314,128,0,32630:0:0:0:0:
320,192,32630,1,8,0:0:0:0:
448,192,32630,1,0,0:0:0:0:
320,192,32946,1,0,0:0:0:0:
192,192,33104,1,0,0:0:0:0:
320,192,33262,128,0,33577:0:0:0:0:
448,192,33262,1,0,0:0:0:0:
64,192,33577,128,0,33735:0:0:0:0:
320,192,33735,1,0,0:0:0:0:
448,192,33735,1,0,0:0:0:0:
64,192,33893,1,8,0:0:0:0:
192,192,33893,1,0,0:0:0:0:
192,192,34051,128,0,34209:0:0:0:0:
320,192,34209,1,0,0:0:0:0:
448,192,34209,128,0,34525:0:0:0:0:
192,192,34683,1,8,0:0:0:0:
448,192,34683,1,0,0:0:0:0:
320,192,34841,1,0,0:0:0:0:
192,192,34998,1,0,0:0:0:0:
64,192,35156,128,8,35472:0:0:0:0:
448,192,35156,1,0,0:0:0:0:
320,192,35472,1,0,0:0:0:0:
192,192,35630,1,8,0:0:0:0:
64,192,35788,1,0,0:0:0:0:
448,192,35788,1,0,0:0:0:0:
320,192,35946,128,0,36104:0:0:0:0:
192,192,36104,128,0,36420:0:0:0:0:
320,192,36420,1,8,0:0:0:0:
448,192,36420,128,0,36735:0:0:0:0:
64,192,36735,1,0,0:0:0:0:
192,192,36735,1,0,0:0:0:0:
320,192,36893,128,0,37051:0:0:0:0:
64,192,37051,1,0,0:0:0:0:
448,192,37051,1,0,0:0:0:0:
192,192,37367,128,0,37525:0:0:0:0:
320,192,37525,1,0,0:0:0:0:
64,192,37683,1,8,0:0:0:0:
192,192,37683,1,0,0:0:0:0:
192,192,37998,1,0,0:0:0:0:
320,192,37998,128,0,38314:0:0:0:0:
64,192,38314,128,0,38788:0:0:0:0:
448,192,38314,1,0,0:0:0:0:
64,192,38946,1,8,0:0:0:0:
320,192,38946,1,0,0:0:0:0:
448,192,39577,128,0,39893:0:0:0:0:
64,192,39893,1,2,0:0:0:0:
192,192,39893,1,0,0:0:0:0:
320,192,40051,1,0,0:0:0:0:
64,192,40209,1,8,0:0:0:0:
192,192,40209,1,2,0:0:0:0:
320,192,40367,1,2,0:0:0:0:
448,192,40367,1,0,0:0:0:0:
192,192,40525,128,0,40841:0:0:0:0:
64,192,40841,1,4,0:0:0:0:
320,192,40841,1,2,0:0:0:0:
448,192,40841,1,0,0:0:0:0:
448,192,41156,1,0,0:0:0:0:
320,192,41314,1,2,0:0:0:0:
448,192,41314,1,0,0:0:0:0:
192,192,41472,128,0,41788:0:0:0:0:
320,192,41788,1,0,0:0:0:0:
448,192,41788,1,0,0:0:0:0:
64,192,41946,128,0,42262:0:0:0:0:
320,192,42262,1,0,0:0:0:0:
320,192,42420,1,2,0:0:0:0:
448,192,42420,1,0,0:0:0:0:
192,192,42577,1,0,0:0:0:0:
64,192,42735,1,8,0:0:0:0:
448,192,42735,1,2,0:0:0:0:
320,192,42893,1,0,0:0:0:0:
192,192,43051,1,0,0:0:0:0:
64,192,43209,1,0,0:0:0:0:
192,192,43367,128,2,43683:0:0:0:0:
320,192,43367,1,0,0:0:0:0:
448,192,43683,1,0,0:0:0:0:
320,192,43841,1,8,0:0:0:0:
448,192,43841,128,2,44156:0:0:0:0:
64,192,44156,1,0,0:0:0:0:
64,192,44314,128,2,44630:0:0:0:0:
192,192,44314,1,0,0:0:0:0:
320,192,44630,1,0,0:0:0:0:
64,192,44946,1,2,0:0:0:0:
192,192,44946,1,0,0:0:0:0:
64,192,45262,1,8,0:0:0:0:
320,192,45262,128,2,45577:0:0:0:0:
448,192,45262,1,0,0:0:0:0:
192,192,45577,128,0,45893:0:0:0:0:
64,192,45893,1,2,0:0:0:0:
320,192,45893,1,0,0:0:0:0:
448,192,45893,1,0,0:0:0:0:
320,192,46209,1,0,0:0:0:0:
64,192,46367,1,2,0:0:0:0:
64,192,46525,128,0,46841:0:0:0:0:
192,192,46525,1,0,0:0:0:0:
320,192,46841,128,0,47156:0:0:0:0:
448,192,46841,1,0,0:0:0:0:
192,192,47156,1,0,0:0:0:0:
64,192,47472,1,2,0:0:0:0:
192,192,47472,1,0,0:0:0:0:
320,192,47630,1,0,0:0:0:0:
64,192,47788,1,8,0:0:0:0:
448,192,47788,1,2,0:0:0:0:
192,192,47946,1,0,0:0:0:0:
320,192,48104,1,0,0:0:0:0:
448,192,48262,1,0,0:0:0:0:
64,192,48420,1,2,0:0:0:0:
192,192,48420,128,0,48735:0:0:0:0:
448,192,48735,1,0,0:0:0:0:
320,192,48893,1,8,0:0:0:0:
448,192,48893,1,2,0:0:0:0:
192,192,49051,1,0,0:0:0:0:
64,192,49209,1,0,0:0:0:0:
64,192,49367,128,2,49683:0:0:0:0:
192,192,49367,1,0,0:0:0:0:
448,192,49683,1,0,0:0:0:0:
64,192,49998,1,2,0:0:0:0:
192,192,49998,1,0,0:0:0:0:
320,192,50156,1,0,0:0:0:0:
64,192,50314,1,8,0:0:0:0:
448,192,50314,1,2,0:0:0:0:
192,192,50472,1,0,0:0:0:0:
320,192,50630,128,0,50946:0:0:0:0:
64,192,50946,1,2,0:0:0:0:
192,192,50946,1,4,0:0:0:0:
448,192,50946,1,0,0:0:0:0:
64,192,51262,1,0,0:0:0:0:
64,192,51420,1,2,0:0:0:0:
192,192,51420,1,0,0:0:0:0:
320,192,51577,128,0,51893:0:0:0:0:
64,192,51893,1,0,0:0:0:0:
192,192,51893,1,0,0:0:0:0:
448,192,52051,128,0,52367:0:0:0:0:
192,192,52367,1,0,0:0:0:0:
64,192,52525,1,2,0:0:0:0:
192,192,52525,1,0,0:0:0:0:
320,192,52683,1,0,0:0:0:0:
64,192,52841,1,8,0:0:0:0:
448,192,52841,1,2,0:0:0:0:
192,192,52998,1,0,0:0:0:0:
320,192,53156,1,0,0:0:0:0:
448,192,53314,1,0,0:0:0:0:
192,192,53472,1,2,0:0:0:0:
320,192,53472,128,0,53788:0:0:0:0:
64,192,53788,1,0,0:0:0:0:
64,192,53946,128,8,54262:0:0:0:0:
192,192,53946,1,2,0:0:0:0:
448,192,54262,1,0,0:0:0:0:
320,192,54420,1,2,0:0:0:0:
448,192,54420,128,0,54735:0:0:0:0:
192,192,54735,1,0,0:0:0:0:
320,192,55051,1,2,0:0:0:0:
448,192,55051,1,0,0:0:0:0:
64,192,55367,1,2,0:0:0:0:
192,192,55367,128,8,55683:0:0:0:0:
448,192,55367,1,0,0:0:0:0:
320,192,55683,1,0,0:0:0:0:
192,192,55841,1,0,0:0:0:0:
64,192,55998,1,2,0:0:0:0:
448,192,55998,1,0,0:0:0:0:
320,192,56156,1,0,0:0:0:0:
192,192,56314,1,0,0:0:0:0:
320,192,56472,1,2,0:0:0:0:
448,192,56472,1,0,0:0:0:0:
64,192,56630,1,8,0:0:0:0:
192,192,56630,1,2,0:0:0:0:
64,192,56946,1,0,0:0:0:0:
320,192,57104,128,2,57420:0:0:0:0:
448,192,57104,1,0,0:0:0:0:
192,192,57577,1,2,0:0:0:0:
320,192,57577,128,0,57893:0:0:0:0:
64,192,57893,1,8,0:0:0:0:
192,192,57893,1,2,0:0:0:0:
320,192,58051,1,2,0:0:0:0:
448,192,58051,1,0,0:0:0:0:
64,192,58209,128,0,58525:0:0:0:0:
320,192,58525,1,2,0:0:0:0:
448,192,58525,128,0,58841:0:0:0:0:
64,192,58841,1,0,0:0:0:0:
320,192,58998,1,2,0:0:0:0:
448,192,58998,1,0,0:0:0:0:
64,192,59156,1,8,0:0:0:0:
192,192,59156,1,2,0:0:0:0:
192,192,59472,1,0,0:0:0:0:
64,192,59630,1,2,0:0:0:0:
320,192,59630,1,4,0:0:0:0:
448,192,59630,128,0,60104:0:0:0:0:
64,192,60104,1,2,0:0:0:0:
192,192,60104,1,0,0:0:0:0:
320,192,60262,1,0,0:0:0:0:
64,192,60420,1,8,0:0:0:0:
448,192,60420,1,2,0:0:0:0:
192,192,60577,1,0,0:0:0:0:
320,192,60735,1,2,0:0:0:0:
448,192,60735,1,0,0:0:0:0:
192,192,60893,1,0,0:0:0:0:
64,192,61051,128,2,62946:0:0:0:0:
320,192,61051,1,4,0:0:0:0:
448,192,61051,1,0,0:0:0:0:
192,192,61367,1,0,0:0:0:0:
320,192,61683,1,0,0:0:0:0:
448,192,61998,1,0,0:0:0:0:
192,192,62156,1,0,0:0:0:0:
448,192,62472,1,0,0:0:0:0:
320,192,62630,1,0,0:0:0:0:
320,192,62946,1,0,0:0:0:0:
448,192,62946,1,0,0:0:0:0:
320,192,63262,128,0,63577:0:0:0:0:
64,192,63577,128,0,63893:0:0:0:0:
192,192,63577,1,0,0:0:0:0:
64,192,64209,128,0,64525:0:0:0:0:
320,192,64841,128,0,65156:0:0:0:0:
448,192,64841,1,0,0:0:0:0:
64,192,65156,128,2,65472:0:0:0:0:
192,192,65156,1,0,0:0:0:0:
320,192,65472,1,2,0:0:0:0:
448,192,65472,128,0,65788:0:0:0:0:
64,192,65788,1,2,0:0:0:0:
192,192,65788,128,0,66104:0:0:0:0:
64,192,66104,1,2,0:0:0:0:
320,192,66104,1,4,0:0:0:0:
448,192,66104,1,0,0:0:0:0:
64,192,66577,1,0,0:0:0:0:
320,192,66735,1,2,0:0:0:0:
448,192,66735,1,0,0:0:0:0:
192,192,67051,1,0,0:0:0:0:
448,192,67209,128,0,67525:0:0:0:0:
320,192,67525,128,0,67841:0:0:0:0:
192,192,67841,1,0,0:0:0:0:
64,192,67998,128,2,68314:0:0:0:0:
448,192,67998,1,0,0:0:0:0:
320,192,68314,1,0,0:0:0:0:
192,192,68472,1,0,0:0:0:0:
448,192,68630,1,0,0:0:0:0:
320,192,69104,1,0,0:0:0:0:
64,192,69262,1,2,0:0:0:0:
192,192,69262,1,0,0:0:0:0:
448,192,69419,1,0,0:0:0:0:
320,192,69577,1,0,0:0:0:0:
192,192,69735,1,0,0:0:0:0:
64,192,69893,128,0,70209:0:0:0:0:
192,192,70209,1,0,0:0:0:0:
320,192,70367,1,0,0:0:0:0:
64,192,70525,1,2,0:0:0:0:
448,192,70525,1,0,0:0:0:0:
192,192,70683,128,0,70998:0:0:0:0:
320,192,71156,1,2,0:0:0:0:
448,192,71156,1,0,0:0:0:0:
320,192,71472,128,0,71788:0:0:0:0:
64,192,71788,1,2,0:0:0:0:
192,192,71788,1,0,0:0:0:0:
448,192,71946,1,0,0:0:0:0:
320,192,72104,1,0,0:0:0:0:
192,192,72262,1,2,0:0:0:0:
448,192,72262,128,0,72735:0:0:0:0:
64,192,72419,1,2,0:0:0:0:
320,192,72735,128,0,73051:0:0:0:0:
64,192,73051,1,2,0:0:0:0:
192,192,73051,128,0,73367:0:0:0:0:
320,192,73367,128,0,73683:0:0:0:0:
64,192,73683,128,2,74156:0:0:0:0:
192,192,73683,1,8,0:0:0:0:
448,192,73683,1,0,0:0:0:0:
64,192,74314,1,2,0:0:0:0:
192,192,74314,1,0,0:0:0:0:
64,192,74630,1,8,0:0:0:0:
192,192,74630,1,2,0:0:0:0:
448,192,74630,1,0,0:0:0:0:
320,192,74946,1,2,0:0:0:0:
448,192,74946,1,0,0:0:0:0:
64,192,75262,1,8,0:0:0:0:
320,192,75262,1,2,0:0:0:0:
448,192,75262,1,0,0:0:0:0:
64,192,75577,1,2,0:0:0:0:
192,192,75577,1,0,0:0:0:0:
320,192,75735,1,8,0:0:0:0:
448,192,75735,1,2,0:0:0:0:
64,192,75893,1,2,0:0:0:0:
192,192,75893,1,0,0:0:0:0:
64,192,76209,1,2,0:0:0:0:
320,192,76209,1,4,0:0:0:0:
448,192,76209,1,0,0:0:0:0:
64,192,76525,1,8,0:0:0:0:
192,192,76525,1,2,0:0:0:0:
64,192,76683,1,4,0:0:0:0:
192,192,76683,1,2,0:0:0:0:
448,192,76683,1,0,0:0:0:0:
320,192,76998,1,8,0:0:0:0:
448,192,76998,1,2,0:0:0:0:
64,192,77156,1,4,0:0:0:0:
320,192,77156,1,2,0:0:0:0:
448,192,77156,1,0,0:0:0:0:
320,192,77788,128,0,78104:0:0:0:0:
64,192,78104,1,2,0:0:0:0:
192,192,78104,1,0,0:0:0:0:
320,192,78262,1,0,0:0:0:0:
192,192,78419,1,0,0:0:0:0:
320,192,78577,1,0,0:0:0:0:
64,192,78735,128,4,79209:0:0:0:0:
192,192,78735,1,2,0:0:0:0:
448,192,78735,1,0,0:0:0:0:
320,192,79051,1,2,0:0:0:0:
448,192,79051,1,0,0:0:0:0:
320,192,79209,1,2,0:0:0:0:
448,192,79209,1,0,0:0:0:0:
64,192,79367,1,8,0:0:0:0:
192,192,79367,1,2,0:0:0:0:
448,192,79367,1,0,0:0:0:0:
192,192,79683,128,0,79841:0:0:0:0:
320,192,79841,128,2,79998:0:0:0:0:
448,192,79841,1,0,0:0:0:0:
64,192,79998,128,0,80472:0:0:0:0:
192,192,80156,1,8,0:0:0:0:
448,192,80156,1,2,0:0:0:0:
320,192,80472,1,2,0:0:0:0:
448,192,80472,1,0,0:0:0:0:
64,192,80630,1,8,0:0:0:0:
192,192,80630,1,2,0:0:0:0:
448,192,80630,128,0,80946:0:0:0:0:
192,192,80946,1,2,0:0:0:0:
320,192,80946,1,0,0:0:0:0:
64,192,81262,1,2,0:0:0:0:
320,192,81262,1,0,0:0:0:0:
448,192,81262,1,0,0:0:0:0:
64,192,81577,1,2,0:0:0:0:
192,192,81577,1,0,0:0:0:0:
64,192,81735,1,2,0:0:0:0:
192,192,81735,1,0,0:0:0:0:
64,192,81893,1,8,0:0:0:0:
448,192,81893,1,2,0:0:0:0:
320,192,82051,128,0,82367:0:0:0:0:
64,192,82367,1,2,0:0:0:0:
192,192,82367,128,0,82683:0:0:0:0:
320,192,82683,1,8,0:0:0:0:
448,192,82683,1,2,0:0:0:0:
64,192,82841,1,0,0:0:0:0:
320,192,82998,1,2,0:0:0:0:
448,192,82998,1,0,0:0:0:0:
64,192,83156,1,8,0:0:0:0:
192,192,83156,1,2,0:0:0:0:
320,192,83314,1,2,0:0:0:0:
448,192,83314,1,0,0:0:0:0:
64,192,83472,1,0,0:0:0:0:
320,192,83630,1,2,0:0:0:0:
448,192,83630,1,8,0:0:0:0:
64,192,83788,1,2,0:0:0:0:
192,192,83788,1,4,0:0:0:0:
448,192,83788,128,0,84262:0:0:0:0:
64,192,84262,1,2,0:0:0:0:
192,192,84262,1,0,0:0:0:0:
64,192,84419,1,8,0:0:0:0:
320,192,84419,1,2,0:0:0:0:
448,192,84419,1,0,0:0:0:0:
192,192,84735,128,0,84893:0:0:0:0:
320,192,84893,128,2,85209:0:0:0:0:
448,192,84893,1,0,0:0:0:0:
64,192,85209,1,8,0:0:0:0:
192,192,85209,1,2,0:0:0:0:
448,192,85209,1,0,0:0:0:0:
320,192,85525,1,2,0:0:0:0:
448,192,85525,1,0,0:0:0:0:
64,192,85683,1,2,0:0:0:0:
192,192,85683,1,8,0:0:0:0:
64,192,85841,1,8,0:0:0:0:
192,192,85841,1,2,0:0:0:0:
320,192,85998,1,2,0:0:0:0:
448,192,85998,1,0,0:0:0:0:
64,192,86314,1,2,0:0:0:0:
192,192,86314,1,4,0:0:0:0:
448,192,86314,1,0,0:0:0:0:
64,192,86630,1,2,0:0:0:0:
192,192,86630,1,0,0:0:0:0:
448,192,86630,1,0,0:0:0:0:
320,192,86946,1,8,0:0:0:0:
448,192,86946,1,2,0:0:0:0:
320,192,87104,1,8,0:0:0:0:
448,192,87104,1,2,0:0:0:0:
64,192,87262,1,8,0:0:0:0:
192,192,87262,1,2,0:0:0:0:
64,192,87419,1,2,0:0:0:0:
320,192,87419,1,4,0:0:0:0:
448,192,87419,1,0,0:0:0:0:
320,192,87735,1,8,0:0:0:0:
448,192,87735,1,2,0:0:0:0:
64,192,87893,1,2,0:0:0:0:
192,192,87893,1,0,0:0:0:0:
64,192,88209,1,8,0:0:0:0:
320,192,88209,1,4,0:0:0:0:
448,192,88209,1,2,0:0:0:0:
192,192,88525,1,8,0:0:0:0:
320,192,88525,1,2,0:0:0:0:
192,192,88683,1,8,0:0:0:0:
320,192,88683,1,2,0:0:0:0:
64,192,88841,1,2,0:0:0:0:
320,192,88841,1,4,0:0:0:0:
448,192,88841,1,0,0:0:0:0:
64,192,89156,1,2,0:0:0:0:
192,192,89156,1,0,0:0:0:0:
64,192,89314,1,2,0:0:0:0:
192,192,89314,1,0,0:0:0:0:
64,192,89472,1,8,0:0:0:0:
448,192,89472,1,2,0:0:0:0:
192,192,89630,1,0,0:0:0:0:
320,192,89788,1,0,0:0:0:0:
64,192,89946,1,2,0:0:0:0:
448,192,89946,1,0,0:0:0:0:
192,192,90104,1,0,0:0:0:0:
64,192,90262,1,8,0:0:0:0:
320,192,90262,1,2,0:0:0:0:
192,192,90419,1,0,0:0:0:0:
320,192,90577,1,2,0:0:0:0:
448,192,90577,1,0,0:0:0:0:
64,192,90735,1,8,0:0:0:0:
192,192,90735,1,2,0:0:0:0:
320,192,90893,1,0,0:0:0:0:
64,192,91051,1,2,0:0:0:0:
448,192,91051,1,0,0:0:0:0:
192,192,91209,1,0,0:0:0:0:
64,192,91367,1,2,0:0:0:0:
320,192,91367,1,0,0:0:0:0:
448,192,91367,1,0,0:0:0:0:
192,192,91683,1,0,0:0:0:0:
320,192,91841,1,2,0:0:0:0:
448,192,91841,1,0,0:0:0:0:
64,192,91998,1,8,0:0:0:0:
192,192,91998,1,2,0:0:0:0:
320,192,92156,1,2,0:0:0:0:
448,192,92156,1,0,0:0:0:0:
64,192,92314,1,8,0:0:0:0:
192,192,92314,1,2,0:0:0:0:
64,192,92472,1,2,0:0:0:0:
192,192,92472,128,4,92788:0:0:0:0:
448,192,92472,1,0,0:0:0:0:
320,192,92788,1,2,0:0:0:0:
448,192,92788,1,0,0:0:0:0:
64,192,92946,1,2,0:0:0:0:
192,192,92946,1,0,0:0:0:0:
64,192,93104,1,2,0:0:0:0:
192,192,93104,1,0,0:0:0:0:
320,192,93262,1,2,0:0:0:0:
448,192,93262,1,0,0:0:0:0:
320,192,93419,1,2,0:0:0:0:
448,192,93419,1,8,0:0:0:0:
64,192,93577,1,8,0:0:0:0:
192,192,93577,1,2,0:0:0:0:
64,192,93735,1,8,0:0:0:0:
192,192,93735,1,2,0:0:0:0:
64,192,93893,1,2,0:0:0:0:
320,192,93893,1,4,0:0:0:0:
448,192,93893,1,0,0:0:0:0:
192,192,94209,1,2,0:0:0:0:
448,192,94209,1,0,0:0:0:0:
192,192,94367,1,2,0:0:0:0:
448,192,94367,1,0,0:0:0:0:
64,192,94525,1,8,0:0:0:0:
320,192,94525,1,4,0:0:0:0:
448,192,94525,128,2,94841:0:0:0:0:
64,192,94841,128,0,94998:0:0:0:0:
192,192,94998,1,4,0:0:0:0:
320,192,94998,128,2,95314:0:0:0:0:
448,192,94998,1,0,0:0:0:0:
64,192,95314,1,2,0:0:0:0:
448,192,95314,1,0,0:0:0:0:
192,192,95472,128,0,95630:0:0:0:0:
320,192,95630,1,2,0:0:0:0:
448,192,95630,1,0,0:0:0:0:
64,192,95788,1,8,0:0:0:0:
192,192,95788,1,2,0:0:0:0:
448,192,95788,128,0,96104:0:0:0:0:
64,192,96104,128,0,96262:0:0:0:0:
320,192,96262,1,8,0:0:0:0:
448,192,96262,1,2,0:0:0:0:
64,192,96419,1,4,0:0:0:0:
192,192,96419,1,2,0:0:0:0:
448,192,96419,1,0,0:0:0:0:
320,192,96735,1,2,0:0:0:0:
448,192,96735,1,0,0:0:0:0:
320,192,96893,1,2,0:0:0:0:
448,192,96893,1,0,0:0:0:0:
64,192,97051,1,8,0:0:0:0:
192,192,97051,1,2,0:0:0:0:
64,192,97209,1,8,0:0:0:0:
192,192,97209,1,2,0:0:0:0:
320,192,97367,1,8,0:0:0:0:
448,192,97367,1,2,0:0:0:0:
64,192,97525,1,4,0:0:0:0:
320,192,97525,128,2,97841:0:0:0:0:
448,192,97525,1,0,0:0:0:0:
64,192,97841,1,8,0:0:0:0:
192,192,97841,1,2,0:0:0:0:
64,192,97998,128,4,98314:0:0:0:0:
320,192,97998,1,2,0:0:0:0:
448,192,97998,1,0,0:0:0:0:
320,192,98314,1,8,0:0:0:0:
448,192,98314,1,2,0:0:0:0:
192,192,98419,1,10,0:0:0:0:
64,192,98525,1,10,0:0:0:0:
448,192,98630,1,2,0:0:0:0:
320,192,98735,1,2,0:0:0:0:
192,192,98841,1,2,0:0:0:0:
64,192,98946,1,4,0:0:0:0:
320,192,98946,128,2,99577:0:0:0:0:
448,192,98946,128,0,99577:0:0:0:0:
320,192,100051,1,0,0:0:0:0:
64,192,100209,1,2,0:0:0:0:
192,192,100209,1,4,0:0:0:0:
448,192,100209,128,0,100367:0:0:0:0:
64,192,100525,128,0,100683:0:0:0:0:
192,192,100841,128,2,100998:0:0:0:0:
320,192,100841,1,4,0:0:0:0:
448,192,100841,1,0,0:0:0:0:
320,192,101156,128,0,101314:0:0:0:0:
64,192,101472,128,2,102735:0:0:0:0:
192,192,101472,128,4,102735:0:0:0:0:
448,192,101472,128,0,102735:0:0:0:0:
320,192,103367,128,0,103683:0:0:0:0:
192,192,103683,128,0,103998:0:0:0:0:
64,192,103998,1,2,0:0:0:0:
320,192,103998,1,4,0:0:0:0:
448,192,103998,128,0,104472:0:0:0:0:
64,192,104314,1,2,0:0:0:0:
192,192,104314,1,0,0:0:0:0:
64,192,104472,1,2,0:0:0:0:
192,192,104472,1,0,0:0:0:0:
64,192,104630,1,8,0:0:0:0:
320,192,104630,1,2,0:0:0:0:
448,192,104630,128,0,104946:0:0:0:0:
192,192,104946,1,2,0:0:0:0:
320,192,104946,1,8,0:0:0:0:
64,192,105104,1,2,0:0:0:0:
192,192,105104,128,4,105419:0:0:0:0:
448,192,105104,1,0,0:0:0:0:
320,192,105419,1,0,0:0:0:0:
64,192,105577,1,2,0:0:0:0:
192,192,105577,128,0,105893:0:0:0:0:
64,192,105893,1,8,0:0:0:0:
320,192,105893,1,2,0:0:0:0:
448,192,105893,1,0,0:0:0:0:
448,192,106209,1,0,0:0:0:0:
192,192,106367,1,8,0:0:0:0:
320,192,106367,1,2,0:0:0:0:
64,192,106525,128,2,106998:0:0:0:0:
192,192,106525,1,4,0:0:0:0:
448,192,106525,1,8,0:0:0:0:
320,192,106841,1,2,0:0:0:0:
448,192,106841,1,0,0:0:0:0:
320,192,106998,1,2,0:0:0:0:
448,192,106998,1,0,0:0:0:0:
64,192,107156,1,8,0:0:0:0:
192,192,107156,1,2,0:0:0:0:
64,192,107314,1,8,0:0:0:0:
192,192,107314,1,2,0:0:0:0:
320,192,107472,1,2,0:0:0:0:
448,192,107472,1,0,0:0:0:0:
64,192,107630,1,2,0:0:0:0:
320,192,107630,128,8,107946:0:0:0:0:
448,192,107630,1,4,0:0:0:0:
192,192,107946,1,8,0:0:0:0:
448,192,107946,1,2,0:0:0:0:
320,192,108104,128,2,108419:0:0:0:0:
448,192,108104,1,0,0:0:0:0:
64,192,108419,1,8,0:0:0:0:
192,192,108419,1,2,0:0:0:0:
448,192,108419,1,0,0:0:0:0:
192,192,108735,1,8,0:0:0:0:
448,192,108735,1,2,0:0:0:0:
192,192,108893,1,8,0:0:0:0:
448,192,108893,1,2,0:0:0:0:
64,192,109051,1,2,0:0:0:0:
320,192,109051,1,4,0:0:0:0:
448,192,109051,128,0,109525:0:0:0:0:
64,192,109367,1,2,0:0:0:0:
192,192,109367,1,0,0:0:0:0:
64,192,109525,1,2,0:0:0:0:
192,192,109525,1,0,0:0:0:0:
64,192,109683,1,8,0:0:0:0:
320,192,109683,1,2,0:0:0:0:
448,192,109683,128,0,109998:0:0:0:0:
192,192,109998,1,2,0:0:0:0:
320,192,109998,1,8,0:0:0:0:
64,192,110156,1,2,0:0:0:0:
192,192,110156,128,4,110472:0:0:0:0:
448,192,110156,1,0,0:0:0:0:
64,192,110472,1,2,0:0:0:0:
320,192,110472,1,8,0:0:0:0:
64,192,110630,1,2,0:0:0:0:
192,192,110630,128,0,110946:0:0:0:0:
320,192,110946,1,8,0:0:0:0:
448,192,110946,1,2,0:0:0:0:
64,192,111104,1,2,0:0:0:0:
448,192,111104,1,0,0:0:0:0:
320,192,111419,1,2,0:0:0:0:
448,192,111419,1,0,0:0:0:0:
64,192,111577,128,2,112051:0:0:0:0:
192,192,111577,1,8,0:0:0:0:
448,192,111577,1,4,0:0:0:0:
320,192,111893,1,2,0:0:0:0:
448,192,111893,1,0,0:0:0:0:
320,192,112051,1,2,0:0:0:0:
448,192,112051,1,0,0:0:0:0:
64,192,112209,1,8,0:0:0:0:
192,192,112209,1,2,0:0:0:0:
64,192,112367,1,2,0:0:0:0:
192,192,112367,1,0,0:0:0:0:
320,192,112525,1,2,0:0:0:0:
448,192,112525,1,8,0:0:0:0:
64,192,112683,1,2,0:0:0:0:
320,192,112683,128,8,112998:0:0:0:0:
448,192,112683,1,4,0:0:0:0:
192,192,112998,1,8,0:0:0:0:
448,192,112998,1,2,0:0:0:0:
320,192,113156,128,2,113472:0:0:0:0:
448,192,113156,1,0,0:0:0:0:
64,192,113472,1,8,0:0:0:0:
192,192,113472,1,2,0:0:0:0:
448,192,113472,1,0,0:0:0:0:
192,192,113788,1,8,0:0:0:0:
320,192,113788,1,2,0:0:0:0:
192,192,113946,1,8,0:0:0:0:
320,192,113946,1,2,0:0:0:0:
64,192,114104,1,4,0:0:0:0:
320,192,114104,1,2,0:0:0:0:
448,192,114104,128,0,114577:0:0:0:0:
64,192,114419,1,2,0:0:0:0:
192,192,114419,1,0,0:0:0:0:
64,192,114577,1,2,0:0:0:0:
192,192,114577,1,0,0:0:0:0:
64,192,114735,1,2,0:0:0:0:
320,192,114735,1,8,0:0:0:0:
448,192,114735,128,4,115051:0:0:0:0:
192,192,115051,1,0,0:0:0:0:
320,192,115051,1,0,0:0:0:0:
64,192,115209,1,4,0:0:0:0:
192,192,115209,128,2,115525:0:0:0:0:
448,192,115209,1,0,0:0:0:0:
320,192,115525,1,0,0:0:0:0:
64,192,115683,1,2,0:0:0:0:
192,192,115683,128,0,115998:0:0:0:0:
64,192,115998,1,8,0:0:0:0:
320,192,115998,1,2,0:0:0:0:
448,192,115998,1,0,0:0:0:0:
448,192,116314,1,0,0:0:0:0:
192,192,116472,1,8,0:0:0:0:
320,192,116472,1,2,0:0:0:0:
64,192,116630,128,4,117262:0:0:0:0:
192,192,116630,1,2,0:0:0:0:
448,192,116630,1,8,0:0:0:0:
320,192,116946,1,2,0:0:0:0:
448,192,116946,1,4,0:0:0:0:
320,192,117262,1,8,0:0:0:0:
448,192,117262,1,2,0:0:0:0:
320,192,117419,1,8,0:0:0:0:
448,192,117419,1,2,0:0:0:0:
64,192,117577,1,2,0:0:0:0:
192,192,117577,1,0,0:0:0:0:
64,192,117735,1,4,0:0:0:0:
320,192,117735,128,8,118051:0:0:0:0:
448,192,117735,1,2,0:0:0:0:
192,192,118051,1,8,0:0:0:0:
448,192,118051,1,2,0:0:0:0:
320,192,118209,128,2,118525:0:0:0:0:
448,192,118209,1,0,0:0:0:0:
64,192,118525,1,8,0:0:0:0:
192,192,118525,1,2,0:0:0:0:
448,192,118525,1,0,0:0:0:0:
192,192,118841,1,8,0:0:0:0:
448,192,118841,1,2,0:0:0:0:
192,192,118998,1,8,0:0:0:0:
448,192,118998,1,2,0:0:0:0:
64,192,119156,1,2,0:0:0:0:
320,192,119156,1,4,0:0:0:0:
448,192,119156,128,0,119630:0:0:0:0:
64,192,119472,1,2,0:0:0:0:
192,192,119472,1,0,0:0:0:0:
64,192,119630,1,2,0:0:0:0:
192,192,119630,1,0,0:0:0:0:
64,192,119788,1,8,0:0:0:0:
320,192,119788,1,2,0:0:0:0:
448,192,119788,128,0,120104:0:0:0:0:
192,192,120104,1,2,0:0:0:0:
320,192,120104,1,0,0:0:0:0:
64,192,120262,1,2,0:0:0:0:
192,192,120262,128,4,120577:0:0:0:0:
448,192,120262,1,8,0:0:0:0:
320,192,120577,1,0,0:0:0:0:
64,192,120735,1,8,0:0:0:0:
192,192,120735,1,2,0:0:0:0:
64,192,120893,1,8,0:0:0:0:
192,192,120893,1,2,0:0:0:0:
320,192,121051,1,8,0:0:0:0:
448,192,121051,1,2,0:0:0:0:
320,192,121209,1,0,0:0:0:0:
448,192,121209,1,0,0:0:0:0:
64,192,121367,1,2,0:0:0:0:
192,192,121367,1,0,0:0:0:0:
64,192,121683,128,2,121998:0:0:0:0:
192,192,121683,1,4,0:0:0:0:
448,192,121683,1,8,0:0:0:0:
320,192,121998,1,8,0:0:0:0:
448,192,121998,1,2,0:0:0:0:
64,192,122156,1,2,0:0:0:0:
192,192,122156,1,4,0:0:0:0:
448,192,122156,1,0,0:0:0:0:
320,192,122314,1,0,0:0:0:0:
64,192,122472,1,2,0:0:0:0:
192,192,122472,1,0,0:0:0:0:
64,192,122630,1,2,0:0:0:0:
320,192,122630,128,8,122946:0:0:0:0:
448,192,122630,1,0,0:0:0:0:
64,192,122946,1,2,0:0:0:0:
448,192,122946,1,4,0:0:0:0:
192,192,123051,1,0,0:0:0:0:
320,192,123156,1,10,0:0:0:0:
448,192,123262,1,10,0:0:0:0:
192,192,123367,1,10,0:0:0:0:
320,192,123472,1,10,0:0:0:0:
64,192,123577,1,10,0:0:0:0:
192,192,123683,1,10,0:0:0:0:
320,192,123788,1,2,0:0:0:0:
448,192,123893,1,2,0:0:0:0:
192,192,123998,1,2,0:0:0:0:
320,192,124104,1,2,0:0:0:0:
64,192,124209,128,4,124525:0:0:0:0:
192,192,124209,128,2,124525:0:0:0:0:
448,192,124209,1,0,0:0:0:0:
448,192,124525,1,0,0:0:0:0:
320,192,124683,1,0,0:0:0:0:
192,192,124841,1,0,0:0:0:0:
320,192,125156,1,0,0:0:0:0:
64,192,125314,1,0,0:0:0:0:
448,192,125472,1,0,0:0:0:0:
320,192,125630,1,0,0:0:0:0:
192,192,125788,1,0,0:0:0:0:
320,192,126104,1,0,0:0:0:0:
64,192,126262,1,0,0:0:0:0:
448,192,126419,1,0,0:0:0:0:
320,192,126577,1,0,0:0:0:0:
192,192,126735,1,0,0:0:0:0:
448,192,126893,1,0,0:0:0:0:
64,192,127051,1,0,0:0:0:0:
192,192,127209,1,0,0:0:0:0:
320,192,127367,1,0,0:0:0:0:
192,192,127683,1,0,0:0:0:0:
448,192,127841,1,0,0:0:0:0:
64,192,127998,1,0,0:0:0:0:
192,192,128156,1,0,0:0:0:0:
448,192,128314,1,0,0:0:0:0:
64,192,128630,1,0,0:0:0:0:
320,192,128788,1,0,0:0:0:0:
192,192,128946,1,0,0:0:0:0:
320,192,129262,1,0,0:0:0:0:
64,192,129419,1,0,0:0:0:0:
448,192,129577,1,0,0:0:0:0:
320,192,129735,1,0,0:0:0:0:
192,192,129893,1,0,0:0:0:0:
320,192,130209,1,0,0:0:0:0:
64,192,130367,1,0,0:0:0:0:
448,192,130525,1,0,0:0:0:0:
320,192,130683,1,0,0:0:0:0:
192,192,130841,1,0,0:0:0:0:
320,192,131156,1,0,0:0:0:0:
64,192,131314,1,0,0:0:0:0:
448,192,131472,1,0,0:0:0:0:
320,192,131630,1,0,0:0:0:0:
192,192,131788,1,0,0:0:0:0:
448,192,131946,1,0,0:0:0:0:
64,192,132104,1,0,0:0:0:0:
192,192,132262,1,0,0:0:0:0:
320,192,132420,1,0,0:0:0:0:
192,192,132735,1,0,0:0:0:0:
448,192,132893,1,0,0:0:0:0:
64,192,133051,1,0,0:0:0:0:
192,192,133209,1,0,0:0:0:0:
448,192,133367,1,0,0:0:0:0:
192,192,133683,1,0,0:0:0:0:
320,192,133841,1,0,0:0:0:0:
64,192,133998,1,0,0:0:0:0:
448,192,134156,1,0,0:0:0:0:
