osu file format v14

[General]
AudioFilename: audio.mp3
AudioLeadIn: 0
PreviewTime: 77472
Countdown: 0
SampleSet: Soft
StackLeniency: 0.7
Mode: 3
LetterboxInBreaks: 0
SpecialStyle: 0
WidescreenStoryboard: 1
SamplesMatchPlaybackRate: 1

[Editor]
Bookmarks: 10525,20630,40841
DistanceSpacing: 0.7
BeatDivisor: 4
GridSize: 8
TimelineZoom: 1.2

[Metadata]
Title:Towa ni Saku Hana
TitleUnicode:永遠に咲く花
Artist:AiRI
ArtistUnicode:AiRI
Creator:MCPXiaoBai
Version:Easy
Source:枯れない世界と終わる花
Tags:The rainbow appears after flowering rain karehana kareseka Sweet & Tea visual novel vn eroge op opening short version video game japanese pop jpop j-pop dudehacker drum-hitnormal muse dash
BeatmapID:2261110
BeatmapSetID:1080804

[Difficulty]
HPDrainRate:7
CircleSize:4
OverallDifficulty:7
ApproachRate:5
SliderMultiplier:1.4
SliderTickRate:1

[Events]
//Background and Video events
0,0,"91vAS2HR8eL.09._SCLZZZZZZZ_.jpg",0,0
//Break Periods
//Storyboard Layer 0 (Background)
//Storyboard Layer 1 (Fail)
//Storyboard Layer 2 (Pass)
//Storyboard Layer 3 (Foreground)
//Storyboard Layer 4 (Overlay)
//Storyboard Sound Samples

[TimingPoints]
420,631.578947368421,4,2,1,11,1,0
20630,-100,4,2,1,22,0,0
39577,-100,4,2,1,45,0,0
78735,-100,4,2,1,45,0,1
98946,-100,4,2,1,45,0,0
103998,-100,4,2,1,45,0,1
124209,-100,4,2,1,45,0,0

[HitObjects]
192,192,420,5,0,0:0:0:0:
192,192,1367,1,0,0:0:0:0:
320,192,2946,1,0,0:0:0:0:
192,192,3420,1,0,0:0:0:0:
448,192,3893,1,0,0:0:0:0:
64,192,5472,1,0,0:0:0:0:
64,192,6420,1,0,0:0:0:0:
448,192,7998,1,0,0:0:0:0:
64,192,8472,1,0,0:0:0:0:
320,192,8946,1,0,0:0:0:0:
192,192,10525,1,0,0:0:0:0:
448,192,11156,1,8,0:0:0:0:
192,192,11472,1,0,0:0:0:0:
320,192,12419,1,8,0:0:0:0:
64,192,13051,1,0,0:0:0:0:
448,192,13525,1,0,0:0:0:0:
192,192,13998,1,0,0:0:0:0:
320,192,14946,1,8,0:0:0:0:
448,192,15577,1,0,0:0:0:0:
64,192,16209,1,8,0:0:0:0:
448,192,16525,1,0,0:0:0:0:
192,192,17472,1,8,0:0:0:0:
320,192,18104,1,0,0:0:0:0:
64,192,18577,1,0,0:0:0:0:
448,192,19051,1,0,0:0:0:0:
192,192,19525,1,8,0:0:0:0:
320,192,19998,1,8,0:0:0:0:
64,192,20630,1,0,0:0:0:0:
448,192,21262,1,8,0:0:0:0:
192,192,21577,1,0,0:0:0:0:
320,192,22051,1,8,0:0:0:0:
192,192,22525,1,8,0:0:0:0:
448,192,23156,1,0,0:0:0:0:
64,192,23630,1,0,0:0:0:0:
320,192,24104,1,0,0:0:0:0:
192,192,24577,1,8,0:0:0:0:
64,192,25051,1,8,0:0:0:0:
448,192,25683,1,0,0:0:0:0:
64,192,26314,1,8,0:0:0:0:
320,192,26630,1,0,0:0:0:0:
192,192,27104,1,8,0:0:0:0:
320,192,27577,1,8,0:0:0:0:
64,192,28209,1,0,0:0:0:0:
448,192,28683,1,0,0:0:0:0:
192,192,29156,1,0,0:0:0:0:
320,192,29630,1,8,0:0:0:0:
448,192,30104,1,8,0:0:0:0:
192,192,30735,1,0,0:0:0:0:
320,192,31367,1,8,0:0:0:0:
64,192,31683,1,0,0:0:0:0:
448,192,32156,1,8,0:0:0:0:
64,192,32630,1,8,0:0:0:0:
320,192,33262,1,0,0:0:0:0:
192,192,33735,1,0,0:0:0:0:
448,192,34209,1,0,0:0:0:0:
64,192,34683,1,8,0:0:0:0:
320,192,35156,1,8,0:0:0:0:
192,192,35788,1,0,0:0:0:0:
64,192,36420,1,8,0:0:0:0:
320,192,37051,1,0,0:0:0:0:
192,192,37683,1,8,0:0:0:0:
448,192,38314,1,0,0:0:0:0:
320,192,38946,1,8,0:0:0:0:
64,192,39893,1,2,0:0:0:0:
192,192,40209,1,8,0:0:0:0:
320,192,40209,1,2,0:0:0:0:
320,192,40841,1,4,0:0:0:0:
448,192,40841,1,2,0:0:0:0:
448,192,41314,1,2,0:0:0:0:
192,192,41788,1,0,0:0:0:0:
448,192,42420,1,2,0:0:0:0:
64,192,42735,1,8,0:0:0:0:
192,192,42735,1,2,0:0:0:0:
320,192,43367,1,2,0:0:0:0:
64,192,43841,1,8,0:0:0:0:
192,192,43841,1,2,0:0:0:0:
320,192,44314,1,2,0:0:0:0:
320,192,44946,1,2,0:0:0:0:
192,192,45262,1,8,0:0:0:0:
448,192,45262,1,2,0:0:0:0:
64,192,45893,1,2,0:0:0:0:
64,192,46367,1,2,0:0:0:0:
320,192,46841,1,0,0:0:0:0:
64,192,47472,1,2,0:0:0:0:
320,192,47788,1,8,0:0:0:0:
448,192,47788,1,2,0:0:0:0:
192,192,48420,1,2,0:0:0:0:
320,192,48893,1,8,0:0:0:0:
448,192,48893,1,2,0:0:0:0:
192,192,49367,1,2,0:0:0:0:
192,192,49998,1,2,0:0:0:0:
64,192,50314,1,8,0:0:0:0:
448,192,50314,1,2,0:0:0:0:
320,192,50946,1,2,0:0:0:0:
448,192,50946,1,4,0:0:0:0:
320,192,51420,1,2,0:0:0:0:
192,192,51893,1,0,0:0:0:0:
320,192,52525,1,2,0:0:0:0:
64,192,52841,1,8,0:0:0:0:
192,192,52841,1,2,0:0:0:0:
192,192,53472,1,2,0:0:0:0:
320,192,53946,1,8,0:0:0:0:
448,192,53946,1,2,0:0:0:0:
192,192,54420,1,2,0:0:0:0:
192,192,55051,1,2,0:0:0:0:
64,192,55367,1,2,0:0:0:0:
448,192,55367,1,8,0:0:0:0:
320,192,55998,1,2,0:0:0:0:
64,192,56630,1,8,0:0:0:0:
192,192,56630,1,2,0:0:0:0:
320,192,57104,1,2,0:0:0:0:
64,192,57577,1,2,0:0:0:0:
320,192,57893,1,8,0:0:0:0:
448,192,57893,1,2,0:0:0:0:
192,192,58525,1,2,0:0:0:0:
320,192,59156,1,8,0:0:0:0:
448,192,59156,1,2,0:0:0:0:
64,192,59630,1,2,0:0:0:0:
192,192,59630,1,4,0:0:0:0:
320,192,60104,1,2,0:0:0:0:
192,192,60420,1,10,0:0:0:0:
448,192,60735,1,2,0:0:0:0:
64,192,61051,1,2,0:0:0:0:
192,192,61051,1,4,0:0:0:0:
192,192,62946,1,0,0:0:0:0:
448,192,63577,1,0,0:0:0:0:
64,192,64841,1,0,0:0:0:0:
192,192,65156,1,2,0:0:0:0:
320,192,65472,1,2,0:0:0:0:
448,192,65788,1,2,0:0:0:0:
64,192,66104,1,2,0:0:0:0:
192,192,66104,1,4,0:0:0:0:
192,192,66735,1,2,0:0:0:0:
192,192,67998,1,2,0:0:0:0:
320,192,69262,1,2,0:0:0:0:
320,192,70525,1,2,0:0:0:0:
64,192,71156,1,2,0:0:0:0:
192,192,71788,1,2,0:0:0:0:
320,192,72419,1,2,0:0:0:0:
448,192,73051,1,2,0:0:0:0:
64,192,73683,1,2,0:0:0:0:
192,192,73683,1,8,0:0:0:0:
320,192,74314,1,2,0:0:0:0:
192,192,74630,1,10,0:0:0:0:
448,192,74946,1,2,0:0:0:0:
64,192,75262,1,10,0:0:0:0:
320,192,75577,1,2,0:0:0:0:
192,192,75893,1,2,0:0:0:0:
320,192,76209,1,2,0:0:0:0:
448,192,76209,1,4,0:0:0:0:
64,192,76683,1,4,0:0:0:0:
192,192,76683,1,2,0:0:0:0:
320,192,77156,1,4,0:0:0:0:
448,192,77156,1,2,0:0:0:0:
192,192,78104,1,2,0:0:0:0:
64,192,78735,128,4,79367:0:0:0:0:
192,192,78735,1,2,0:0:0:0:
320,192,79367,1,8,0:0:0:0:
448,192,79367,1,2,0:0:0:0:
192,192,79841,1,2,0:0:0:0:
64,192,80156,1,8,0:0:0:0:
192,192,80156,1,2,0:0:0:0:
64,192,80630,1,8,0:0:0:0:
448,192,80630,1,2,0:0:0:0:
320,192,80946,1,2,0:0:0:0:
192,192,81262,1,2,0:0:0:0:
192,192,81577,128,2,81893:0:0:0:0:
320,192,81893,1,8,0:0:0:0:
448,192,81893,1,2,0:0:0:0:
192,192,82367,1,2,0:0:0:0:
64,192,82683,1,8,0:0:0:0:
192,192,82683,1,2,0:0:0:0:
64,192,83156,1,8,0:0:0:0:
448,192,83156,1,2,0:0:0:0:
192,192,83630,1,10,0:0:0:0:
320,192,83788,1,2,0:0:0:0:
448,192,83788,128,4,84419:0:0:0:0:
64,192,84419,1,8,0:0:0:0:
192,192,84419,1,2,0:0:0:0:
320,192,84893,1,2,0:0:0:0:
320,192,85209,1,8,0:0:0:0:
448,192,85209,1,2,0:0:0:0:
64,192,85683,1,2,0:0:0:0:
448,192,85683,1,8,0:0:0:0:
320,192,85998,1,2,0:0:0:0:
64,192,86314,1,2,0:0:0:0:
192,192,86314,1,4,0:0:0:0:
64,192,86630,1,2,0:0:0:0:
192,192,86630,1,0,0:0:0:0:
320,192,86946,1,8,0:0:0:0:
448,192,86946,1,2,0:0:0:0:
192,192,87262,1,10,0:0:0:0:
320,192,87419,1,2,0:0:0:0:
448,192,87419,1,4,0:0:0:0:
320,192,87893,1,2,0:0:0:0:
448,192,87893,1,0,0:0:0:0:
64,192,88209,1,12,0:0:0:0:
192,192,88209,1,2,0:0:0:0:
64,192,88525,1,8,0:0:0:0:
192,192,88525,1,2,0:0:0:0:
320,192,88841,1,2,0:0:0:0:
448,192,88841,1,4,0:0:0:0:
320,192,89156,128,2,89472:0:0:0:0:
64,192,89472,1,8,0:0:0:0:
192,192,89472,1,2,0:0:0:0:
320,192,89946,1,2,0:0:0:0:
320,192,90262,1,8,0:0:0:0:
448,192,90262,1,2,0:0:0:0:
64,192,90735,1,8,0:0:0:0:
448,192,90735,1,2,0:0:0:0:
320,192,91051,1,2,0:0:0:0:
192,192,91367,1,2,0:0:0:0:
448,192,91841,1,2,0:0:0:0:
64,192,91998,1,8,0:0:0:0:
192,192,91998,1,2,0:0:0:0:
320,192,92314,1,10,0:0:0:0:
64,192,92472,1,2,0:0:0:0:
192,192,92472,1,4,0:0:0:0:
64,192,92946,1,2,0:0:0:0:
192,192,92946,1,0,0:0:0:0:
320,192,93262,1,2,0:0:0:0:
448,192,93262,1,0,0:0:0:0:
320,192,93577,1,8,0:0:0:0:
448,192,93577,1,2,0:0:0:0:
64,192,93893,1,2,0:0:0:0:
192,192,93893,1,4,0:0:0:0:
192,192,94209,128,2,94525:0:0:0:0:
320,192,94525,1,12,0:0:0:0:
448,192,94525,1,2,0:0:0:0:
64,192,94998,1,4,0:0:0:0:
192,192,94998,1,2,0:0:0:0:
320,192,95314,1,2,0:0:0:0:
448,192,95314,1,0,0:0:0:0:
64,192,95788,1,8,0:0:0:0:
448,192,95788,1,2,0:0:0:0:
192,192,96104,1,0,0:0:0:0:
320,192,96419,1,4,0:0:0:0:
448,192,96419,1,2,0:0:0:0:
64,192,96735,1,2,0:0:0:0:
192,192,96735,1,0,0:0:0:0:
320,192,97051,1,8,0:0:0:0:
448,192,97051,1,2,0:0:0:0:
192,192,97367,1,10,0:0:0:0:
320,192,97525,1,4,0:0:0:0:
448,192,97525,1,2,0:0:0:0:
320,192,97998,1,4,0:0:0:0:
448,192,97998,1,2,0:0:0:0:
64,192,98314,1,8,0:0:0:0:
192,192,98314,1,2,0:0:0:0:
64,192,98630,1,2,0:0:0:0:
192,192,98630,1,0,0:0:0:0:
320,192,98946,1,4,0:0:0:0:
448,192,98946,1,2,0:0:0:0:
192,192,100209,1,2,0:0:0:0:
320,192,100209,1,4,0:0:0:0:
192,192,100841,1,2,0:0:0:0:
320,192,100841,1,4,0:0:0:0:
192,192,101472,1,2,0:0:0:0:
320,192,101472,1,4,0:0:0:0:
64,192,103998,1,2,0:0:0:0:
192,192,103998,1,4,0:0:0:0:
192,192,104314,128,2,104630:0:0:0:0:
320,192,104630,1,8,0:0:0:0:
448,192,104630,1,2,0:0:0:0:
320,192,104946,1,10,0:0:0:0:
64,192,105104,1,2,0:0:0:0:
192,192,105104,1,4,0:0:0:0:
320,192,105577,1,2,0:0:0:0:
64,192,105893,1,8,0:0:0:0:
448,192,105893,1,2,0:0:0:0:
192,192,106209,1,0,0:0:0:0:
320,192,106525,1,6,0:0:0:0:
448,192,106525,1,8,0:0:0:0:
320,192,106841,128,2,107156:0:0:0:0:
64,192,107156,1,8,0:0:0:0:
192,192,107156,1,2,0:0:0:0:
320,192,107472,1,2,0:0:0:0:
64,192,107630,1,10,0:0:0:0:
448,192,107630,1,4,0:0:0:0:
192,192,107946,1,8,0:0:0:0:
320,192,107946,1,2,0:0:0:0:
64,192,108419,1,8,0:0:0:0:
448,192,108419,1,2,0:0:0:0:
320,192,108735,128,10,109051:0:0:0:0:
64,192,109051,1,2,0:0:0:0:
192,192,109051,1,4,0:0:0:0:
192,192,109367,128,2,109683:0:0:0:0:
320,192,109683,1,8,0:0:0:0:
448,192,109683,1,2,0:0:0:0:
320,192,109998,1,10,0:0:0:0:
64,192,110156,1,2,0:0:0:0:
192,192,110156,1,4,0:0:0:0:
320,192,110472,1,2,0:0:0:0:
448,192,110472,1,8,0:0:0:0:
64,192,110946,1,8,0:0:0:0:
448,192,110946,1,2,0:0:0:0:
192,192,111262,1,0,0:0:0:0:
320,192,111577,1,10,0:0:0:0:
448,192,111577,1,4,0:0:0:0:
320,192,111893,128,2,112209:0:0:0:0:
64,192,112209,1,8,0:0:0:0:
192,192,112209,1,2,0:0:0:0:
320,192,112525,1,10,0:0:0:0:
64,192,112683,1,10,0:0:0:0:
448,192,112683,1,4,0:0:0:0:
192,192,112998,1,8,0:0:0:0:
320,192,112998,1,2,0:0:0:0:
64,192,113472,1,8,0:0:0:0:
448,192,113472,1,2,0:0:0:0:
320,192,113788,128,10,114104:0:0:0:0:
64,192,114104,1,4,0:0:0:0:
192,192,114104,1,2,0:0:0:0:
192,192,114419,128,2,114735:0:0:0:0:
320,192,114735,1,10,0:0:0:0:
448,192,114735,1,4,0:0:0:0:
320,192,115051,1,0,0:0:0:0:
64,192,115209,1,4,0:0:0:0:
192,192,115209,1,2,0:0:0:0:
320,192,115683,1,2,0:0:0:0:
64,192,115998,1,8,0:0:0:0:
448,192,115998,1,2,0:0:0:0:
192,192,116314,1,0,0:0:0:0:
320,192,116630,1,6,0:0:0:0:
448,192,116630,1,8,0:0:0:0:
192,192,116946,1,2,0:0:0:0:
320,192,116946,1,4,0:0:0:0:
64,192,117262,1,8,0:0:0:0:
192,192,117262,1,2,0:0:0:0:
320,192,117577,1,2,0:0:0:0:
64,192,117735,1,12,0:0:0:0:
448,192,117735,1,2,0:0:0:0:
192,192,118051,1,8,0:0:0:0:
320,192,118051,1,2,0:0:0:0:
64,192,118525,1,8,0:0:0:0:
448,192,118525,1,2,0:0:0:0:
320,192,118841,128,10,119156:0:0:0:0:
64,192,119156,1,2,0:0:0:0:
192,192,119156,1,4,0:0:0:0:
192,192,119472,128,2,119788:0:0:0:0:
320,192,119788,1,8,0:0:0:0:
448,192,119788,1,2,0:0:0:0:
320,192,120104,1,2,0:0:0:0:
64,192,120262,1,6,0:0:0:0:
192,192,120262,1,8,0:0:0:0:
320,192,120735,1,8,0:0:0:0:
448,192,120735,1,2,0:0:0:0:
64,192,121051,1,8,0:0:0:0:
192,192,121051,1,2,0:0:0:0:
320,192,121367,1,2,0:0:0:0:
448,192,121367,1,0,0:0:0:0:
64,192,121683,1,6,0:0:0:0:
192,192,121683,1,8,0:0:0:0:
192,192,121998,1,10,0:0:0:0:
320,192,122156,1,2,0:0:0:0:
448,192,122156,1,4,0:0:0:0:
320,192,122472,1,2,0:0:0:0:
64,192,122630,1,2,0:0:0:0:
192,192,122630,1,8,0:0:0:0:
320,192,122946,1,2,0:0:0:0:
448,192,122946,1,4,0:0:0:0:
320,192,123262,1,8,0:0:0:0:
448,192,123262,1,2,0:0:0:0:
64,192,123577,1,8,0:0:0:0:
192,192,123577,1,2,0:0:0:0:
64,192,123893,1,2,0:0:0:0:
192,192,123893,1,0,0:0:0:0:
320,192,124209,1,4,0:0:0:0:
448,192,124209,1,2,0:0:0:0:
448,192,125156,1,0,0:0:0:0:
448,192,126104,1,0,0:0:0:0:
64,192,126735,1,0,0:0:0:0:
64,192,127683,1,0,0:0:0:0:
192,192,128630,1,0,0:0:0:0:
320,192,129262,1,0,0:0:0:0:
320,192,130209,1,0,0:0:0:0:
320,192,131156,1,0,0:0:0:0:
192,192,131788,1,0,0:0:0:0:
192,192,132735,1,0,0:0:0:0:
192,192,133683,1,0,0:0:0:0:
448,192,134156,1,0,0:0:0:0:
