osu file format v14

[General]
AudioFilename: audio.mp3
AudioLeadIn: 0
PreviewTime: 77472
Countdown: 0
SampleSet: Soft
StackLeniency: 0.7
Mode: 3
LetterboxInBreaks: 0
SpecialStyle: 0
WidescreenStoryboard: 1

[Editor]
Bookmarks: 415,10525,20630,40836,61051
DistanceSpacing: 0.7
BeatDivisor: 4
GridSize: 8
TimelineZoom: 0.6999998

[Metadata]
Title:Towa ni Saku Hana
TitleUnicode:永遠に咲く花
Artist:AiRI
ArtistUnicode:AiRI
Creator:MCPXiaoBai
Version:DH vs. MCP's Normal
Source:枯れない世界と終わる花
Tags:The rainbow appears after flowering rain karehana kareseka Sweet & Tea visual novel vn eroge op opening short version video game japanese pop jpop j-pop dudehacker drum-hitnormal muse dash
BeatmapID:2295718
BeatmapSetID:1080804

[Difficulty]
HPDrainRate:7.5
CircleSize:4
OverallDifficulty:7.5
ApproachRate:5
SliderMultiplier:1.4
SliderTickRate:1

[Events]
//Background and Video events
0,0,"91vAS2HR8eL.09._SCLZZZZZZZ_.jpg",0,0
//Break Periods
//Storyboard Layer 0 (Background)
//Storyboard Layer 1 (Fail)
//Storyboard Layer 2 (Pass)
//Storyboard Layer 3 (Foreground)
//Storyboard Layer 4 (Overlay)
//Storyboard Sound Samples

[TimingPoints]
420,631.578947368421,4,2,1,11,1,0
20630,-100.0,4,2,1,22,0,0
39577,-100.0,4,2,1,45,0,0
78735,-100.0,4,2,1,45,0,1
98946,-100.0,4,2,1,45,0,0
103998,-100.0,4,2,1,45,0,1
124209,-100.0,4,2,1,45,0,0

[HitObjects]
64,192,420,1,0,0:0:0:0:
192,192,577,1,0,0:0:0:0:
448,192,735,1,0,0:0:0:0:
320,192,893,1,0,0:0:0:0:
192,192,1051,1,0,0:0:0:0:
64,192,1367,1,0,0:0:0:0:
192,192,1525,1,0,0:0:0:0:
448,192,1683,1,0,0:0:0:0:
320,192,1841,1,0,0:0:0:0:
192,192,1998,1,0,0:0:0:0:
64,192,2946,1,0,0:0:0:0:
192,192,2946,1,0,0:0:0:0:
64,192,3420,1,0,0:0:0:0:
192,192,3420,1,0,0:0:0:0:
448,192,3893,1,0,0:0:0:0:
320,192,4051,1,0,0:0:0:0:
64,192,4209,1,0,0:0:0:0:
192,192,4367,1,0,0:0:0:0:
320,192,4525,1,0,0:0:0:0:
448,192,4841,1,0,0:0:0:0:
64,192,5472,1,0,0:0:0:0:
192,192,5630,1,0,0:0:0:0:
448,192,5788,1,0,0:0:0:0:
320,192,5946,1,0,0:0:0:0:
192,192,6104,1,0,0:0:0:0:
64,192,6420,1,0,0:0:0:0:
192,192,6577,1,0,0:0:0:0:
448,192,6735,1,0,0:0:0:0:
320,192,6893,1,0,0:0:0:0:
192,192,7051,1,0,0:0:0:0:
64,192,7998,1,0,0:0:0:0:
192,192,7998,1,0,0:0:0:0:
64,192,8472,1,0,0:0:0:0:
192,192,8472,1,0,0:0:0:0:
448,192,8946,1,0,0:0:0:0:
320,192,9104,1,0,0:0:0:0:
64,192,9262,1,0,0:0:0:0:
192,192,9420,1,0,0:0:0:0:
448,192,9577,1,0,0:0:0:0:
320,192,9893,1,0,0:0:0:0:
192,192,10051,1,0,0:0:0:0:
64,192,10209,1,0,0:0:0:0:
448,192,10525,1,0,0:0:0:0:
320,192,10683,1,0,0:0:0:0:
64,192,10841,1,0,0:0:0:0:
192,192,10998,1,0,0:0:0:0:
320,192,11156,1,8,0:0:0:0:
448,192,11472,1,0,0:0:0:0:
320,192,11630,1,0,0:0:0:0:
64,192,11788,1,0,0:0:0:0:
192,192,11946,1,8,0:0:0:0:
320,192,12104,1,0,0:0:0:0:
192,192,12419,1,8,0:0:0:0:
320,192,13051,1,0,0:0:0:0:
448,192,13051,1,0,0:0:0:0:
320,192,13525,1,0,0:0:0:0:
448,192,13525,1,0,0:0:0:0:
64,192,13998,1,0,0:0:0:0:
192,192,14156,1,0,0:0:0:0:
448,192,14314,1,0,0:0:0:0:
320,192,14472,1,8,0:0:0:0:
192,192,14630,1,0,0:0:0:0:
64,192,14946,1,8,0:0:0:0:
448,192,15577,1,0,0:0:0:0:
320,192,15735,1,0,0:0:0:0:
64,192,15893,1,0,0:0:0:0:
192,192,16051,1,0,0:0:0:0:
320,192,16209,1,8,0:0:0:0:
448,192,16525,1,0,0:0:0:0:
320,192,16683,1,0,0:0:0:0:
64,192,16841,1,0,0:0:0:0:
192,192,16998,1,8,0:0:0:0:
320,192,17156,1,0,0:0:0:0:
192,192,17472,1,8,0:0:0:0:
320,192,18104,1,0,0:0:0:0:
448,192,18104,1,0,0:0:0:0:
448,192,18577,1,0,0:0:0:0:
192,192,18735,1,8,0:0:0:0:
320,192,18893,1,0,0:0:0:0:
64,192,19051,1,0,0:0:0:0:
448,192,19051,1,0,0:0:0:0:
192,192,19525,1,8,0:0:0:0:
320,192,19683,1,0,0:0:0:0:
192,192,19841,1,0,0:0:0:0:
64,192,19998,1,8,0:0:0:0:
448,192,20156,1,0,0:0:0:0:
320,192,20472,1,8,0:0:0:0:
64,192,20630,128,0,21577:0:0:0:0:
192,192,20630,1,0,0:0:0:0:
448,192,21262,1,8,0:0:0:0:
320,192,21577,1,0,0:0:0:0:
448,192,21577,128,0,22525:0:0:0:0:
192,192,22051,1,8,0:0:0:0:
64,192,22525,1,8,0:0:0:0:
192,192,22525,1,0,0:0:0:0:
64,192,23156,1,0,0:0:0:0:
192,192,23156,1,0,0:0:0:0:
64,192,23630,1,0,0:0:0:0:
192,192,23630,1,0,0:0:0:0:
320,192,23788,1,8,0:0:0:0:
320,192,24104,128,0,25051:0:0:0:0:
448,192,24104,1,0,0:0:0:0:
192,192,24577,1,8,0:0:0:0:
64,192,25051,1,8,0:0:0:0:
448,192,25051,1,0,0:0:0:0:
64,192,25683,1,0,0:0:0:0:
192,192,25683,128,0,26630:0:0:0:0:
448,192,26314,1,8,0:0:0:0:
320,192,26630,1,0,0:0:0:0:
448,192,26630,128,0,27577:0:0:0:0:
64,192,27104,1,8,0:0:0:0:
64,192,27577,1,8,0:0:0:0:
192,192,27577,1,0,0:0:0:0:
64,192,28209,1,0,0:0:0:0:
192,192,28209,1,0,0:0:0:0:
64,192,28683,1,0,0:0:0:0:
192,192,28683,1,0,0:0:0:0:
320,192,28841,1,8,0:0:0:0:
320,192,29156,128,0,30104:0:0:0:0:
448,192,29156,1,0,0:0:0:0:
64,192,29630,1,8,0:0:0:0:
64,192,30104,1,8,0:0:0:0:
192,192,30104,1,0,0:0:0:0:
192,192,30577,1,8,0:0:0:0:
320,192,30735,1,0,0:0:0:0:
448,192,30735,128,0,31683:0:0:0:0:
64,192,31367,1,8,0:0:0:0:
64,192,31683,128,0,32630:0:0:0:0:
192,192,31683,1,0,0:0:0:0:
320,192,32156,1,8,0:0:0:0:
320,192,32630,1,8,0:0:0:0:
448,192,32630,1,0,0:0:0:0:
320,192,33262,1,0,0:0:0:0:
448,192,33262,1,0,0:0:0:0:
320,192,33735,1,0,0:0:0:0:
448,192,33735,1,0,0:0:0:0:
192,192,33893,1,8,0:0:0:0:
64,192,34209,1,0,0:0:0:0:
192,192,34209,1,0,0:0:0:0:
448,192,34683,1,8,0:0:0:0:
192,192,34841,1,0,0:0:0:0:
320,192,34998,1,0,0:0:0:0:
64,192,35156,1,8,0:0:0:0:
192,192,35156,1,0,0:0:0:0:
64,192,35788,1,0,0:0:0:0:
192,192,35788,128,0,36420:0:0:0:0:
320,192,36420,1,8,0:0:0:0:
448,192,36420,1,0,0:0:0:0:
64,192,36735,1,0,0:0:0:0:
192,192,37051,1,0,0:0:0:0:
320,192,37051,128,0,37683:0:0:0:0:
64,192,37683,1,8,0:0:0:0:
448,192,37683,1,0,0:0:0:0:
192,192,37998,1,0,0:0:0:0:
320,192,38314,1,0,0:0:0:0:
448,192,38314,128,0,38946:0:0:0:0:
64,192,38946,1,8,0:0:0:0:
192,192,38946,1,0,0:0:0:0:
64,192,39893,1,2,0:0:0:0:
192,192,39893,1,0,0:0:0:0:
320,192,40209,1,8,0:0:0:0:
448,192,40209,1,2,0:0:0:0:
64,192,40367,1,2,0:0:0:0:
192,192,40367,1,0,0:0:0:0:
64,192,40841,1,4,0:0:0:0:
448,192,40841,1,2,0:0:0:0:
320,192,41314,1,2,0:0:0:0:
448,192,41314,1,0,0:0:0:0:
64,192,41788,1,0,0:0:0:0:
192,192,41788,1,0,0:0:0:0:
320,192,42420,1,2,0:0:0:0:
448,192,42420,1,0,0:0:0:0:
192,192,42577,1,0,0:0:0:0:
64,192,42735,1,8,0:0:0:0:
448,192,42735,1,2,0:0:0:0:
320,192,42893,1,0,0:0:0:0:
192,192,43051,1,0,0:0:0:0:
64,192,43367,1,2,0:0:0:0:
448,192,43367,1,0,0:0:0:0:
64,192,43841,1,8,0:0:0:0:
192,192,43841,1,2,0:0:0:0:
320,192,44314,1,2,0:0:0:0:
448,192,44314,1,0,0:0:0:0:
64,192,44630,1,0,0:0:0:0:
320,192,44946,1,2,0:0:0:0:
448,192,44946,1,0,0:0:0:0:
64,192,45262,1,8,0:0:0:0:
192,192,45262,1,2,0:0:0:0:
64,192,45893,1,2,0:0:0:0:
448,192,45893,1,0,0:0:0:0:
64,192,46367,1,2,0:0:0:0:
192,192,46367,1,0,0:0:0:0:
320,192,46841,1,0,0:0:0:0:
448,192,46841,1,0,0:0:0:0:
64,192,47472,1,2,0:0:0:0:
192,192,47472,1,0,0:0:0:0:
320,192,47630,1,0,0:0:0:0:
64,192,47788,1,8,0:0:0:0:
448,192,47788,1,2,0:0:0:0:
320,192,47946,1,0,0:0:0:0:
192,192,48104,1,0,0:0:0:0:
64,192,48420,1,2,0:0:0:0:
448,192,48420,1,0,0:0:0:0:
320,192,48893,1,8,0:0:0:0:
448,192,48893,1,2,0:0:0:0:
64,192,49367,1,2,0:0:0:0:
192,192,49367,1,0,0:0:0:0:
448,192,49683,1,0,0:0:0:0:
64,192,49998,1,2,0:0:0:0:
192,192,49998,1,0,0:0:0:0:
320,192,50156,1,0,0:0:0:0:
64,192,50314,1,8,0:0:0:0:
448,192,50314,1,2,0:0:0:0:
320,192,50472,1,0,0:0:0:0:
192,192,50630,1,0,0:0:0:0:
64,192,50946,1,2,0:0:0:0:
448,192,50946,1,4,0:0:0:0:
64,192,51420,1,2,0:0:0:0:
192,192,51420,1,0,0:0:0:0:
320,192,51893,1,0,0:0:0:0:
448,192,51893,1,0,0:0:0:0:
64,192,52525,1,2,0:0:0:0:
192,192,52525,1,0,0:0:0:0:
320,192,52683,1,0,0:0:0:0:
64,192,52841,1,8,0:0:0:0:
448,192,52841,1,2,0:0:0:0:
192,192,52998,1,0,0:0:0:0:
320,192,53156,1,0,0:0:0:0:
64,192,53472,1,2,0:0:0:0:
448,192,53472,1,0,0:0:0:0:
320,192,53946,1,8,0:0:0:0:
448,192,53946,1,2,0:0:0:0:
64,192,54420,1,2,0:0:0:0:
192,192,54420,1,0,0:0:0:0:
448,192,54735,1,0,0:0:0:0:
64,192,55051,1,2,0:0:0:0:
192,192,55051,1,0,0:0:0:0:
320,192,55367,1,2,0:0:0:0:
448,192,55367,1,8,0:0:0:0:
64,192,55998,1,2,0:0:0:0:
448,192,55998,1,0,0:0:0:0:
320,192,56472,1,2,0:0:0:0:
448,192,56472,1,0,0:0:0:0:
64,192,56630,1,8,0:0:0:0:
192,192,56630,1,2,0:0:0:0:
192,192,57104,1,2,0:0:0:0:
320,192,57104,1,0,0:0:0:0:
320,192,57577,1,2,0:0:0:0:
448,192,57577,1,0,0:0:0:0:
64,192,57893,1,8,0:0:0:0:
192,192,57893,1,2,0:0:0:0:
320,192,58051,1,2,0:0:0:0:
448,192,58051,1,0,0:0:0:0:
64,192,58525,1,2,0:0:0:0:
448,192,58525,1,0,0:0:0:0:
64,192,58998,1,2,0:0:0:0:
192,192,58998,1,0,0:0:0:0:
320,192,59156,1,8,0:0:0:0:
448,192,59156,1,2,0:0:0:0:
192,192,59630,1,2,0:0:0:0:
320,192,59630,1,4,0:0:0:0:
64,192,60104,1,2,0:0:0:0:
192,192,60104,1,0,0:0:0:0:
320,192,60262,1,0,0:0:0:0:
64,192,60420,1,8,0:0:0:0:
448,192,60420,1,2,0:0:0:0:
192,192,60577,1,0,0:0:0:0:
320,192,60735,1,2,0:0:0:0:
64,192,60893,1,0,0:0:0:0:
320,192,61051,1,2,0:0:0:0:
448,192,61051,1,4,0:0:0:0:
192,192,61367,1,0,0:0:0:0:
320,192,61683,1,0,0:0:0:0:
64,192,61998,128,0,62946:0:0:0:0:
320,192,62946,1,0,0:0:0:0:
448,192,62946,1,0,0:0:0:0:
192,192,63577,128,0,64525:0:0:0:0:
320,192,63577,1,0,0:0:0:0:
64,192,64841,1,0,0:0:0:0:
192,192,64841,1,0,0:0:0:0:
320,192,65156,1,2,0:0:0:0:
192,192,65472,1,2,0:0:0:0:
320,192,65788,1,2,0:0:0:0:
64,192,66104,1,2,0:0:0:0:
448,192,66104,128,4,66735:0:0:0:0:
64,192,66735,1,2,0:0:0:0:
192,192,66735,1,0,0:0:0:0:
192,192,67209,128,0,67998:0:0:0:0:
320,192,67998,1,2,0:0:0:0:
448,192,67998,1,0,0:0:0:0:
192,192,68314,1,0,0:0:0:0:
64,192,68630,128,0,69262:0:0:0:0:
320,192,69262,1,2,0:0:0:0:
448,192,69262,1,0,0:0:0:0:
320,192,69735,128,0,70525:0:0:0:0:
64,192,70525,1,2,0:0:0:0:
192,192,70525,1,0,0:0:0:0:
64,192,71156,1,2,0:0:0:0:
448,192,71156,1,0,0:0:0:0:
320,192,71788,1,2,0:0:0:0:
448,192,71788,1,0,0:0:0:0:
64,192,72262,1,2,0:0:0:0:
192,192,72262,1,0,0:0:0:0:
320,192,72419,1,2,0:0:0:0:
448,192,72419,1,0,0:0:0:0:
192,192,73051,1,2,0:0:0:0:
320,192,73051,1,0,0:0:0:0:
64,192,73683,128,2,74314:0:0:0:0:
448,192,73683,1,8,0:0:0:0:
320,192,74314,1,2,0:0:0:0:
448,192,74314,1,0,0:0:0:0:
192,192,74630,1,8,0:0:0:0:
320,192,74630,1,2,0:0:0:0:
64,192,74946,1,2,0:0:0:0:
192,192,74946,1,0,0:0:0:0:
64,192,75262,1,8,0:0:0:0:
448,192,75262,1,2,0:0:0:0:
320,192,75577,1,2,0:0:0:0:
448,192,75577,1,0,0:0:0:0:
64,192,75735,1,8,0:0:0:0:
192,192,75735,1,2,0:0:0:0:
320,192,75893,1,2,0:0:0:0:
448,192,75893,1,0,0:0:0:0:
64,192,76209,1,2,0:0:0:0:
448,192,76209,1,4,0:0:0:0:
64,192,76525,1,8,0:0:0:0:
192,192,76525,1,2,0:0:0:0:
320,192,76683,1,4,0:0:0:0:
448,192,76683,1,2,0:0:0:0:
320,192,76998,1,8,0:0:0:0:
448,192,76998,1,2,0:0:0:0:
64,192,77156,1,4,0:0:0:0:
192,192,77156,128,2,78104:0:0:0:0:
64,192,78104,1,2,0:0:0:0:
448,192,78104,1,0,0:0:0:0:
64,192,78735,1,4,0:0:0:0:
192,192,78735,1,2,0:0:0:0:
64,192,79051,1,2,0:0:0:0:
192,192,79051,1,0,0:0:0:0:
192,192,79209,1,2,0:0:0:0:
320,192,79367,1,8,0:0:0:0:
448,192,79367,1,2,0:0:0:0:
192,192,79683,1,0,0:0:0:0:
320,192,79841,1,2,0:0:0:0:
448,192,79841,1,0,0:0:0:0:
64,192,80156,1,8,0:0:0:0:
192,192,80156,1,2,0:0:0:0:
320,192,80472,1,2,0:0:0:0:
320,192,80630,1,8,0:0:0:0:
448,192,80630,1,2,0:0:0:0:
64,192,80946,1,2,0:0:0:0:
192,192,80946,1,0,0:0:0:0:
320,192,81262,1,2,0:0:0:0:
448,192,81262,1,0,0:0:0:0:
320,192,81577,1,2,0:0:0:0:
448,192,81577,1,0,0:0:0:0:
320,192,81735,1,2,0:0:0:0:
64,192,81893,1,8,0:0:0:0:
192,192,81893,1,2,0:0:0:0:
448,192,82051,1,0,0:0:0:0:
64,192,82367,1,2,0:0:0:0:
192,192,82367,1,0,0:0:0:0:
320,192,82683,1,8,0:0:0:0:
448,192,82683,1,2,0:0:0:0:
192,192,82998,1,2,0:0:0:0:
64,192,83156,1,8,0:0:0:0:
448,192,83156,1,2,0:0:0:0:
320,192,83314,1,2,0:0:0:0:
192,192,83630,1,10,0:0:0:0:
64,192,83788,1,2,0:0:0:0:
192,192,83788,1,4,0:0:0:0:
64,192,84104,1,0,0:0:0:0:
448,192,84262,1,2,0:0:0:0:
320,192,84419,1,8,0:0:0:0:
448,192,84419,1,2,0:0:0:0:
320,192,84735,1,0,0:0:0:0:
64,192,84893,1,2,0:0:0:0:
192,192,84893,1,0,0:0:0:0:
192,192,85209,1,8,0:0:0:0:
320,192,85209,1,2,0:0:0:0:
320,192,85525,1,2,0:0:0:0:
320,192,85683,1,2,0:0:0:0:
448,192,85683,1,8,0:0:0:0:
64,192,85841,1,8,0:0:0:0:
192,192,85841,1,2,0:0:0:0:
448,192,85998,1,2,0:0:0:0:
64,192,86314,1,2,0:0:0:0:
192,192,86314,1,4,0:0:0:0:
64,192,86630,1,2,0:0:0:0:
192,192,86630,1,0,0:0:0:0:
320,192,86946,1,8,0:0:0:0:
448,192,86946,1,2,0:0:0:0:
448,192,87104,1,10,0:0:0:0:
64,192,87262,1,10,0:0:0:0:
64,192,87419,1,2,0:0:0:0:
192,192,87419,1,4,0:0:0:0:
320,192,87735,1,8,0:0:0:0:
448,192,87735,1,2,0:0:0:0:
64,192,87893,1,2,0:0:0:0:
192,192,87893,1,0,0:0:0:0:
192,192,88209,1,12,0:0:0:0:
320,192,88209,1,2,0:0:0:0:
320,192,88525,1,8,0:0:0:0:
448,192,88525,1,2,0:0:0:0:
320,192,88683,1,10,0:0:0:0:
64,192,88841,1,2,0:0:0:0:
448,192,88841,1,4,0:0:0:0:
64,192,89156,1,2,0:0:0:0:
192,192,89156,1,0,0:0:0:0:
192,192,89314,1,2,0:0:0:0:
64,192,89472,1,8,0:0:0:0:
448,192,89472,1,2,0:0:0:0:
320,192,89630,1,0,0:0:0:0:
192,192,89788,1,0,0:0:0:0:
64,192,89946,1,2,0:0:0:0:
448,192,89946,1,0,0:0:0:0:
192,192,90262,1,8,0:0:0:0:
320,192,90262,1,2,0:0:0:0:
448,192,90577,1,2,0:0:0:0:
320,192,90735,1,8,0:0:0:0:
448,192,90735,1,2,0:0:0:0:
64,192,91051,1,2,0:0:0:0:
192,192,91051,1,0,0:0:0:0:
320,192,91367,1,2,0:0:0:0:
448,192,91367,1,0,0:0:0:0:
192,192,91683,1,0,0:0:0:0:
320,192,91841,1,2,0:0:0:0:
64,192,91998,1,8,0:0:0:0:
448,192,91998,1,2,0:0:0:0:
192,192,92156,1,2,0:0:0:0:
320,192,92314,1,8,0:0:0:0:
448,192,92314,1,2,0:0:0:0:
64,192,92472,1,2,0:0:0:0:
192,192,92472,1,4,0:0:0:0:
64,192,92788,1,2,0:0:0:0:
64,192,92946,1,2,0:0:0:0:
192,192,92946,1,0,0:0:0:0:
448,192,93104,1,2,0:0:0:0:
320,192,93262,1,2,0:0:0:0:
448,192,93262,1,0,0:0:0:0:
192,192,93419,1,10,0:0:0:0:
64,192,93577,1,8,0:0:0:0:
192,192,93577,1,2,0:0:0:0:
320,192,93735,1,10,0:0:0:0:
320,192,93893,1,2,0:0:0:0:
448,192,93893,1,4,0:0:0:0:
64,192,94209,1,2,0:0:0:0:
192,192,94209,1,0,0:0:0:0:
64,192,94367,1,2,0:0:0:0:
320,192,94525,1,12,0:0:0:0:
448,192,94525,1,2,0:0:0:0:
448,192,94841,1,0,0:0:0:0:
192,192,94998,1,4,0:0:0:0:
320,192,94998,1,2,0:0:0:0:
64,192,95314,1,2,0:0:0:0:
192,192,95314,1,0,0:0:0:0:
448,192,95630,1,2,0:0:0:0:
320,192,95788,1,8,0:0:0:0:
448,192,95788,1,2,0:0:0:0:
320,192,96104,1,0,0:0:0:0:
64,192,96262,1,10,0:0:0:0:
64,192,96419,1,4,0:0:0:0:
192,192,96419,1,2,0:0:0:0:
320,192,96735,1,2,0:0:0:0:
320,192,96893,1,2,0:0:0:0:
192,192,97051,1,8,0:0:0:0:
448,192,97051,1,2,0:0:0:0:
192,192,97209,1,10,0:0:0:0:
448,192,97367,1,10,0:0:0:0:
64,192,97525,1,4,0:0:0:0:
448,192,97525,1,2,0:0:0:0:
320,192,97841,1,10,0:0:0:0:
64,192,97998,1,4,0:0:0:0:
320,192,97998,1,2,0:0:0:0:
64,192,98314,1,8,0:0:0:0:
192,192,98314,1,2,0:0:0:0:
320,192,98525,1,8,0:0:0:0:
448,192,98525,1,2,0:0:0:0:
192,192,98735,1,2,0:0:0:0:
64,192,98946,128,4,99577:0:0:0:0:
448,192,98946,1,2,0:0:0:0:
64,192,100209,1,2,0:0:0:0:
192,192,100209,1,4,0:0:0:0:
192,192,100841,1,2,0:0:0:0:
320,192,100841,1,4,0:0:0:0:
320,192,101472,128,2,102735:0:0:0:0:
448,192,101472,128,4,102735:0:0:0:0:
64,192,103998,128,2,104314:0:0:0:0:
192,192,103998,1,4,0:0:0:0:
320,192,104314,1,2,0:0:0:0:
448,192,104314,1,0,0:0:0:0:
192,192,104472,1,2,0:0:0:0:
64,192,104630,1,8,0:0:0:0:
448,192,104630,128,2,104946:0:0:0:0:
64,192,104946,1,2,0:0:0:0:
192,192,104946,1,8,0:0:0:0:
320,192,105104,128,2,105419:0:0:0:0:
448,192,105104,1,4,0:0:0:0:
192,192,105577,128,2,105893:0:0:0:0:
320,192,105577,1,0,0:0:0:0:
64,192,105893,1,8,0:0:0:0:
448,192,105893,1,2,0:0:0:0:
320,192,106209,1,0,0:0:0:0:
64,192,106367,1,8,0:0:0:0:
192,192,106367,1,2,0:0:0:0:
320,192,106525,1,6,0:0:0:0:
448,192,106525,128,8,106841:0:0:0:0:
64,192,106841,1,2,0:0:0:0:
192,192,106841,1,0,0:0:0:0:
320,192,106998,1,2,0:0:0:0:
64,192,107156,1,8,0:0:0:0:
448,192,107156,1,2,0:0:0:0:
192,192,107314,1,10,0:0:0:0:
320,192,107472,1,2,0:0:0:0:
64,192,107630,1,10,0:0:0:0:
192,192,107630,128,4,107946:0:0:0:0:
448,192,107946,1,10,0:0:0:0:
192,192,108104,1,2,0:0:0:0:
320,192,108104,128,0,108419:0:0:0:0:
64,192,108419,1,8,0:0:0:0:
448,192,108419,1,2,0:0:0:0:
192,192,108735,1,10,0:0:0:0:
320,192,108893,1,8,0:0:0:0:
448,192,108893,1,2,0:0:0:0:
64,192,109051,128,2,109367:0:0:0:0:
192,192,109051,1,4,0:0:0:0:
320,192,109367,1,2,0:0:0:0:
448,192,109367,1,0,0:0:0:0:
192,192,109525,1,2,0:0:0:0:
64,192,109683,1,8,0:0:0:0:
448,192,109683,128,2,109998:0:0:0:0:
64,192,109998,1,2,0:0:0:0:
192,192,109998,1,8,0:0:0:0:
320,192,110156,128,2,110472:0:0:0:0:
448,192,110156,1,4,0:0:0:0:
64,192,110472,1,10,0:0:0:0:
192,192,110630,128,2,110946:0:0:0:0:
320,192,110630,1,0,0:0:0:0:
64,192,110946,1,8,0:0:0:0:
448,192,110946,1,2,0:0:0:0:
320,192,111104,1,2,0:0:0:0:
192,192,111419,1,2,0:0:0:0:
320,192,111577,1,10,0:0:0:0:
448,192,111577,128,4,111893:0:0:0:0:
64,192,111893,1,2,0:0:0:0:
192,192,111893,1,0,0:0:0:0:
320,192,112051,1,2,0:0:0:0:
64,192,112209,1,8,0:0:0:0:
448,192,112209,1,2,0:0:0:0:
192,192,112367,1,2,0:0:0:0:
320,192,112525,1,10,0:0:0:0:
64,192,112683,1,10,0:0:0:0:
192,192,112683,128,4,112998:0:0:0:0:
448,192,112998,1,10,0:0:0:0:
192,192,113156,1,2,0:0:0:0:
320,192,113156,128,0,113472:0:0:0:0:
64,192,113472,1,8,0:0:0:0:
448,192,113472,1,2,0:0:0:0:
192,192,113788,1,10,0:0:0:0:
320,192,113946,1,8,0:0:0:0:
448,192,113946,1,2,0:0:0:0:
64,192,114104,128,4,114419:0:0:0:0:
192,192,114104,1,2,0:0:0:0:
320,192,114419,1,2,0:0:0:0:
448,192,114419,1,0,0:0:0:0:
192,192,114577,1,2,0:0:0:0:
64,192,114735,1,10,0:0:0:0:
448,192,114735,128,4,115051:0:0:0:0:
192,192,115051,1,0,0:0:0:0:
320,192,115209,128,4,115525:0:0:0:0:
448,192,115209,1,2,0:0:0:0:
192,192,115683,128,2,115998:0:0:0:0:
320,192,115683,1,0,0:0:0:0:
64,192,115998,1,8,0:0:0:0:
448,192,115998,1,2,0:0:0:0:
320,192,116314,1,0,0:0:0:0:
64,192,116472,1,8,0:0:0:0:
192,192,116472,1,2,0:0:0:0:
320,192,116630,1,6,0:0:0:0:
448,192,116630,128,8,116946:0:0:0:0:
64,192,116946,1,2,0:0:0:0:
192,192,116946,1,4,0:0:0:0:
320,192,117104,1,0,0:0:0:0:
64,192,117262,1,8,0:0:0:0:
448,192,117262,1,2,0:0:0:0:
192,192,117419,1,10,0:0:0:0:
320,192,117577,1,2,0:0:0:0:
64,192,117735,1,12,0:0:0:0:
192,192,117735,128,2,118051:0:0:0:0:
448,192,118051,1,10,0:0:0:0:
192,192,118209,1,2,0:0:0:0:
320,192,118209,128,0,118525:0:0:0:0:
64,192,118525,1,8,0:0:0:0:
448,192,118525,1,2,0:0:0:0:
192,192,118841,1,10,0:0:0:0:
320,192,118998,1,8,0:0:0:0:
448,192,118998,1,2,0:0:0:0:
64,192,119156,1,2,0:0:0:0:
192,192,119156,128,4,119472:0:0:0:0:
64,192,119472,1,2,0:0:0:0:
448,192,119472,1,0,0:0:0:0:
192,192,119630,1,2,0:0:0:0:
320,192,119788,128,8,120104:0:0:0:0:
448,192,119788,1,2,0:0:0:0:
64,192,120104,1,2,0:0:0:0:
448,192,120104,1,0,0:0:0:0:
192,192,120262,128,6,120577:0:0:0:0:
320,192,120262,1,8,0:0:0:0:
64,192,120735,1,8,0:0:0:0:
192,192,120735,1,2,0:0:0:0:
320,192,120893,1,8,0:0:0:0:
448,192,120893,1,2,0:0:0:0:
64,192,121051,1,8,0:0:0:0:
192,192,121051,1,2,0:0:0:0:
192,192,121367,1,2,0:0:0:0:
320,192,121367,1,0,0:0:0:0:
320,192,121683,128,6,121998:0:0:0:0:
448,192,121683,1,8,0:0:0:0:
64,192,121998,1,8,0:0:0:0:
192,192,121998,1,2,0:0:0:0:
320,192,122156,1,2,0:0:0:0:
448,192,122156,1,4,0:0:0:0:
64,192,122314,1,0,0:0:0:0:
320,192,122472,1,2,0:0:0:0:
448,192,122472,1,0,0:0:0:0:
64,192,122630,1,2,0:0:0:0:
192,192,122630,128,8,122946:0:0:0:0:
320,192,122946,1,2,0:0:0:0:
448,192,122946,1,4,0:0:0:0:
64,192,123156,1,8,0:0:0:0:
192,192,123156,1,2,0:0:0:0:
64,192,123367,1,8,0:0:0:0:
448,192,123367,1,2,0:0:0:0:
320,192,123577,1,8,0:0:0:0:
448,192,123577,1,2,0:0:0:0:
192,192,123788,1,2,0:0:0:0:
320,192,123998,1,2,0:0:0:0:
64,192,124209,1,4,0:0:0:0:
192,192,124209,1,2,0:0:0:0:
448,192,124525,1,0,0:0:0:0:
320,192,124683,1,0,0:0:0:0:
192,192,124841,1,0,0:0:0:0:
64,192,125156,1,0,0:0:0:0:
192,192,125314,1,0,0:0:0:0:
448,192,125472,1,0,0:0:0:0:
320,192,125630,1,0,0:0:0:0:
192,192,125788,1,0,0:0:0:0:
64,192,126104,1,0,0:0:0:0:
192,192,126262,1,0,0:0:0:0:
448,192,126419,1,0,0:0:0:0:
320,192,126577,1,0,0:0:0:0:
64,192,126735,1,0,0:0:0:0:
192,192,126893,1,0,0:0:0:0:
448,192,127051,1,0,0:0:0:0:
320,192,127209,1,0,0:0:0:0:
192,192,127367,1,0,0:0:0:0:
64,192,127683,1,0,0:0:0:0:
192,192,127841,1,0,0:0:0:0:
448,192,127998,1,0,0:0:0:0:
320,192,128156,1,0,0:0:0:0:
64,192,128314,1,0,0:0:0:0:
192,192,128630,1,0,0:0:0:0:
320,192,128788,1,0,0:0:0:0:
448,192,128946,1,0,0:0:0:0:
64,192,129262,1,0,0:0:0:0:
192,192,129419,1,0,0:0:0:0:
448,192,129577,1,0,0:0:0:0:
320,192,129735,1,0,0:0:0:0:
192,192,129893,1,0,0:0:0:0:
64,192,130209,1,0,0:0:0:0:
192,192,130367,1,0,0:0:0:0:
448,192,130525,1,0,0:0:0:0:
320,192,130683,1,0,0:0:0:0:
192,192,130841,1,0,0:0:0:0:
64,192,131156,1,0,0:0:0:0:
192,192,131314,1,0,0:0:0:0:
448,192,131472,1,0,0:0:0:0:
320,192,131630,1,0,0:0:0:0:
64,192,131788,1,0,0:0:0:0:
192,192,131946,1,0,0:0:0:0:
448,192,132104,1,0,0:0:0:0:
320,192,132262,1,0,0:0:0:0:
192,192,132420,1,0,0:0:0:0:
64,192,132735,1,0,0:0:0:0:
192,192,132893,1,0,0:0:0:0:
448,192,133051,1,0,0:0:0:0:
320,192,133209,1,0,0:0:0:0:
64,192,133367,1,0,0:0:0:0:
192,192,133683,1,0,0:0:0:0:
320,192,133841,1,0,0:0:0:0:
448,192,133998,1,0,0:0:0:0:
64,192,134156,1,0,0:0:0:0:
