osu file format v14

[General]
AudioFilename: audio.mp3
AudioLeadIn: 0
PreviewTime: 73327
Countdown: 0
SampleSet: Soft
StackLeniency: 0.5
Mode: 0
LetterboxInBreaks: 0
WidescreenStoryboard: 0

[Editor]
DistanceSpacing: 1.2
BeatDivisor: 4
GridSize: 4
TimelineZoom: 1

[Metadata]
Title:Kimi to Tsukuru Mou Hitotsu no Mirai
TitleUnicode:君とつくるもうひとつの未来
Artist:AiRI
ArtistUnicode:AiRI
Creator:sahuang
Version:Narcissu's Hard
Source:ここから夏のイノセンス!
Tags:my angel azusa narcissu joker- mei KaedekaShizuru Clochette Kokokara Natsu no Innocence op galgame eroge
BeatmapID:1370784
BeatmapSetID:643715

[Difficulty]
HPDrainRate:5
CircleSize:4
OverallDifficulty:6
ApproachRate:7
SliderMultiplier:0.999999999999999
SliderTickRate:1

[Events]
//Background and Video events
0,0,"bg5.jpg",0,0
//Break Periods
//Storyboard Layer 0 (Background)
//Storyboard Layer 1 (Fail)
//Storyboard Layer 2 (Pass)
//Storyboard Layer 3 (Foreground)
//Storyboard Sound Samples

[TimingPoints]
1788,447.761194029851,4,2,1,40,1,0
1788,-71.4285714285714,4,2,1,40,0,0
16116,-62.5,4,2,1,60,0,0
30444,-71.4285714285714,4,2,1,40,0,0
44773,-62.5,4,2,1,60,0,0
73429,-58.8235294117647,4,2,1,70,0,1
87646,-58.8235294117647,4,2,1,70,0,0
87758,-58.8235294117647,4,2,1,70,0,1
102086,-71.4285714285714,4,2,1,40,0,0

[Colours]
Combo1 : 255,128,255
Combo2 : 128,255,255
Combo3 : 255,255,128
Combo4 : 128,128,255

[HitObjects]
80,164,1788,6,0,P|124:108|204:104,1,139.999995727539,4|2,3:0|0:0,0:0:0:0:
256,152,2459,1,0,0:0:0:0:
385,88,2683,2,0,L|316:92,1,69.9999978637695,4|0,3:0|0:0,0:0:0:0:
256,152,3131,1,2,0:0:0:0:
427,176,3355,6,0,P|474:125|477:57,1,139.999995727539,0|0,0:0|0:0,0:0:0:0:
340,216,4026,2,0,L|332:304,1,69.9999978637695,2|0,0:0|0:0,0:0:0:0:
500,308,4474,2,0,L|492:220,2,69.9999978637695,4|0|2,3:0|0:0|0:0,0:0:0:0:
424,348,5146,1,0,0:0:0:0:
333,285,5370,6,0,B|232:280|232:280|180:304,1,139.999995727539,4|2,3:0|0:0,0:0:0:0:
132,352,6041,1,0,0:0:0:0:
55,243,6265,2,0,P|52:278|60:312,1,69.9999978637695,4|0,3:0|0:0,0:0:0:0:
132,352,6713,1,2,0:0:0:0:
131,179,6937,6,0,P|70:148|2:158,1,139.999995727539,0|0,0:0|0:0,0:0:0:0:
200,128,7608,2,0,L|206:58,1,69.9999978637695,2|0,0:0|0:0,0:0:0:0:
276,164,8056,1,4,3:0:0:0:
276,164,8280,1,0,0:0:0:0:
352,100,8504,2,0,L|428:96,1,69.9999978637695,2|0,0:0|0:0,0:0:0:0:
448,72,8840,1,0,0:0:0:0:
448,72,8952,6,0,P|484:136|472:224,1,139.999995727539,4|2,3:0|0:0,0:0:0:0:
412,248,9623,1,0,0:0:0:0:
509,331,9847,2,0,L|440:328,1,69.9999978637695,4|0,3:0|0:0,0:0:0:0:
412,248,10295,1,2,0:0:0:0:
272,320,10519,6,0,P|252:256|176:220,1,139.999995727539,0|0,0:0|0:0,0:0:0:0:
102,323,11190,2,0,L|172:316,1,69.9999978637695,2|0,0:0|0:0,0:0:0:0:
132,136,11638,2,0,L|62:128,1,69.9999978637695,4|0,3:0|0:0,0:0:0:0:
24,240,12086,1,2,0:0:0:0:
108,232,12310,1,0,0:0:0:0:
192,220,12534,6,0,P|232:156|220:72,1,139.999995727539,4|2,3:0|0:0,0:0:0:0:
384,56,13205,1,0,0:0:0:0:
316,108,13429,2,0,P|319:142|331:175,1,69.9999978637695,4|0,3:0|0:0,0:0:0:0:
488,196,13877,1,2,0:0:0:0:
441,268,14101,1,2,0:0:0:0:
441,268,14213,1,0,0:0:0:0:
441,268,14325,6,0,L|357:276,1,69.9999978637695,4|2,3:0|0:0,0:0:0:0:
281,353,14772,2,0,L|288:284,1,69.9999978637695,4|2,3:0|2:0,0:0:0:0:
296,200,15220,1,8,3:0:0:0:
296,200,15332,1,8,3:0:0:0:
296,200,15444,1,8,3:0:0:0:
172,260,15668,2,0,L|92:256,1,69.9999978637695,8|0,3:0|0:0,0:0:0:0:
32,132,16116,6,0,P|116:128|168:44,1,160,4|8,0:0|0:0,0:0:0:0:
339,83,16788,1,0,0:0:0:0:
339,83,16899,1,0,0:0:0:0:
339,83,17011,2,0,L|260:80,1,79.9999999999999,2|0,0:0|0:0,0:0:0:0:
436,84,17459,2,0,L|448:188,1,79.9999999999999,8|0,0:0|0:0,0:0:0:0:
308,288,17907,5,2,0:0:0:0:
320,192,18131,1,0,0:0:0:0:
396,252,18355,1,8,0:0:0:0:
304,320,18579,2,0,L|248:324,2,40,0|0|2,0:0|0:0|0:0,0:0:0:0:
424,352,19026,2,0,L|503:358,2,79.9999999999999,0|8|0,0:0|0:0|0:0,0:0:0:0:
360,240,19698,6,0,B|368:132|368:132|352:76,1,160,2|8,0:0|0:0,0:0:0:0:
200,121,20370,1,0,0:0:0:0:
200,121,20482,1,0,0:0:0:0:
200,121,20594,2,0,P|236:138|275:140,1,79.9999999999999,2|0,0:0|0:0,0:0:0:0:
353,82,21041,1,8,0:0:0:0:
296,172,21265,1,0,0:0:0:0:
424,144,21489,6,0,L|524:140,1,79.9999999999999,2|0,0:0|0:0,0:0:0:0:
296,172,21937,1,8,0:0:0:0:
353,82,22161,2,0,L|352:36,2,40,0|0|2,0:0|0:0|0:0,0:0:0:0:
412,176,22608,1,0,0:0:0:0:
276,140,22832,2,0,L|184:132,1,79.9999999999999,8|0,0:0|0:0,0:0:0:0:
172,100,23168,1,0,0:0:0:0:
172,100,23280,6,0,P|119:157|40:160,1,160,2|8,0:0|0:0,0:0:0:0:
128,256,23952,1,0,0:0:0:0:
128,256,24063,1,0,0:0:0:0:
128,256,24175,2,0,L|131:335,1,79.9999999999999,2|0,0:0|0:0,0:0:0:0:
216,216,24623,2,0,L|228:320,1,79.9999999999999,8|0,0:0|0:0,0:0:0:0:
316,320,25071,5,2,0:0:0:0:
396,268,25295,1,0,0:0:0:0:
480,312,25519,1,8,0:0:0:0:
396,268,25743,2,0,L|400:220,2,40,0|0|2,0:0|0:0|0:0,0:0:0:0:
480,312,26190,1,0,0:0:0:0:
477,172,26414,2,0,P|449:144|412:132,1,79.9999999999999,8|0,0:0|0:0,0:0:0:0:
324,172,26862,6,0,P|240:176|168:128,1,160,2|8,0:0|0:0,0:0:0:0:
83,169,27534,1,0,0:0:0:0:
83,169,27646,1,0,0:0:0:0:
83,169,27758,2,0,P|80:130|89:91,1,79.9999999999999,2|0,0:0|0:0,0:0:0:0:
268,76,28205,1,8,0:0:0:0:
176,138,28429,1,0,0:0:0:0:
89,91,28653,6,0,L|85:35,2,40,4|0|0,0:0|3:0|3:0,0:0:0:0:
169,297,29101,2,0,L|176:134,1,160,0|8,3:0|0:0,0:0:0:0:
268,76,29772,1,2,0:0:0:0:
352,120,29996,1,0,3:0:0:0:
352,120,30108,1,0,3:0:0:0:
352,120,30220,1,0,3:0:0:0:
484,68,30444,6,0,B|500:112|500:112|484:224,1,139.999995727539,2|4,0:0|3:0,0:0:0:0:
472,288,31116,1,0,0:0:0:0:
408,236,31340,2,0,P|339:238|291:286,1,139.999995727539,2|4,0:0|3:0,0:0:0:0:
260,364,32011,1,0,0:0:0:0:
188,320,32235,6,0,P|152:312|104:320,1,69.9999978637695,2|0,0:0|0:0,0:0:0:0:
112,232,32683,2,0,P|76:243|39:274,1,69.9999978637695,4|0,3:0|0:0,0:0:0:0:
40,148,33131,2,0,P|34:113|38:79,1,69.9999978637695,2|0,0:0|0:0,0:0:0:0:
116,116,33579,2,0,P|128:83|149:55,1,69.9999978637695,4|0,3:0|0:0,0:0:0:0:
232,76,34026,5,2,0:0:0:0:
232,76,34250,1,0,0:0:0:0:
312,44,34474,1,4,3:0:0:0:
312,44,34698,1,0,0:0:0:0:
392,72,34922,2,0,L|416:224,1,139.999995727539,2|4,0:0|3:0,0:0:0:0:
480,264,35593,1,0,0:0:0:0:
399,292,35817,6,0,P|385:323|382:358,1,69.9999978637695,2|0,0:0|0:0,0:0:0:0:
332,244,36265,2,0,P|292:228|256:228,1,69.9999978637695,4|0,3:0|0:0,0:0:0:0:
200,280,36713,1,2,0:0:0:0:
129,234,36937,1,0,0:0:0:0:
150,153,37161,1,4,3:0:0:0:
235,149,37385,1,0,0:0:0:0:
265,226,37608,6,0,P|352:224|412:176,1,139.999995727539,2|4,0:0|3:0,0:0:0:0:
472,228,38280,1,0,0:0:0:0:
460,144,38504,2,0,B|452:48|452:48|422:15,1,139.999995727539,2|4,0:0|3:0,0:0:0:0:
376,84,39175,1,0,0:0:0:0:
308,36,39399,6,0,L|220:28,1,69.9999978637695,2|0,0:0|0:0,0:0:0:0:
240,116,39847,2,0,L|148:92,1,69.9999978637695,4|0,3:0|0:0,0:0:0:0:
0,112,40295,2,0,L|7:181,1,69.9999978637695,2|0,0:0|0:0,0:0:0:0:
92,144,40743,2,0,L|92:214,1,69.9999978637695,4|0,3:0|0:0,0:0:0:0:
12,332,41190,5,2,0:0:0:0:
12,332,41414,1,0,0:0:0:0:
92,300,41638,1,4,3:0:0:0:
92,300,41862,1,0,0:0:0:0:
168,336,42086,2,0,P|236:336|304:284,1,139.999995727539,2|4,0:0|3:0,0:0:0:0:
448,268,42757,1,0,0:0:0:0:
376,312,42981,6,0,L|372:392,1,69.9999978637695,2|0,0:0|0:0,0:0:0:0:
472,260,43429,2,0,L|464:172,1,69.9999978637695,4|0,3:0|0:0,0:0:0:0:
384,92,43877,2,0,L|388:52,2,34.9999989318848,4|0|0,3:0|3:0|3:0,3:0:0:0:
352,208,44325,1,0,3:0:0:0:
460,156,44549,1,0,3:0:0:0:
300,136,44773,6,0,P|268:172|256:224,1,79.9999999999999,4|0,0:0|0:0,0:0:0:0:
296,288,45220,1,4,3:0:0:0:
168,240,45444,1,0,0:0:0:0:
168,240,45556,1,0,0:0:0:0:
168,240,45668,2,0,L|164:152,1,79.9999999999999,2|2,0:0|0:0,0:0:0:0:
52,140,46116,1,4,3:0:0:0:
40,236,46340,1,0,0:0:0:0:
64,44,46564,6,0,L|143:37,2,79.9999999999999,2|0|4,0:0|0:0|3:0,0:0:0:0:
204,112,47235,1,0,0:0:0:0:
204,112,47347,1,0,0:0:0:0:
204,112,47459,2,0,L|308:120,1,79.9999999999999,2|2,0:0|0:0,0:0:0:0:
412,20,47907,1,4,3:0:0:0:
316,28,48131,1,0,0:0:0:0:
412,20,48355,6,0,P|436:56|440:104,1,79.9999999999999,2|0,0:0|0:0,0:0:0:0:
352,184,48802,1,4,3:0:0:0:
428,244,49026,1,0,0:0:0:0:
428,244,49138,1,0,0:0:0:0:
428,244,49250,2,0,L|507:240,1,79.9999999999999,2|2,0:0|0:0,0:0:0:0:
388,332,49698,1,4,3:0:0:0:
352,184,49922,1,0,0:0:0:0:
315,272,50146,6,0,P|276:271|239:256,2,79.9999999999999,2|0|4,0:0|0:0|3:0,0:0:0:0:
195,171,50817,1,0,0:0:0:0:
195,171,50929,1,0,0:0:0:0:
195,171,51041,2,0,P|163:199|143:247,1,79.9999999999999,2|2,0:0|0:0,0:0:0:0:
176,324,51489,1,4,3:0:0:0:
52,280,51713,1,0,0:0:0:0:
52,280,51825,1,0,0:0:0:0:
52,280,51937,6,0,L|44:180,1,79.9999999999999,2|0,0:0|0:0,0:0:0:0:
64,28,52384,1,4,3:0:0:0:
144,80,52608,1,0,0:0:0:0:
144,80,52720,1,0,0:0:0:0:
144,80,52832,2,0,L|137:159,1,79.9999999999999,2|2,0:0|0:0,0:0:0:0:
232,40,53280,1,4,3:0:0:0:
308,100,53504,1,0,0:0:0:0:
384,44,53728,6,0,L|463:37,2,79.9999999999999,2|0|4,0:0|0:0|3:0,0:0:0:0:
440,216,54399,1,0,0:0:0:0:
440,216,54511,1,0,0:0:0:0:
440,216,54623,2,0,L|432:120,1,79.9999999999999,2|2,0:0|0:0,0:0:0:0:
316,232,55071,1,4,3:0:0:0:
324,136,55295,1,0,0:0:0:0:
383,300,55519,6,0,P|351:322|312:327,1,79.9999999999999,2|0,0:0|0:0,0:0:0:0:
204,192,55967,1,4,3:0:0:0:
212,288,56190,1,0,0:0:0:0:
212,288,56302,1,0,0:0:0:0:
212,288,56414,2,0,L|218:367,1,79.9999999999999,2|2,0:0|0:0,0:0:0:0:
116,284,56862,1,4,3:0:0:0:
20,276,57086,1,0,0:0:0:0:
72,196,57310,6,0,L|64:104,1,79.9999999999999,2|0,0:0|0:0,0:0:0:0:
216,24,57758,2,0,L|212:112,1,79.9999999999999,4|0,3:0|3:0,0:0:0:0:
380,128,58205,2,0,L|419:131,2,40,4|0|0,3:0|3:0|3:0,0:0:0:0:
299,184,58653,2,0,L|260:188,2,40,4|0|0,3:0|3:0|3:0,0:0:0:0:
448,204,59101,5,8,0:0:0:0:
448,204,59213,1,8,0:0:0:0:
448,204,59325,1,8,0:0:0:0:
448,204,59437,1,8,0:0:0:0:
448,204,59549,2,0,P|468:124|432:44,1,160,2|4,0:0|3:0,0:0:0:0:
272,92,60220,2,0,L|360:88,1,79.9999999999999,2|0,0:0|0:0,0:0:0:0:
216,200,60668,6,0,P|300:200|368:264,1,160,4|0,0:0|0:0,0:0:0:0:
510,195,61340,2,0,P|470:195|432:184,1,79.9999999999999,2|0,0:0|0:0,0:0:0:0:
344,68,61788,2,0,L|340:16,2,40,4|0|4,3:0|0:0|3:0,0:0:0:0:
248,64,62236,2,0,L|232:24,2,40,4|0|0,3:0|3:0|3:0,0:0:0:0:
160,104,62684,5,8,0:0:0:0:
160,104,62796,1,8,0:0:0:0:
160,104,62908,1,8,0:0:0:0:
160,104,63020,1,8,0:0:0:0:
160,104,63132,2,0,P|88:68|-12:92,1,160,2|4,0:0|3:0,0:0:0:0:
32,252,63803,2,0,L|28:344,1,79.9999999999999,2|0,0:0|0:0,0:0:0:0:
136,212,64250,6,0,P|136:304|204:372,1,160,4|0,0:0|0:0,0:0:0:0:
348,344,64922,1,2,0:0:0:0:
260,308,65146,1,0,0:0:0:0:
268,212,65370,2,0,L|272:160,2,40,4|0|4,3:0|0:0|3:0,0:0:0:0:
436,292,65818,2,0,L|444:352,2,40,4|0|0,3:0|3:0|3:0,0:0:0:0:
368,220,66266,5,8,0:0:0:0:
368,220,66378,1,8,0:0:0:0:
368,220,66490,1,8,0:0:0:0:
368,220,66602,1,8,0:0:0:0:
368,220,66714,2,0,P|404:148|396:68,1,160,2|4,0:0|3:0,0:0:0:0:
432,160,67385,2,0,P|472:164|516:152,1,79.9999999999999,2|0,0:0|0:0,0:0:0:0:
308,132,67832,6,0,B|188:120|188:120|144:140,1,160,4|0,0:0|0:0,0:0:0:0:
124,296,68504,1,2,0:0:0:0:
208,216,68728,1,0,0:0:0:0:
56,188,68952,2,0,L|8:168,2,40,4|0|2,3:0|0:0|0:0,0:0:0:0:
84,288,69399,2,0,L|36:276,2,40,4|0|0,3:0|3:0|3:0,0:0:0:0:
256,316,69847,6,0,P|287:291|308:257,1,79.9999999999999,4|0,0:0|0:0,0:0:0:0:
225,54,70295,2,0,P|213:92|216:131,1,79.9999999999999,4|2,3:0|0:0,0:0:0:0:
403,248,70743,2,0,P|389:210|363:180,1,79.9999999999999,4|2,3:0|0:0,0:0:0:0:
217,228,71190,1,4,3:0:0:0:
308,102,71414,6,0,P|385:90|449:135,1,160,2|0,0:0|0:0,0:0:0:0:
404,316,72086,1,4,3:0:0:0:
364,180,72310,1,4,3:0:0:0:
404,316,72534,1,4,3:0:0:0:
307,257,72758,1,0,3:0:0:0:
307,257,72870,1,0,3:0:0:0:
307,257,72982,2,0,L|244:252,2,40,4|0|0,3:0|3:0|3:0,0:0:0:0:
116,336,73429,6,0,B|80:308|80:308|64:180,1,170.000003242493,4|8,0:0|0:0,0:0:0:0:
100,28,74101,1,0,0:0:0:0:
143,119,74325,2,0,P|181:136|224:135,1,85.0000016212463,2|0,0:0|0:0,0:0:0:0:
368,72,74773,1,8,0:0:0:0:
392,172,74996,1,0,0:0:0:0:
256,104,75220,6,0,L|272:296,1,170.000003242493,2|8,0:0|0:0,0:0:0:0:
424,332,75892,1,0,0:0:0:0:
468,240,76116,1,2,0:0:0:0:
468,240,76228,1,0,0:0:0:0:
468,240,76340,1,0,0:0:0:0:
392,172,76564,2,0,P|396:130|420:95,1,85.0000016212463,8|0,0:0|0:0,0:0:0:0:
344,264,77011,6,0,P|272:300|172:276,1,170.000003242493,4|8,0:0|0:0,0:0:0:0:
140,196,77683,1,0,0:0:0:0:
0,276,77907,2,0,L|84:280,1,85.0000016212463,2|0,0:0|0:0,0:0:0:0:
128,168,78355,1,8,0:0:0:0:
96,308,78579,1,0,0:0:0:0:
25,155,78802,6,0,P|67:84|148:68,1,170.000003242493,2|8,0:0|0:0,0:0:0:0:
220,164,79474,1,0,0:0:0:0:
296,32,79698,1,2,0:0:0:0:
184,76,79922,1,2,0:0:0:0:
252,152,80146,1,8,0:0:0:0:
380,68,80370,1,0,0:0:0:0:
380,68,80482,1,0,0:0:0:0:
380,68,80593,6,0,P|436:128|436:236,1,170.000003242493,4|8,0:0|0:0,0:0:0:0:
404,308,81265,1,0,0:0:0:0:
229,271,81489,2,0,P|269:260|312:264,1,85.0000016212463,2|0,0:0|0:0,0:0:0:0:
404,308,81937,1,8,0:0:0:0:
311,263,82161,6,0,L|300:92,1,170.000003242493,0|0,0:0|0:0,0:0:0:0:
132,132,82832,2,0,L|47:122,1,85.0000016212463,8|0,0:0|0:0,0:0:0:0:
204,56,83280,1,2,0:0:0:0:
204,56,83392,1,0,0:0:0:0:
204,56,83504,1,0,0:0:0:0:
176,232,83728,2,0,L|72:236,1,85.0000016212463,8|0,0:0|0:0,0:0:0:0:
244,152,84176,6,0,P|312:212|296:312,1,170.000003242493,2|8,0:0|0:0,0:0:0:0:
168,364,84847,1,0,0:0:0:0:
168,364,84959,1,0,0:0:0:0:
168,364,85071,2,0,L|172:268,1,85.0000016212463,2|0,0:0|0:0,0:0:0:0:
184,72,85519,1,8,0:0:0:0:
9,184,85743,6,0,B|53:176|53:176|133:188|133:188|201:172,1,170.000003242493,4|0,0:0|0:0,0:0:0:0:
280,188,86414,2,0,B|324:180|324:180|388:192,1,85.0000016212463,8|0,0:0|3:0,0:0:0:0:
392,284,86862,1,4,3:0:0:0:
392,284,86974,1,4,3:0:0:0:
392,284,87086,1,4,3:0:0:0:
420,100,87310,1,4,3:0:0:0:
420,100,87422,1,4,3:0:0:0:
420,100,87534,1,4,3:0:0:0:
467,192,87758,6,0,P|385:196|325:139,1,170.000003242493,4|8,0:0|0:0,0:0:0:0:
136,168,88429,1,0,0:0:0:0:
236,192,88653,2,0,L|243:276,1,85.0000016212463,2|0,0:0|0:0,0:0:0:0:
136,168,89101,1,8,0:0:0:0:
60,236,89324,1,0,0:0:0:0:
48,108,89548,6,0,P|144:116|220:48,1,170.000003242493,2|8,0:0|0:0,0:0:0:0:
112,32,90220,1,0,0:0:0:0:
216,108,90444,1,2,0:0:0:0:
216,108,90556,1,0,0:0:0:0:
216,108,90668,1,0,0:0:0:0:
300,52,90892,2,0,L|404:44,1,85.0000016212463,8|0,0:0|0:0,0:0:0:0:
472,152,91340,6,0,P|492:252|460:340,1,170.000003242493,4|8,0:0|0:0,0:0:0:0:
300,284,92011,1,0,0:0:0:0:
300,284,92123,1,0,0:0:0:0:
300,284,92235,2,0,L|304:180,2,85.0000016212463,2|2|8,0:0|0:0|0:0,0:0:0:0:
116,348,92907,6,0,B|72:352|72:352|12:304|36:224,1,170.000003242493,4|0,0:0|0:0,0:0:0:0:
136,184,93579,1,8,0:0:0:0:
17,52,93802,2,0,P|93:87|176:72,1,170.000003242493,4|2,0:0|0:0,0:0:0:0:
256,8,94474,1,8,0:0:0:0:
256,8,94586,1,0,3:0:0:0:
256,8,94698,1,0,3:0:0:0:
175,72,94922,6,0,B|180:200|180:200|216:252,1,170.000003242493,4|8,0:0|0:0,0:0:0:0:
428,240,95593,1,0,0:0:0:0:
364,160,95817,2,0,P|321:155|281:167,1,85.0000016212463,2|0,0:0|0:0,0:0:0:0:
428,240,96265,1,8,0:0:0:0:
500,168,96489,6,0,P|488:80|424:12,1,170.000003242493,0|0,0:0|0:0,0:0:0:0:
340,56,97161,2,0,P|304:48|256:48,1,85.0000016212463,8|0,0:0|0:0,0:0:0:0:
168,168,97608,1,0,0:0:0:0:
168,168,97720,1,0,0:0:0:0:
168,168,97832,1,0,0:0:0:0:
156,15,98056,2,0,P|127:46|107:83,1,85.0000016212463,8|0,0:0|0:0,0:0:0:0:
68,268,98504,6,0,P|64:185|0:133,1,170.000003242493,2|8,0:0|0:0,0:0:0:0:
168,264,99175,1,0,0:0:0:0:
168,264,99287,1,0,0:0:0:0:
168,264,99399,2,0,L|252:256,1,85.0000016212463,2|2,0:0|0:0,0:0:0:0:
456,232,99847,1,8,0:0:0:0:
348,76,100071,6,0,B|356:120|356:120|344:200|344:200|360:268,1,170.000003242493,4|0,0:0|0:0,0:0:0:0:
256,120,100743,2,0,B|237:36,1,85.0000016212463,4|0,3:0|0:0,0:0:0:0:
172,176,101190,1,4,3:0:0:0:
172,176,101302,1,0,3:0:0:0:
172,176,101414,1,0,3:0:0:0:
124,88,101638,1,4,3:0:0:0:
124,88,101750,1,0,3:0:0:0:
124,88,101862,1,0,3:0:0:0:
88,224,102086,6,0,P|152:272|228:260,1,139.999995727539,4|0,0:0|0:0,0:0:0:0:
272,212,102758,1,0,0:0:0:0:
409,256,102982,2,0,L|340:260,1,69.9999978637695,0|0,0:0|0:0,0:0:0:0:
272,212,103430,1,0,0:0:0:0:
432,176,103654,6,0,P|482:221|486:290,1,139.999995727539,0|0,0:0|0:0,0:0:0:0:
348,168,104325,2,0,L|341:98,1,69.9999978637695,0|0,0:0|0:0,0:0:0:0:
409,256,104773,2,0,L|401:344,2,69.9999978637695,0|0|0,0:0|0:0|0:0,0:0:0:0:
272,212,105445,1,0,0:0:0:0:
208,304,105669,6,0,B|107:309|107:309|55:285,1,139.999995727539,4|2,3:0|0:0,0:0:0:0:
68,107,106340,1,0,0:0:0:0:
132,159,106564,2,0,P|135:194|128:228,1,69.9999978637695,4|0,3:0|0:0,0:0:0:0:
68,107,107012,1,2,0:0:0:0:
116,40,107236,6,0,P|184:29|245:60,1,139.999995727539,0|0,0:0|0:0,0:0:0:0:
316,12,107907,2,0,P|328:44|329:79,1,69.9999978637695,2|0,0:0|0:0,0:0:0:0:
272,140,108355,1,4,3:0:0:0:
272,140,108579,1,0,0:0:0:0:
329,79,108803,2,0,L|405:75,1,69.9999978637695,2|0,0:0|0:0,0:0:0:0:
440,72,109139,1,0,0:0:0:0:
440,72,109251,6,0,P|476:136|464:224,1,139.999995727539,4|2,3:0|0:0,0:0:0:0:
404,248,109922,1,0,0:0:0:0:
432,328,110146,2,0,L|501:331,1,69.9999978637695,4|0,3:0|0:0,0:0:0:0:
404,248,110594,1,2,0:0:0:0:
276,304,110818,6,0,P|212:284|176:208,1,139.999995727539,0|0,0:0|0:0,0:0:0:0:
279,134,111489,2,0,L|272:204,1,69.9999978637695,2|0,0:0|0:0,0:0:0:0:
92,164,111937,2,0,L|84:94,1,69.9999978637695,4|0,3:0|0:0,0:0:0:0:
196,56,112385,1,2,0:0:0:0:
188,140,112609,1,0,0:0:0:0:
176,224,112833,6,0,P|112:264|28:252,1,139.999995727539,4|2,3:0|0:0,0:0:0:0:
188,140,113504,1,0,0:0:0:0:
252,196,113728,2,0,P|256:236|236:280,1,69.9999978637695,4|0,3:0|0:0,0:0:0:0:
188,140,114176,1,2,0:0:0:0:
336,200,114400,1,0,0:0:0:0:
336,200,114512,1,0,0:0:0:0:
336,200,114624,6,0,L|420:208,1,69.9999978637695,2|4,0:0|3:0,0:0:0:0:
188,140,115071,2,0,L|181:71,1,69.9999978637695,2|4,0:0|3:0,0:0:0:0:
246,263,115519,2,0,L|242:315,2,34.9999989318848,8|8|8,3:0|3:0|3:0,0:0:0:0:
405,206,115967,1,8,3:0:0:0:
405,206,116079,1,8,3:0:0:0:
405,206,116190,2,0,L|464:212,1,34.9999989318848,8|4,3:0|3:0,0:0:0:0:
