osu file format v14

[General]
AudioFilename: audio.mp3
AudioLeadIn: 0
PreviewTime: 73327
Countdown: 0
SampleSet: Soft
StackLeniency: 0.5
Mode: 0
LetterboxInBreaks: 0
WidescreenStoryboard: 0

[Editor]
Bookmarks: 16126,30454,59111,73439,87768,102096
DistanceSpacing: 1
BeatDivisor: 4
GridSize: 4
TimelineZoom: 1.9

[Metadata]
Title:Kimi to Tsukuru Mou Hitotsu no Mirai
TitleUnicode:君とつくるもうひとつの未来
Artist:AiRI
ArtistUnicode:AiRI
Creator:sahuang
Version:Kaedeka's Insane
Source:ここから夏のイノセンス!
Tags:my angel azusa narcissu joker- mei KaedekaShizuru Clochette Kokokara Natsu no Innocence op galgame eroge
BeatmapID:1365655
BeatmapSetID:643715

[Difficulty]
HPDrainRate:6
CircleSize:4
OverallDifficulty:7
ApproachRate:7.6
SliderMultiplier:1.5
SliderTickRate:1

[Events]
//Background and Video events
0,0,"bg1.jpg",0,0
//Break Periods
//Storyboard Layer 0 (Background)
//Storyboard Layer 1 (Fail)
//Storyboard Layer 2 (Pass)
//Storyboard Layer 3 (Foreground)
//Storyboard Sound Samples

[TimingPoints]
1788,447.761194029851,4,2,1,30,1,0
1788,-111.111111111111,4,2,1,30,0,0
16116,-100,4,2,1,50,0,0
30444,-133.333333333333,4,2,1,35,0,0
44773,-111.111111111111,4,2,1,40,0,0
59101,-100,4,2,1,55,0,0
69847,-90.9090909090909,4,2,1,60,0,0
73429,-76.9230769230769,4,2,1,70,0,1
86862,-76.9230769230769,4,2,1,70,0,0
87758,-76.9230769230769,4,2,1,70,0,1
102086,-76.9230769230769,4,2,1,55,0,0
105556,-100,4,2,1,5,0,0
105668,-100,4,2,1,30,0,0

[Colours]
Combo1 : 192,192,192
Combo2 : 245,80,146
Combo3 : 253,113,116
Combo4 : 0,0,106

[HitObjects]
144,148,1116,54,0,L|172:140,3,25
428,160,1788,5,4,3:0:0:0:
296,72,2011,1,0,0:0:0:0:
320,224,2235,1,2,0:0:0:0:
384,72,2459,1,0,0:0:0:0:
384,72,2683,2,0,L|452:64,1,67.4999979400635,4|0,3:0|0:0,0:0:0:0:
248,168,3131,2,0,P|232:208|236:244,1,67.4999979400635,2|0,0:0|0:0,0:0:0:0:
424,316,3579,5,4,3:0:0:0:
320,224,3802,1,0,0:0:0:0:
448,208,4026,1,2,0:0:0:0:
312,328,4250,1,0,0:0:0:0:
312,328,4474,2,0,L|224:340,1,67.4999979400635,4|0,3:0|0:0,0:0:0:0:
144,208,4922,2,0,P|144:260|136:284,1,67.4999979400635,2|0,0:0|0:0,0:0:0:0:
8,344,5370,5,4,3:0:0:0:
140,276,5593,1,0,0:0:0:0:
28,228,5817,1,2,0:0:0:0:
160,360,6041,1,0,0:0:0:0:
160,360,6265,2,0,L|244:364,1,67.4999979400635,4|0,3:0|0:0,0:0:0:0:
348,268,6713,2,0,L|281:262,1,67.4999979400635,2|0,0:0|0:0,0:0:0:0:
140,276,7161,5,4,3:0:0:0:
296,336,7385,1,0,0:0:0:0:
224,212,7608,1,2,0:0:0:0:
48,264,7832,1,0,0:0:0:0:
48,264,8056,2,0,L|60:184,1,67.4999979400635,4|0,3:0|0:0,0:0:0:0:
200,120,8504,2,0,P|216:160|220:192,1,67.4999979400635,2|0,0:0|0:0,0:0:0:0:
124,308,8952,5,4,3:0:0:0:
276,240,9176,1,0,0:0:0:0:
136,208,9399,1,2,0:0:0:0:
248,328,9623,1,0,0:0:0:0:
248,328,9847,2,0,L|324:312,1,67.4999979400635,4|0,3:0|0:0,0:0:0:0:
388,156,10295,2,0,P|412:200|416:236,1,67.4999979400635,2|0,0:0|0:0,0:0:0:0:
376,372,10743,5,4,3:0:0:0:
272,248,10967,1,0,0:0:0:0:
416,216,11190,1,2,0:0:0:0:
280,336,11414,1,0,0:0:0:0:
280,336,11638,2,0,L|200:324,1,67.4999979400635,4|0,3:0|0:0,0:0:0:0:
152,168,12086,2,0,P|152:212|140:244,1,67.4999979400635,2|0,0:0|0:0,0:0:0:0:
0,296,12534,5,4,3:0:0:0:
144,236,12758,1,0,0:0:0:0:
24,168,12982,1,2,0:0:0:0:
128,320,13205,1,0,0:0:0:0:
128,320,13429,2,0,P|192:308|204:300,1,67.4999979400635,4|0,3:0|0:0,0:0:0:0:
304,208,13877,2,0,P|276:196|239:190,1,67.4999979400635,2|2,0:0|0:0,0:0:0:0:
100,172,14325,5,4,3:0:0:0:
252,264,14549,1,2,0:0:0:0:
272,120,14773,2,0,P|241:115|204:119,1,67.4999979400635,4|2,3:0|2:0,0:0:0:0:
64,180,15220,2,0,L|30:186,4,33.7499989700318,8|8|8|8|8,3:0|3:0|3:0|3:0|3:0,0:0:0:0:
332,172,16116,5,4,0:0:0:0:
464,248,16340,1,0,0:0:0:0:
292,320,16564,1,8,0:0:0:0:
456,360,16788,1,0,0:0:0:0:
456,360,16899,1,0,0:0:0:0:
456,360,17011,2,0,L|460:280,1,75,2|0,0:0|0:0,0:0:0:0:
332,172,17459,2,0,P|288:180|252:180,1,75,8|0,0:0|0:0,0:0:0:0:
112,64,17907,6,0,P|164:68|192:76,1,75,2|0,0:0|0:0,0:0:0:0:
257,180,18355,1,8,0:0:0:0:
112,240,18579,1,0,0:0:0:0:
112,240,18690,1,0,0:0:0:0:
112,240,18802,2,0,P|64:236|32:216,1,75,2|0,0:0|0:0,0:0:0:0:
196,228,19250,2,0,P|192:268|172:300,1,75,8|0,0:0|0:0,0:0:0:0:
20,320,19698,5,2,0:0:0:0:
174,297,19922,1,0,0:0:0:0:
92,160,20146,1,8,0:0:0:0:
116,356,20370,1,0,0:0:0:0:
116,356,20482,1,0,0:0:0:0:
116,356,20593,2,0,P|152:376|200:376,1,75,2|0,0:0|0:0,0:0:0:0:
316,272,21041,2,0,P|280:252|232:252,1,75,8|0,0:0|0:0,0:0:0:0:
48,264,21489,6,0,P|28:228|32:180,1,75,2|0,0:0|0:0,0:0:0:0:
120,60,21937,1,8,0:0:0:0:
172,200,22161,1,0,0:0:0:0:
172,200,22273,1,0,0:0:0:0:
172,200,22385,2,0,P|160:236|164:276,1,75,2|0,0:0|0:0,0:0:0:0:
308,340,22832,2,0,L|392:324,1,75,8|0,0:0|0:0,0:0:0:0:
484,168,23280,5,2,0:0:0:0:
336,68,23504,1,0,0:0:0:0:
360,232,23728,1,8,0:0:0:0:
436,64,23952,1,0,0:0:0:0:
436,64,24064,1,0,0:0:0:0:
436,64,24176,2,0,P|472:53|512:56,1,75,2|0,0:0|0:0,0:0:0:0:
360,148,24623,2,0,P|320:148|272:128,1,75,8|0,0:0|0:0,0:0:0:0:
160,52,25071,6,0,P|108:56|84:68,1,75,2|0,0:0|0:0,0:0:0:0:
12,188,25519,1,8,0:0:0:0:
168,232,25743,1,0,0:0:0:0:
168,232,25855,1,0,0:0:0:0:
168,232,25967,2,0,P|148:184|144:156,1,75,2|0,0:0|0:0,0:0:0:0:
284,76,26414,2,0,L|276:152,1,75,8|0,0:0|0:0,0:0:0:0:
336,308,26862,5,2,0:0:0:0:
168,232,27086,1,0,0:0:0:0:
340,200,27310,1,8,0:0:0:0:
192,320,27534,1,0,0:0:0:0:
192,320,27646,1,0,0:0:0:0:
192,320,27758,2,0,P|152:320|108:300,1,75,2|0,0:0|0:0,0:0:0:0:
48,172,28205,1,8,0:0:0:0:
192,152,28429,2,0,L|232:164,1,37.5,0|0,0:0|0:0,0:0:0:0:
312,232,28653,6,0,L|356:220,3,37.5,4|0|0|0,0:0|3:0|3:0|3:0,0:0:0:0:
208,364,29101,1,0,3:0:0:0:
172,240,29325,1,0,0:0:0:0:
298,303,29549,2,0,P|312:268|310:225,1,75,8|2,0:0|0:0,0:0:0:0:
244,100,29996,2,0,L|168:116,1,75,0|0,3:0|3:0,0:0:0:0:
32,252,30444,5,2,0:0:0:0:
172,240,30668,1,0,0:0:0:0:
32,252,30892,1,4,3:0:0:0:
112,116,31116,1,0,0:0:0:0:
172,240,31340,2,0,L|168:308,1,56.2500021457673,2|0,0:0|0:0,0:0:0:0:
72,376,31788,2,0,L|84:304,1,56.2500021457673,4|0,3:0|0:0,0:0:0:0:
264,248,32235,5,2,0:0:0:0:
392,296,32459,1,0,0:0:0:0:
264,332,32683,2,0,L|200:320,1,56.2500021457673,4|0,3:0|0:0,0:0:0:0:
336,176,33131,2,0,P|344:220|340:248,1,56.2500021457673,2|0,0:0|0:0,0:0:0:0:
184,172,33579,2,0,P|188:136|204:100,1,56.2500021457673,4|0,3:0|0:0,0:0:0:0:
408,92,34026,5,2,0:0:0:0:
272,64,34250,1,0,0:0:0:0:
368,184,34474,1,4,3:0:0:0:
348,28,34698,1,0,0:0:0:0:
264,160,34922,2,0,L|272:224,1,56.2500021457673,2|0,0:0|0:0,0:0:0:0:
440,280,35370,2,0,L|452:212,1,56.2500021457673,4|0,3:0|0:0,0:0:0:0:
270,215,35817,5,2,0:0:0:0:
412,152,36041,1,0,0:0:0:0:
248,72,36265,2,0,L|184:80,1,56.2500021457673,4|0,3:0|0:0,0:0:0:0:
36,160,36713,2,0,P|28:112|32:80,1,56.2500021457673,2|0,0:0|0:0,0:0:0:0:
164,176,37161,2,0,P|156:212|144:232,1,56.2500021457673,4|0,3:0|0:0,0:0:0:0:
4,312,37608,5,2,0:0:0:0:
148,352,37832,1,0,0:0:0:0:
4,312,38056,1,4,3:0:0:0:
146,228,38280,1,0,0:0:0:0:
36,160,38504,2,0,L|48:232,1,56.2500021457673,2|0,0:0|0:0,0:0:0:0:
217,295,38952,2,0,P|237:264|244:236,1,56.2500021457673,4|0,3:0|0:0,0:0:0:0:
132,92,39399,5,2,0:0:0:0:
251,157,39623,1,0,0:0:0:0:
147,229,39847,2,0,L|140:173,1,56.2500021457673,4|0,3:0|0:0,0:0:0:0:
251,157,40295,2,0,P|303:173|327:173,1,56.2500021457673,2|0,0:0|0:0,0:0:0:0:
208,52,40743,1,4,3:0:0:0:
348,8,40967,1,0,0:0:0:0:
251,157,41190,6,0,P|217:164|185:162,1,56.2500021457673,2|0,0:0|0:0,0:0:0:0:
104,148,41638,1,4,3:0:0:0:
208,52,41862,1,0,0:0:0:0:
196,164,42086,2,0,P|192:200|196:224,1,56.2500021457673,2|0,0:0|0:0,0:0:0:0:
296,288,42534,1,4,3:0:0:0:
156,316,42758,1,0,0:0:0:0:
296,368,42982,5,2,0:0:0:0:
194,219,43205,1,0,0:0:0:0:
352,228,43429,1,4,3:0:0:0:
183,319,43653,2,0,L|155:315,1,28.1250010728836,0|0,0:0|0:0,0:0:0:0:
52,268,43877,1,4,3:0:0:0:
63,242,43988,1,0,3:0:0:0:
70,215,44100,1,0,3:0:0:0:
73,187,44212,1,0,3:0:0:0:
72,159,44324,1,0,3:0:0:0:
36,28,44549,2,0,L|0:44,1,28.1250010728836,0|0,3:0|3:0,0:0:0:0:
216,92,44773,5,4,0:0:0:0:
72,16,44996,1,0,0:0:0:0:
216,92,45220,1,4,3:0:0:0:
72,159,45444,1,0,0:0:0:0:
72,159,45556,1,0,0:0:0:0:
72,159,45668,2,0,L|4:151,1,67.4999979400635,2|2,0:0|0:0,0:0:0:0:
152,240,46116,2,0,L|236:224,1,67.4999979400635,4|0,3:0|0:0,0:0:0:0:
380,140,46564,5,2,0:0:0:0:
232,104,46788,1,0,0:0:0:0:
380,140,47011,1,4,3:0:0:0:
218,227,47235,1,0,0:0:0:0:
218,227,47347,1,0,0:0:0:0:
218,227,47459,2,0,P|214:275|222:299,1,67.4999979400635,2|2,0:0|0:0,0:0:0:0:
336,356,47907,1,4,3:0:0:0:
418,221,48131,2,0,L|466:213,1,33.7499989700318,0|0,0:0|0:0,0:0:0:0:
296,176,48355,5,2,0:0:0:0:
452,216,48579,1,0,0:0:0:0:
296,176,48802,1,4,3:0:0:0:
404,76,49026,1,0,0:0:0:0:
404,76,49138,1,0,0:0:0:0:
404,76,49250,2,0,L|488:64,1,67.4999979400635,2|2,0:0|0:0,0:0:0:0:
296,176,49698,2,0,L|216:156,1,67.4999979400635,4|0,3:0|0:0,0:0:0:0:
120,48,50146,5,2,0:0:0:0:
230,159,50370,1,0,0:0:0:0:
60,164,50593,1,4,3:0:0:0:
228,64,50817,2,0,L|268:68,1,33.7499989700318,0|0,0:0|0:0,0:0:0:0:
352,144,51041,2,0,P|400:136|424:124,2,67.4999979400635,2|2|4,0:0|0:0|3:0,0:0:0:0:
164,120,51713,2,0,L|128:132,1,33.7499989700318,0|0,0:0|0:0,0:0:0:0:
316,240,51937,5,2,0:0:0:0:
180,280,52161,1,0,0:0:0:0:
316,240,52385,1,4,3:0:0:0:
252,96,52608,1,0,0:0:0:0:
252,96,52720,1,0,0:0:0:0:
252,96,52832,2,0,L|176:116,1,67.4999979400635,2|2,0:0|0:0,0:0:0:0:
352,144,53280,2,0,P|364:104|360:72,1,67.4999979400635,4|0,3:0|0:0,0:0:0:0:
196,32,53728,5,2,0:0:0:0:
272,176,53952,1,0,0:0:0:0:
112,132,54176,1,4,3:0:0:0:
252,96,54399,1,0,0:0:0:0:
252,96,54511,1,0,0:0:0:0:
252,96,54623,2,0,L|336:76,1,67.4999979400635,2|2,0:0|0:0,0:0:0:0:
300,220,55071,1,4,3:0:0:0:
252,96,55295,2,0,L|236:56,1,33.7499989700318,0|0,0:0|0:0,0:0:0:0:
400,32,55519,6,0,P|412:76|408:112,1,67.4999979400635,2|0,0:0|0:0,0:0:0:0:
300,220,55967,1,4,3:0:0:0:
448,264,56190,1,0,0:0:0:0:
448,264,56302,1,0,0:0:0:0:
448,264,56414,1,2,0:0:0:0:
336,144,56638,1,2,0:0:0:0:
220,244,56862,2,0,L|236:320,1,67.4999979400635,4|0,3:0|0:0,0:0:0:0:
400,344,57310,5,2,0:0:0:0:
233,310,57534,1,0,0:0:0:0:
400,344,57758,1,4,3:0:0:0:
303,154,57982,2,0,L|345:140,1,33.7499989700318,0|0,3:0|3:0,0:0:0:0:
200,168,58205,2,0,L|160:160,3,33.7499989700318,4|0|0|0,3:0|3:0|3:0|3:0,0:0:0:0:
240,256,58653,2,0,L|276:252,3,33.7499989700318,4|0|0|0,3:0|3:0|3:0|3:0,0:0:0:0:
100,228,59101,5,8,0:0:0:0:
78,197,59212,1,8,0:0:0:0:
70,161,59324,1,8,0:0:0:0:
77,124,59436,1,8,0:0:0:0:
98,93,59549,2,0,L|171:79,1,75,2|0,0:0|0:0,0:0:0:0:
360,136,59996,1,4,3:0:0:0:
220,72,60220,1,2,0:0:0:0:
380,4,60444,1,2,0:0:0:0:
424,200,60668,6,0,P|340:224|276:176,1,150,4|0,0:0|0:0,0:0:0:0:
171,78,61340,1,2,0:0:0:0:
296,104,61564,2,0,L|336:96,1,37.5,0|0,0:0|0:0,0:0:0:0:
196,172,61788,1,4,3:0:0:0:
88,36,62011,1,4,3:0:0:0:
8,156,62235,2,0,L|16:204,3,37.5,4|0|0|0,3:0|3:0|3:0|3:0,0:0:0:0:
112,240,62683,5,8,0:0:0:0:
139,265,62794,1,8,0:0:0:0:
173,279,62906,1,8,0:0:0:0:
211,280,63018,1,8,0:0:0:0:
246,268,63131,2,0,P|296:252|328:248,1,75,2|0,0:0|0:0,0:0:0:0:
496,268,63579,1,4,3:0:0:0:
360,244,63802,1,2,0:0:0:0:
468,348,64026,1,2,0:0:0:0:
444,176,64250,6,0,P|376:144|292:160,1,150,4|0,0:0|0:0,0:0:0:0:
176,224,64922,1,2,0:0:0:0:
268,344,65146,1,0,0:0:0:0:
360,244,65370,1,4,3:0:0:0:
212,140,65593,2,0,L|168:132,1,37.5,4|0,3:0|0:0,0:0:0:0:
96,72,65817,2,0,L|56:88,3,37.5,4|0|0|0,3:0|3:0|3:0|3:0,0:0:0:0:
175,133,66265,5,8,0:0:0:0:
158,166,66376,1,8,0:0:0:0:
154,203,66488,1,8,0:0:0:0:
163,239,66600,1,8,0:0:0:0:
184,270,66713,2,0,L|260:260,1,75,2|0,0:0|0:0,0:0:0:0:
400,168,67161,1,4,3:0:0:0:
272,124,67385,1,2,0:0:0:0:
384,264,67608,1,2,0:0:0:0:
232,332,67832,6,0,B|264:284|264:284|236:188,1,150,4|0,0:0|0:0,0:0:0:0:
96,120,68504,1,2,0:0:0:0:
252,56,68728,1,0,0:0:0:0:
252,56,68840,1,0,0:0:0:0:
252,56,68952,2,0,L|328:64,1,75,4|2,3:0|0:0,0:0:0:0:
140,12,69399,1,4,3:0:0:0:
176,144,69623,2,0,L|164:196,1,37.5,0|0,3:0|3:0,0:0:0:0:
88,296,69847,6,0,P|68:248|76:204,1,82.5000025177003,4|0,0:0|0:0,0:0:0:0:
264,132,70295,2,0,P|282:168|281:209,1,82.5000025177003,4|2,3:0|0:0,0:0:0:0:
170,302,70743,2,0,L|88:296,1,82.5000025177003,4|2,3:0|0:0,0:0:0:0:
88,132,71190,1,4,3:0:0:0:
281,209,71414,1,2,0:0:0:0:
64,212,71638,5,4,0:0:0:0:
204,80,71862,1,0,0:0:0:0:
32,16,72086,1,4,3:0:0:0:
172,180,72310,1,4,3:0:0:0:
8,308,72534,1,4,3:0:0:0:
112,108,72758,5,0,3:0:0:0:
136,109,72869,1,0,3:0:0:0:
161,111,72981,1,4,3:0:0:0:
186,113,73093,1,0,3:0:0:0:
210,115,73205,1,0,3:0:0:0:
235,117,73317,1,0,3:0:0:0:
264,120,73429,6,0,B|368:128|368:128|352:144|348:164,1,146.249993305207,4|0,0:0|0:0,0:0:0:0:
240,216,73877,1,8,0:0:0:0:
304,48,74101,1,0,0:0:0:0:
436,188,74325,2,0,B|460:244|452:296|452:296|408:284,1,146.249993305207,2|0,0:0|0:0,0:0:0:0:
320,238,74773,1,8,0:0:0:0:
345,376,74996,2,0,L|401:368,1,48.7499977684022
279,303,75220,6,0,P|227:311|179:283,1,97.4999955368044,2|0,0:0|0:0,0:0:0:0:
32,192,75668,1,8,0:0:0:0:
201,52,75892,1,0,0:0:0:0:
201,52,76004,1,0,0:0:0:0:
201,52,76116,2,0,L|181:160,1,97.4999955368044,2|0,0:0|0:0,0:0:0:0:
276,276,76564,2,0,P|314:246|331:201,1,97.4999955368044,8|0,0:0|0:0,0:0:0:0:
183,147,77011,6,0,B|135:163|87:159|87:159|99:111,1,146.249993305207,4|0,0:0|0:0,0:0:0:0:
201,52,77459,1,8,0:0:0:0:
200,232,77683,1,0,0:0:0:0:
412,108,77907,2,0,B|316:76|316:76|308:108|288:128,1,146.249993305207,2|0,0:0|0:0,0:0:0:0:
201,52,78355,2,0,P|184:104|184:148,1,97.4999955368044,8|0,0:0|0:0,0:0:0:0:
216,272,78802,6,0,L|312:248,1,97.4999955368044,2|0,0:0|0:0,0:0:0:0:
404,120,79250,1,8,0:0:0:0:
488,248,79474,2,0,L|484:300,1,48.7499977684022,0|0,0:0|0:0,0:0:0:0:
428,380,79698,2,0,P|388:328|388:284,1,97.4999955368044,2|2,0:0|0:0,0:0:0:0:
404,120,80146,1,8,0:0:0:0:
264,44,80370,5,0,0:0:0:0:
264,44,80482,1,0,0:0:0:0:
264,44,80593,2,0,B|292:92|288:156|288:156|236:164,1,146.249993305207,4|0,0:0|0:0,0:0:0:0:
140,172,81041,1,8,0:0:0:0:
264,44,81265,2,0,L|320:32,1,48.7499977684022,0|0,0:0|0:0,0:0:0:0:
464,92,81489,2,0,L|370:119,1,97.4999955368044,2|0,0:0|0:0,0:0:0:0:
140,172,81937,1,8,0:0:0:0:
304,304,82161,5,0,0:0:0:0:
304,304,82273,1,0,0:0:0:0:
304,304,82385,2,0,P|332:240|328:196,1,97.4999955368044,2|0,0:0|0:0,0:0:0:0:
216,56,82832,1,8,0:0:0:0:
60,164,83056,2,0,L|12:156,1,48.7499977684022,0|0,0:0|0:0,0:0:0:0:
124,240,83280,2,0,L|232:228,1,97.4999955368044,2|0,0:0|0:0,0:0:0:0:
348,112,83728,1,8,0:0:0:0:
444,292,83952,5,0,0:0:0:0:
444,292,84064,1,0,0:0:0:0:
444,292,84176,2,0,P|399:316|326:315,1,97.4999955368044,2|0,0:0|0:0,0:0:0:0:
196,196,84623,1,8,0:0:0:0:
348,112,84847,1,0,0:0:0:0:
348,112,84959,1,0,0:0:0:0:
348,112,85071,2,0,L|448:128,1,97.4999955368044,2|0,0:0|0:0,0:0:0:0:
353,320,85519,1,8,0:0:0:0:
132,276,85743,6,0,B|84:228|100:164|100:164|140:140,1,146.249993305207,4|0,0:0|0:0,0:0:0:0:
281,138,86190,1,0,0:0:0:0:
56,32,86414,1,8,0:0:0:0:
196,196,86638,1,0,3:0:0:0:
206,210,86750,1,0,3:0:0:0:
223,224,86862,5,4,3:0:0:0:
249,235,86973,1,4,3:0:0:0:
277,240,87085,1,0,3:0:0:0:
306,236,87198,1,0,3:0:0:0:
340,219,87310,5,4,3:0:0:0:
385,203,87422,1,0,3:0:0:0:
430,224,87534,1,0,3:0:0:0:
442,270,87646,1,0,3:0:0:0:
419,311,87758,6,0,B|461:275|436:227|404:204|404:204|367:202,1,146.249993305207,4|0,0:0|0:0,0:0:0:0:
249,235,88205,1,8,0:0:0:0:
340,76,88429,1,0,0:0:0:0:
279,331,88653,2,0,B|200:340|160:312|160:312|160:268,1,146.249993305207,2|0,0:0|0:0,0:0:0:0:
184,168,89101,1,8,0:0:0:0:
385,203,89325,2,0,L|437:184,1,48.7499977684022
372,356,89549,6,0,P|322:351|279:331,1,97.4999955368044,2|0,0:0|0:0,0:0:0:0:
184,168,89996,1,8,0:0:0:0:
376,32,90220,1,0,0:0:0:0:
376,32,90332,1,0,0:0:0:0:
376,32,90444,2,0,L|360:148,1,97.4999955368044,2|0,0:0|0:0,0:0:0:0:
280,332,90892,2,0,L|268:236,1,97.4999955368044,8|0,0:0|0:0,0:0:0:0:
72,92,91340,6,0,B|32:140|44:200|44:200|84:212,1,146.249993305207,4|0,0:0|0:0,0:0:0:0:
192,180,91788,1,8,0:0:0:0:
112,312,92011,2,0,L|63:304,1,48.7499977684022,0|0,0:0|0:0,0:0:0:0:
272,336,92235,1,2,0:0:0:0:
135,167,92459,1,2,0:0:0:0:
336,88,92683,1,8,0:0:0:0:
456,288,92907,6,0,B|381:281|381:281|337:253|337:253|269:249,1,194.999991073609,4|0,0:0|0:0,0:0:0:0:
68,124,93579,1,8,0:0:0:0:
112,320,93802,2,0,B|180:324|180:324|224:352|224:352|299:359,1,194.999991073609,4|2,0:0|0:0,0:0:0:0:
456,288,94474,1,8,0:0:0:0:
427,248,94585,1,0,3:0:0:0:
420,201,94697,1,0,3:0:0:0:
435,155,94809,1,0,3:0:0:0:
468,120,94922,6,0,P|396:136|336:132,1,97.4999955368044,4|0,0:0|0:0,0:0:0:0:
232,12,95370,1,8,0:0:0:0:
262,151,95593,1,0,0:0:0:0:
262,151,95705,1,0,0:0:0:0:
262,151,95817,2,0,P|269:199|267:251,1,97.4999955368044,2|0,0:0|0:0,0:0:0:0:
112,320,96265,1,8,0:0:0:0:
278,259,96489,5,0,0:0:0:0:
278,259,96601,1,0,0:0:0:0:
278,259,96713,2,0,P|346:259|386:267,1,97.4999955368044,2|0,0:0|0:0,0:0:0:0:
504,352,97161,1,8,0:0:0:0:
374,264,97385,2,0,P|355:236|348:201,1,48.7499977684022
460,100,97608,2,0,P|460:180|448:216,1,97.4999955368044,0|0,0:0|0:0,0:0:0:0:
312,340,98056,1,8,0:0:0:0:
168,168,98280,5,0,0:0:0:0:
168,168,98392,1,0,0:0:0:0:
168,168,98504,1,2,0:0:0:0:
320,236,98728,1,0,0:0:0:0:
128,292,98952,1,8,0:0:0:0:
312,340,99176,2,0,L|376:348,1,48.7499977684022,0|0,0:0|0:0,0:0:0:0:
504,284,99399,2,0,L|409:261,1,97.4999955368044,2|2,0:0|0:0,0:0:0:0:
224,136,99847,1,8,0:0:0:0:
424,40,100071,6,0,B|452:116|388:168|388:168|328:156,1,194.999991073609,4|0,0:0|0:0,0:0:0:0:
112,112,100743,1,4,3:0:0:0:
192,320,100967,1,0,0:0:0:0:
178,294,101079,1,0,0:0:0:0:
181,255,101190,5,4,3:0:0:0:
206,225,101302,1,0,3:0:0:0:
243,214,101414,1,0,3:0:0:0:
280,225,101526,1,0,3:0:0:0:
323,246,101638,5,4,3:0:0:0:
371,250,101750,1,0,3:0:0:0:
415,230,101862,1,0,3:0:0:0:
446,192,101974,1,0,3:0:0:0:
448,143,102086,5,4,0:0:0:0:
256,192,102198,12,0,105556,0:0:0:0:
92,160,105668,5,4,3:0:0:0:
240,96,105892,1,0,0:0:0:0:
92,160,106116,1,2,0:0:0:0:
200,240,106340,1,0,0:0:0:0:
200,240,106564,2,0,L|288:224,1,75,4|0,3:0|0:0,0:0:0:0:
412,132,107011,2,0,P|396:188|396:224,1,75,2|0,0:0|0:0,0:0:0:0:
488,344,107459,5,4,3:0:0:0:
328,288,107683,1,0,0:0:0:0:
488,344,107907,1,2,0:0:0:0:
395,204,108131,1,0,0:0:0:0:
356,368,108355,2,0,P|304:368|272:348,1,75,4|0,3:0|0:0,0:0:0:0:
144,256,108802,2,0,P|188:244|228:240,1,75,2|0,0:0|0:0,0:0:0:0:
384,264,109250,5,4,3:0:0:0:
260,168,109474,1,0,0:0:0:0:
384,264,109698,1,2,0:0:0:0:
216,316,109922,1,0,0:0:0:0:
352,192,110146,2,0,L|340:96,1,75,4|0,3:0|0:0,0:0:0:0:
200,36,110593,2,0,L|192:124,1,75,2|0,0:0|0:0,0:0:0:0:
352,192,111041,5,4,3:0:0:0:
184,232,111265,1,0,0:0:0:0:
352,192,111489,1,2,0:0:0:0:
256,320,111713,1,0,0:0:0:0:
92,248,111937,2,0,P|94:203|119:158,1,75,4|0,3:0|0:0,0:0:0:0:
273,92,112385,2,0,P|325:116|357:116,1,75,2|0,0:0|0:0,0:0:0:0:
500,72,112832,5,4,3:0:0:0:
340,24,113056,1,0,0:0:0:0:
500,72,113280,1,2,0:0:0:0:
388,188,113504,1,0,0:0:0:0:
200,136,113728,2,0,P|188:84|204:48,1,75,4|0,3:0|0:0,0:0:0:0:
292,188,114176,2,0,L|276:272,1,75,2|0,0:0|0:0,0:0:0:0:
192,364,114623,5,2,0:0:0:0:
108,224,114847,1,4,3:0:0:0:
292,188,115071,1,2,0:0:0:0:
115,260,115295,2,0,L|107:220,1,37.5,4|0,3:0|0:0,0:0:0:0:
208,68,115519,2,0,L|200:108,3,37.5,8|8|8|8,3:0|3:0|3:0|3:0,0:0:0:0:
232,135,115967,5,8,3:0:0:0:
211,175,116078,1,8,3:0:0:0:
167,168,116190,1,8,3:0:0:0:
160,123,116302,1,4,3:0:0:0:
