osu file format v14

[General]
AudioFilename: audio.mp3
AudioLeadIn: 0
PreviewTime: 49155
Countdown: 1
SampleSet: Soft
StackLeniency: 0.7
Mode: 0
LetterboxInBreaks: 0
WidescreenStoryboard: 0

[Editor]
Bookmarks: 10090,20525,28872,37220,45568,47655,49220,49742,53916,54959,56003,57046,58090,62264,63698,64351,66438,76872
DistanceSpacing: 0.7
BeatDivisor: 4
GridSize: 4
TimelineZoom: 2.2

[Metadata]
Title:DREAMxSCRAMBLE
TitleUnicode:DREAM×SCRAMBLE!
Artist:AiRI
ArtistUnicode:AiRI
Creator:Mokobe
Version:DREAM!!
Source:競女!!!!!!!!
Tags:AJiSAI- Tradeless TradelessAjisai Nemko
BeatmapID:2109825
BeatmapSetID:1008073

[Difficulty]
HPDrainRate:5
CircleSize:3.8
OverallDifficulty:8.7
ApproachRate:9.8
SliderMultiplier:1.64
SliderTickRate:1

[Events]
//Background and Video events
0,0,"wp3618828.jpg",0,0
//Break Periods
//Storyboard Layer 0 (Background)
//Storyboard Layer 1 (Fail)
//Storyboard Layer 2 (Pass)
//Storyboard Layer 3 (Foreground)
//Storyboard Sound Samples

[TimingPoints]
699,260.869565217391,4,2,5,70,1,0
699,-119.047619047619,4,2,5,70,0,0
10090,-106.382978723404,4,2,5,70,0,0
20525,-135.135135135135,4,2,5,70,0,0
28872,-119.047619047619,4,2,5,70,0,0
37742,-47.1698113207547,4,2,5,70,0,0
38264,-119.047619047619,4,2,5,70,0,0
38785,-47.1698113207547,4,2,5,70,0,0
39307,-119.047619047619,4,2,5,70,0,0
39829,-47.1698113207547,4,2,5,70,0,0
40351,-119.047619047619,4,2,5,70,0,0
41394,-119.047619047619,4,2,5,70,0,0
41916,-47.1698113207547,4,2,5,70,0,0
42438,-119.047619047619,4,2,5,70,0,0
42959,-47.1698113207547,4,2,5,70,0,0
43481,-119.047619047619,4,2,5,70,0,0
44003,-47.1698113207547,4,2,5,70,0,0
44525,-119.047619047619,4,2,5,70,0,0
45568,-106.382978723404,4,2,5,70,0,0
49742,-87.7192982456139,4,2,5,85,0,1
66438,-106.382978723404,4,2,5,85,0,0
67742,-106.382978723404,4,2,5,5,0,0
67807,-106.382978723404,4,2,5,85,0,0
67872,-106.382978723404,4,2,5,5,0,0
68133,-106.382978723404,4,2,5,85,0,0
76807,-106.382978723404,4,2,5,5,0,0
76872,-212.765957446809,4,2,5,19,0,0
76872,-212.765957446809,4,2,5,24,0,0
77133,-212.765957446809,4,2,5,5,0,0
77916,-212.765957446809,4,2,5,5,0,0

[HitObjects]
164,50,699,5,0,0:0:0:0:
297,298,829,1,0,0:0:0:0:
275,0,959,1,0,0:0:0:0:
173,287,1089,1,0,0:0:0:0:
363,51,1220,1,0,0:0:0:0:
89,113,1350,1,0,0:0:0:0:
392,270,1481,1,0,0:0:0:0:
238,68,1612,1,0,0:0:0:0:
56,260,1742,5,0,0:0:0:0:
56,260,1872,1,0,0:0:0:0:
56,260,2133,6,0,B|108:284|108:284|282:260,1,206.639993693848
455,260,2785,5,0,0:0:0:0:
455,260,2915,1,0,0:0:0:0:
455,260,3176,6,0,B|403:284|403:284|231:260,1,206.639993693848
347,65,3829,5,0,0:0:0:0:
347,65,3959,1,0,0:0:0:0:
347,65,4220,2,0,P|376:130|331:263,1,206.639993693848
268,272,4872,2,0,B|278:338|278:338|352:388,3,137.759995795899
239,148,5916,5,0,0:0:0:0:
181,238,6047,1,0,0:0:0:0:
56,244,6307,6,0,B|108:268|108:268|276:248,1,206.639993693848
273,148,6959,5,0,0:0:0:0:
331,238,7090,1,0,0:0:0:0:
455,249,7350,6,0,B|403:273|403:273|223:245,1,206.639993693848
427,10,8003,5,0,0:0:0:0:
485,100,8134,1,0,0:0:0:0:
347,65,8394,6,0,P|376:130|335:256,1,194.039994078369
34,289,9046,6,0,L|92:278,1,34.4399989489746
345,244,9177,1,0,0:0:0:0:
16,218,9307,6,0,L|74:207,1,34.4399989489746
327,173,9438,1,0,0:0:0:0:
27,134,9568,6,0,L|85:123,1,32.3399990130616
338,89,9699,1,0,0:0:0:0:
9,63,9829,6,0,L|67:52,1,32.3399990130616
320,18,9960,1,0,0:0:0:0:
191,287,10090,6,0,B|161:253|161:253|174:127,1,154.159997647705
287,276,10481,1,0,0:0:0:0:
158,359,10612,2,0,P|93:355|56:337,1,77.0799988238526
287,276,10872,2,0,P|324:266|362:268,1,77.0799988238526
466,68,11133,6,0,B|432:96|432:96|436:233,1,154.159997647705
48,224,11525,1,0,0:0:0:0:
116,41,11655,2,0,B|150:69|150:69|146:206,1,154.159997647705
289,278,12046,1,0,0:0:0:0:
66,344,12177,6,0,B|130:340|130:340|154:353|154:353|230:348,1,154.159997647705
363,283,12568,1,0,0:0:0:0:
221,121,12698,2,0,L|216:222,1,77.0799988238526
429,133,12959,2,0,L|425:56,1,77.0799988238526
257,26,13220,6,0,P|189:7|131:13,1,115.619998235779
26,117,13481,1,0,0:0:0:0:
108,137,13612,6,0,P|176:118|234:124,1,115.619998235779
338,266,13873,1,0,0:0:0:0:
315,85,14003,1,0,0:0:0:0:
227,233,14133,1,0,0:0:0:0:
417,37,14264,6,0,B|450:73|450:73|435:194,1,154.159997647705
298,349,14655,1,0,0:0:0:0:
131,203,14785,2,0,P|70:193|28:212,1,77.0799988238526
298,349,15046,2,0,P|336:353|372:342,1,77.0799988238526
164,64,15307,6,0,B|132:90|132:90|130:239,1,154.159997647705
298,349,15698,1,0,0:0:0:0:
441,182,15829,6,0,B|473:208|473:208|475:357,1,154.159997647705
216,271,16220,1,0,0:0:0:0:
276,91,16351,6,0,B|350:88|350:88|373:100|373:100|443:98,1,154.159997647705
251,6,16742,1,0,0:0:0:0:
130,202,16872,2,0,P|88:208|23:192,1,77.0799988238526
298,349,17133,2,0,P|336:344|374:350,1,77.0799988238526
354,165,17394,5,0,0:0:0:0:
331,265,17525,1,0,0:0:0:0:
444,181,17655,1,0,0:0:0:0:
318,74,17785,1,0,0:0:0:0:
275,217,17916,1,0,0:0:0:0:
419,80,18046,1,0,0:0:0:0:
481,272,18177,1,0,0:0:0:0:
351,4,18307,1,0,0:0:0:0:
176,240,18438,5,0,0:0:0:0:
116,39,18568,1,0,0:0:0:0:
46,241,18698,1,0,0:0:0:0:
203,83,18829,1,0,0:0:0:0:
221,346,18959,1,0,0:0:0:0:
72,136,19090,1,0,0:0:0:0:
342,157,19220,1,0,0:0:0:0:
95,319,19350,1,0,0:0:0:0:
204,0,19481,1,0,0:0:0:0:
322,327,20525,6,0,B|366:344|366:344|453:330,1,121.360002962891
485,240,20916,1,0,0:0:0:0:
485,240,21046,2,0,L|405:246,1,60.6800014814453
342,210,21307,1,0,0:0:0:0:
256,259,21438,6,0,B|239:296|239:296|262:403,1,121.360002962891
171,370,21829,2,0,L|156:299,1,60.6800014814453
64,282,22090,2,0,L|76:341,1,60.6800014814453
139,238,22351,2,0,L|117:159,1,60.6800014814453
138,102,22612,6,0,P|181:71|252:99,1,121.360002962891
292,146,23003,2,0,P|335:177|406:149,1,121.360002962891
471,95,23394,1,0,0:0:0:0:
471,95,23525,2,0,L|470:233,1,121.360002962891
434,372,23916,1,0,0:0:0:0:
350,237,24046,1,0,0:0:0:0:
303,371,24177,1,0,0:0:0:0:
434,293,24307,1,0,0:0:0:0:
264,229,24438,6,0,P|215:212|155:222,1,91.020002222168
124,272,24698,6,0,B|97:230|97:230|105:134,1,121.360002962891
165,82,25090,1,0,0:0:0:0:
238,120,25220,2,0,B|273:127|273:127|309:119,1,60.6800014814453
365,71,25481,1,0,0:0:0:0:
433,125,25612,6,0,B|462:158|462:158|453:250,1,121.360002962891
402,302,26003,2,0,P|367:318|332:313,1,60.6800014814453
265,279,26264,2,0,P|230:263|195:268,1,60.6800014814453
86,338,26525,1,0,0:0:0:0:
89,171,26655,1,0,0:0:0:0:
199,340,26785,6,0,L|181:391,3,30.3400007407227
265,279,27046,2,0,L|283:330,3,30.3400007407227
194,215,27307,5,0,0:0:0:0:
210,197,27372,1,0,0:0:0:0:
231,185,27437,1,0,0:0:0:0:
255,181,27502,1,0,0:0:0:0:
279,183,27568,5,0,0:0:0:0:
316,195,27633,1,0,0:0:0:0:
354,188,27698,1,0,0:0:0:0:
385,163,27763,1,0,0:0:0:0:
344,153,27829,6,0,L|358:296,1,121.360002962891
412,50,28351,6,0,B|363:54|363:54|341:45|341:45|209:54,1,182.040004444336
67,89,28872,6,0,B|31:133|31:133|38:233,1,137.759995795899
144,299,29264,1,0,0:0:0:0:
248,198,29394,2,0,P|294:189|341:203,1,68.8799978979493
387,330,29655,1,0,0:0:0:0:
446,113,29785,6,0,B|478:152|478:152|469:265,1,137.759995795899
290,307,30177,1,0,0:0:0:0:
470,346,30307,1,0,0:0:0:0:
352,245,30438,1,0,0:0:0:0:
235,368,30568,1,0,0:0:0:0:
276,209,30698,1,0,0:0:0:0:
358,363,30829,1,0,0:0:0:0:
369,125,30959,6,0,B|326:93|326:93|222:103,1,137.759995795899
6,231,31351,6,0,B|49:199|49:199|153:209,1,137.759995795899
19,315,31742,1,0,0:0:0:0:
109,79,31872,6,0,P|139:135|126:219,1,137.759995795899
213,343,32264,1,0,0:0:0:0:
325,127,32394,1,0,0:0:0:0:
502,361,32525,1,0,0:0:0:0:
405,77,32655,1,0,0:0:0:0:
310,358,32785,1,0,0:0:0:0:
512,191,32916,1,0,0:0:0:0:
260,23,33046,6,0,B|228:68|228:68|234:171,1,137.759995795899
188,238,33438,1,0,0:0:0:0:
151,85,33568,2,0,L|160:179,1,68.8799978979493
108,267,33829,1,0,0:0:0:0:
82,54,33959,6,0,B|66:85|66:85|72:206,1,137.759995795899
154,336,34351,2,0,P|197:343|245:324,1,68.8799978979493
285,282,34612,2,0,P|318:274|352:280,1,68.8799978979493
468,303,34872,1,0,0:0:0:0:
393,384,35003,1,0,0:0:0:0:
391,157,35133,6,0,B|358:188|358:188|351:288,1,137.759995795899
282,73,35525,6,0,B|343:72|343:72|365:84|365:84|416:82,1,137.759995795899
241,218,35916,1,0,0:0:0:0:
152,17,36046,6,0,B|123:52|123:52|138:164,1,137.759995795899
105,333,36438,1,0,0:0:0:0:
38,114,36568,1,0,0:0:0:0:
6,329,36698,1,0,0:0:0:0:
135,143,36829,1,0,0:0:0:0:
194,363,36959,1,0,0:0:0:0:
10,229,37090,1,0,0:0:0:0:
262,78,37220,6,0,B|319:75|319:75|350:84|350:84|406:79,1,137.759995795899
449,153,37742,2,0,P|394:103|498:138,1,347.680000530518
500,242,38264,6,0,B|443:239|443:239|412:248|412:248|356:243,1,137.759995795899
313,317,38786,2,0,P|368:267|264:302,1,347.680000530518
78,309,39307,6,0,B|90:247|90:247|94:199|48:184,1,137.759995795899
188,0,39829,2,0,B|172:199|172:199|159:309|255:336,1,347.680000530518
435,351,40351,6,0,L|308:343,1,103.319996846924
268,245,40612,1,0,0:0:0:0:
344,249,40742,6,0,L|471:241,1,103.319996846924
511,143,41003,1,0,0:0:0:0:
405,27,41133,2,0,L|411:114,1,68.8799978979493
250,78,41394,6,0,B|193:75|193:75|162:84|162:84|106:79,1,137.759995795899
63,153,41916,2,0,P|118:103|14:138,1,347.680000530518
12,242,42438,6,0,B|69:239|69:239|100:248|100:248|156:243,1,137.759995795899
199,317,42960,2,0,P|144:267|248:302,1,347.680000530518
434,309,43481,6,0,B|422:247|422:247|418:199|464:184,1,137.759995795899
324,0,44003,2,0,B|340:199|340:199|353:309|257:336,1,347.680000530518
183,335,44525,6,0,P|262:333|307:313,1,103.319996846924
340,256,44785,1,0,0:0:0:0:
264,216,44916,6,0,P|185:214|140:194,1,103.319996846924
107,137,45177,1,0,0:0:0:0:
327,3,45307,6,0,L|328:116,1,103.319996846924
478,104,45568,2,0,B|424:120|424:120|312:104,1,154.159997647705
466,216,45959,1,0,0:0:0:0:
347,330,46090,2,0,P|336:273|352:230,1,77.0799988238526
485,29,46351,2,0,P|488:67|477:103,1,77.0799988238526
190,245,46612,6,0,B|269:241|269:241|293:256|293:256|356:254,1,154.159997647705
222,153,47003,1,0,0:0:0:0:
80,267,47133,2,0,L|75:359,1,77.0799988238526
217,76,47394,2,0,L|222:168,1,77.0799988238526
477,298,47655,5,0,0:0:0:0:
313,118,47785,1,0,0:0:0:0:
287,350,47916,1,0,0:0:0:0:
460,158,48046,1,0,0:0:0:0:
179,250,48177,1,0,0:0:0:0:
425,364,48307,1,0,0:0:0:0:
245,26,48438,1,0,0:0:0:0:
183,372,48568,1,0,0:0:0:0:
440,84,48698,5,0,0:0:0:0:
117,118,49221,5,0,0:0:0:0:
99,268,49351,1,0,0:0:0:0:
131,48,49481,5,0,0:0:0:0:
149,198,49611,1,0,0:0:0:0:
332,6,49742,6,0,B|371:55|371:55|358:223,1,186.959997717773
282,324,50133,1,0,0:0:0:0:
271,79,50264,2,0,L|251:205,1,93.4799988588867
470,249,50525,2,0,L|455:156,1,93.4799988588867
99,315,50785,6,0,B|180:312|180:312|201:327|201:327|300:323,1,186.959997717773
455,156,51177,6,0,B|374:159|374:159|353:144|353:144|254:148,1,186.959997717773
18,234,51568,2,0,L|141:226,1,93.4799988588867
330,227,51829,1,0,0:0:0:0:
132,307,51959,1,0,0:0:0:0:
359,321,52090,1,0,0:0:0:0:
159,176,52220,1,0,0:0:0:0:
265,377,52351,1,0,0:0:0:0:
226,102,52481,1,0,0:0:0:0:
171,384,52612,1,0,0:0:0:0:
301,71,52742,1,0,0:0:0:0:
454,350,52872,6,0,B|491:306|491:306|502:146,1,186.959997717773
210,181,53264,2,0,B|229:235|229:235|362:324,1,186.959997717773
390,66,53655,2,0,B|333:55|333:55|276:82,1,93.4799988588867
140,194,53916,5,0,0:0:0:0:
191,49,54046,1,0,0:0:0:0:
291,204,54177,1,0,0:0:0:0:
113,83,54307,1,0,0:0:0:0:
86,269,54438,1,0,0:0:0:0:
230,110,54568,1,0,0:0:0:0:
299,326,54698,1,0,0:0:0:0:
137,7,54829,1,0,0:0:0:0:
33,358,54959,6,0,B|80:373|80:373|149:363,1,93.4799988588867
237,186,55220,1,0,0:0:0:0:
377,367,55351,1,0,0:0:0:0:
320,148,55481,1,0,0:0:0:0:
225,350,55612,1,0,0:0:0:0:
421,230,55742,1,0,0:0:0:0:
124,166,55872,1,0,0:0:0:0:
484,319,56003,6,0,B|501:295|501:295|511:227,1,93.4799988588867
370,17,56264,1,0,0:0:0:0:
339,308,56394,1,0,0:0:0:0:
443,73,56525,1,0,0:0:0:0:
484,319,56655,1,0,0:0:0:0:
278,21,56785,1,0,0:0:0:0:
195,363,56916,1,0,0:0:0:0:
91,54,57046,6,0,L|84:122,1,46.7399994294434
56,302,57177,1,0,0:0:0:0:
181,28,57307,6,0,L|188:96,1,46.7399994294434
216,276,57438,1,0,0:0:0:0:
362,21,57568,5,0,0:0:0:0:
473,305,57698,1,0,0:0:0:0:
438,22,57829,1,0,0:0:0:0:
348,315,57959,1,0,0:0:0:0:
279,142,58090,6,0,B|221:120|221:120|70:160,1,186.959997717773
359,220,58481,1,0,0:0:0:0:
285,50,58612,2,0,P|274:104|296:182,1,93.4799988588867
478,313,58872,2,0,P|482:266|471:221,1,93.4799988588867
61,328,59133,6,0,B|150:331|150:331|173:346|173:346|265:349,1,186.959997717773
170,90,59525,2,0,B|122:165|122:165|98:177|98:177|49:256,1,186.959997717773
300,263,59916,2,0,B|281:225|281:225|262:208|262:208|245:166,1,93.4799988588867
379,20,60177,5,0,0:0:0:0:
480,232,60307,1,0,0:0:0:0:
324,95,60438,1,0,0:0:0:0:
229,285,60568,1,0,0:0:0:0:
383,155,60698,1,0,0:0:0:0:
454,350,60829,1,0,0:0:0:0:
293,212,60959,1,0,0:0:0:0:
478,100,61090,1,0,0:0:0:0:
331,340,61220,6,0,B|273:369|273:369|135:349,1,186.959997717773
251,100,61612,6,0,B|305:135|305:135|356:265,1,186.959997717773
107,247,62003,6,0,B|105:205|105:205|147:144,1,93.4799988588867
316,52,62264,5,0,0:0:0:0:
457,181,62394,1,0,0:0:0:0:
258,182,62525,1,0,0:0:0:0:
423,90,62655,1,0,0:0:0:0:
367,277,62785,1,0,0:0:0:0:
288,113,62916,1,0,0:0:0:0:
455,247,63046,5,0,0:0:0:0:
255,306,63177,1,0,0:0:0:0:
371,168,63307,1,0,0:0:0:0:
404,359,63438,1,0,0:0:0:0:
200,236,63568,1,0,0:0:0:0:
380,92,63698,1,0,0:0:0:0:
95,12,63829,6,0,B|81:49|81:49|112:212,1,186.959997717773
200,236,64220,1,0,0:0:0:0:
256,105,64351,5,0,0:0:0:0:
384,240,64481,1,0,0:0:0:0:
178,311,64612,1,0,0:0:0:0:
328,134,64742,1,0,0:0:0:0:
376,349,64872,1,0,0:0:0:0:
164,147,65003,1,0,0:0:0:0:
429,114,65133,1,0,0:0:0:0:
253,360,65264,1,0,0:0:0:0:
225,64,65394,5,0,0:0:0:0:
145,321,65525,1,0,0:0:0:0:
371,217,65655,1,0,0:0:0:0:
99,61,65785,1,0,0:0:0:0:
263,374,65916,1,0,0:0:0:0:
387,109,66046,1,0,0:0:0:0:
61,226,66177,1,0,0:0:0:0:
450,283,66307,1,0,0:0:0:0:
197,22,66438,6,0,B|173:58|173:58|188:162,1,115.619998235779
271,169,66698,2,0,P|226:155|158:188,1,115.619998235779
61,226,66959,2,0,P|112:201|167:214,1,115.619998235779
131,319,67220,2,0,B|158:289|158:289|169:196,1,115.619998235779
131,319,67481,6,0,B|211:319|211:319|233:335|233:335|356:334,2,192.699997059631
330,233,68394,1,0,0:0:0:0:
432,337,68525,2,0,B|456:297|456:297|447:204,1,115.619998235779
386,124,68785,2,0,B|410:164|410:164|401:257,1,115.619998235779
272,128,69046,2,0,B|322:120|322:120|348:129|348:129|395:122,1,115.619998235779
481,45,69307,2,0,B|431:53|431:53|405:44|405:44|358:51,1,115.619998235779
225,72,69568,6,0,P|193:117|258:198,1,154.159997647705
368,245,69959,2,0,B|277:226|308:296|191:267,1,154.159997647705
25,265,70351,1,0,0:0:0:0:
111,372,70481,1,0,0:0:0:0:
117,95,70612,6,0,B|159:68|159:68|258:73,1,115.619998235779
350,169,70872,6,0,B|308:142|308:142|209:147,1,115.619998235779
116,235,71133,2,0,L|254:219,1,115.619998235779
369,311,71394,2,0,L|254:297,1,115.619998235779
450,168,71655,6,0,B|473:210|473:210|446:342,1,154.159997647705
382,89,72046,6,0,B|359:131|359:131|386:263,1,154.159997647705
471,53,72568,1,0,0:0:0:0:
330,15,72698,2,0,P|274:-1|210:26,1,115.619998235779
115,67,72959,2,0,P|171:51|235:78,1,115.619998235779
110,182,73220,2,0,L|115:59,1,115.619998235779
24,22,73481,2,0,L|28:137,1,115.619998235779
61,256,73742,6,0,B|133:256|133:256|159:241|159:241|241:240,1,154.159997647705
331,119,74133,1,0,0:0:0:0:
390,319,74264,1,0,0:0:0:0:
443,112,74394,1,0,0:0:0:0:
286,270,74525,1,0,0:0:0:0:
504,258,74655,1,0,0:0:0:0:
210,55,74785,5,0,0:0:0:0:
122,283,74916,1,0,0:0:0:0:
329,191,75046,1,0,0:0:0:0:
87,91,75177,1,0,0:0:0:0:
205,339,75307,1,0,0:0:0:0:
296,83,75438,1,0,0:0:0:0:
48,186,75568,1,0,0:0:0:0:
303,342,75698,1,0,0:0:0:0:
176,59,75829,1,0,0:0:0:0:
501,263,76351,6,0,B|465:293|371:291|371:291|306:243|235:264,1,269.779995883484
52,341,76872,6,0,B|88:371|182:369|182:369|247:321|308:338|308:338|279:339|261:348,1,308.31999529541
