osu file format v14

[General]
AudioFilename: audio.mp3
AudioLeadIn: 0
PreviewTime: 19457
Countdown: 1
SampleSet: Soft
StackLeniency: 0.7
Mode: 0
LetterboxInBreaks: 0
WidescreenStoryboard: 0

[Editor]
DistanceSpacing: 2.3
BeatDivisor: 4
GridSize: 4
TimelineZoom: 2.6

[Metadata]
Title:DREAMxSCRAMBLE! (TV Size)
TitleUnicode:DREAMxSCRAMBLE! (TV Size)
Artist:AiRI
ArtistUnicode:AiRI
Creator:Arua
Version:Extreme!!!!!!!!
Source:Keijo!!!!!!!!
Tags:1-2
BeatmapID:1750661
BeatmapSetID:835930

[Difficulty]
HPDrainRate:4
CircleSize:3.6
OverallDifficulty:7
ApproachRate:9.8
SliderMultiplier:2
SliderTickRate:1

[Events]
//Background and Video events
0,0,"keijo__.png",0,0
//Break Periods
//Storyboard Layer 0 (Background)
//Storyboard Layer 1 (Fail)
//Storyboard Layer 2 (Pass)
//Storyboard Layer 3 (Foreground)
//Storyboard Sound Samples

[TimingPoints]
284,260.869565217391,4,2,1,70,1,0
284,-125,4,2,1,70,0,0
1718,-166.666666666667,4,2,1,70,0,0
2370,-125,4,2,1,70,0,0
2762,-166.666666666667,4,2,1,70,0,0
3414,-125,4,2,1,70,0,0
3805,-166.666666666667,4,2,1,70,0,0
4457,-125,4,2,1,70,0,0
5892,-166.666666666667,4,2,1,70,0,0
6544,-125,4,2,1,70,0,0
6936,-166.666666666667,4,2,1,70,0,0
7588,-125,4,2,1,70,0,0
7979,-166.666666666667,4,2,1,70,0,0
8631,-125,4,2,1,70,0,0
9936,-111.111111111111,4,2,1,70,0,0
18023,-111.111111111111,4,2,1,70,0,0
20110,-125,4,2,1,70,0,0
27675,-166.666666666667,4,2,1,70,0,0
28457,-125,4,2,1,70,0,0
37327,-166.666666666667,4,2,1,70,0,0
37718,-166.666666666667,4,2,1,5,0,0
37849,-166.666666666667,4,2,1,70,0,0
38762,-166.666666666667,4,2,1,5,0,0
38892,-166.666666666667,4,2,1,70,0,0
39805,-166.666666666667,4,2,1,5,0,0
39936,-125,4,2,1,70,0,0
40979,-166.666666666667,4,2,1,70,0,0
41892,-166.666666666667,4,2,1,5,0,0
42023,-166.666666666667,4,2,1,70,0,0
42936,-166.666666666667,4,2,1,5,0,0
43066,-166.666666666667,4,2,1,70,0,0
43979,-166.666666666667,4,2,1,5,0,0
44110,-125,4,2,1,70,0,0
49327,-111.111111111111,4,2,1,70,0,1
53240,-111.111111111111,4,2,1,70,0,0
57675,-111.111111111111,4,2,1,70,0,1
66023,-125,4,2,1,70,0,0
78544,-111.111111111111,4,2,1,70,0,0
86892,-125,4,2,1,70,0,0
88979,-125,4,2,1,5,0,0

[HitObjects]
400,34,284,5,8,0:0:0:0:
412,366,414,1,0,0:0:0:0:
295,31,544,5,8,0:0:0:0:
320,348,675,1,0,0:0:0:0:
198,31,805,5,8,0:0:0:0:
210,363,935,1,0,0:0:0:0:
91,27,1065,5,8,0:0:0:0:
116,344,1196,1,0,0:0:0:0:
329,23,1327,6,0,L|374:88,1,80,8|0,0:0|0:0,0:0:0:0:
483,192,1718,2,0,L|302:192,1,179.999994506836
329,361,2370,6,0,L|374:295,1,80,8|0,0:0|0:0,0:0:0:0:
437,21,2762,6,0,B|374:74|337:178,1,179.999994506836
323,384,3414,6,0,L|256:338,1,80,8|0,0:0|0:0,0:0:0:0:
76,24,3805,6,0,B|139:77|176:181,1,179.999994506836
245,356,4457,5,0,0:0:0:0:
245,356,4718,1,0,0:0:0:0:
302,25,4979,1,0,0:0:0:0:
257,47,5044,1,0,0:0:0:0:
217,76,5109,1,0,0:0:0:0:
182,113,5174,1,0,0:0:0:0:
155,154,5239,1,0,0:0:0:0:
351,216,5370,5,0,0:0:0:0:
351,216,5501,2,0,L|334:307,1,80
56,186,5892,6,0,B|72:94|158:29,1,179.999994506836
337,294,6544,6,0,L|351:216,1,80,8|0,0:0|0:0,0:0:0:0:
423,40,6936,6,0,B|333:-4|242:10,1,179.999994506836
303,310,7588,6,0,L|251:237,1,80,8|0,0:0|0:0,0:0:0:0:
145,19,7979,6,0,B|148:116|74:205,1,179.999994506836
64,67,8631,2,0,L|107:151,1,80,8|0,0:0|0:0,0:0:0:0:
184,321,8892,2,0,L|219:237,1,80,8|0,0:0|0:0,0:0:0:0:
286,56,9153,2,0,L|324:139,1,80,8|0,0:0|0:0,0:0:0:0:
439,279,9414,1,8,0:0:0:0:
394,303,9479,1,8,0:0:0:0:
344,312,9544,1,8,0:0:0:0:
294,312,9610,1,8,0:0:0:0:
243,303,9675,6,0,P|184:287|135:257,1,80,8|0,0:0|0:0,0:0:0:0:
46,32,9936,2,0,P|119:30|155:36,1,89.9999972534181,8|0,0:0|0:0,0:0:0:0:
367,324,10197,5,8,0:0:0:0:
91,182,10327,1,0,0:0:0:0:
427,255,10457,5,8,0:0:0:0:
142,174,10588,1,0,0:0:0:0:
393,96,10718,5,8,0:0:0:0:
106,273,10849,1,0,0:0:0:0:
462,232,10979,5,8,0:0:0:0:
58,160,11110,1,0,0:0:0:0:
361,364,11240,5,8,0:0:0:0:
143,32,11370,1,0,0:0:0:0:
146,384,11501,2,0,B|194:370|235:338,1,89.9999972534181,8|0,0:0|0:0,0:0:0:0:
381,94,11762,5,8,0:0:0:0:
349,327,11892,1,0,0:0:0:0:
257,57,12023,5,8,0:0:0:0:
448,279,12153,1,0,0:0:0:0:
367,10,12283,5,8,0:0:0:0:
286,319,12414,1,0,0:0:0:0:
200,14,12544,5,8,0:0:0:0:
425,302,12675,1,0,0:0:0:0:
327,0,12805,6,0,B|268:7|231:49,1,89.9999972534181
156,225,13066,1,8,0:0:0:0:
156,225,13197,2,0,B|216:211|248:161,1,89.9999972534181,4|0,0:0|0:0,0:0:0:0:
301,36,13457,1,4,0:0:0:0:
274,329,13588,1,8,0:0:0:0:
150,60,13718,1,4,0:0:0:0:
368,248,13849,6,0,B|322:223|304:172,1,89.9999972534181,8|0,0:0|0:0,0:0:0:0:
271,25,14110,2,0,P|258:81|223:135,1,89.9999972534181,8|0,0:0|0:0,0:0:0:0:
103,273,14370,5,8,0:0:0:0:
201,55,14501,1,0,0:0:0:0:
233,284,14631,5,8,0:0:0:0:
99,28,14762,1,0,0:0:0:0:
347,219,14892,5,8,0:0:0:0:
36,93,15023,1,0,0:0:0:0:
380,119,15153,5,8,0:0:0:0:
40,184,15283,1,0,0:0:0:0:
394,46,15414,5,8,0:0:0:0:
106,235,15544,1,0,0:0:0:0:
446,200,15675,5,8,0:0:0:0:
118,87,15805,1,0,0:0:0:0:
460,72,15936,5,8,0:0:0:0:
135,210,16066,1,0,0:0:0:0:
477,205,16197,5,8,0:0:0:0:
144,58,16327,1,0,0:0:0:0:
506,18,16457,5,8,0:0:0:0:
77,172,16588,1,0,0:0:0:0:
494,319,16718,5,8,0:0:0:0:
42,21,16849,1,0,0:0:0:0:
351,139,16979,5,0,0:0:0:0:
359,141,17044,1,0,0:0:0:0:
368,144,17109,1,0,0:0:0:0:
377,148,17174,1,0,0:0:0:0:
385,151,17240,1,0,0:0:0:0:
394,155,17305,1,0,0:0:0:0:
406,163,17370,2,0,B|390:267|341:348,1,179.999994506836,8|0,0:0|0:0,0:0:0:0:
493,163,17762,2,0,P|500:108|529:50,1,89.9999972534181,12|0,0:0|0:0,0:0:0:0:
401,7,18023,2,0,P|368:46|354:104,1,89.9999972534181,12|0,0:0|0:0,0:0:0:0:
347,323,18283,5,0,0:0:0:0:
231,134,18414,1,0,0:0:0:0:
149,332,18544,1,0,0:0:0:0:
386,207,18675,5,0,0:0:0:0:
94,118,18805,1,0,0:0:0:0:
94,118,18870,1,0,0:0:0:0:
94,118,18936,1,0,0:0:0:0:
189,372,19066,2,0,P|269:378|349:317,1,179.999994506836,12|0,0:0|0:0,0:0:0:0:
362,70,19588,5,0,0:0:0:0:
362,70,19849,1,0,0:0:0:0:
362,70,20110,2,0,L|304:149,1,80,0|4,0:0|0:0,0:0:0:0:
349,353,20370,2,0,L|407:270,1,80,8|4,0:0|0:0,0:0:0:0:
448,63,20631,1,0,0:0:0:0:
507,326,20762,1,4,0:0:0:0:
306,119,20892,1,8,0:0:0:0:
306,119,21023,6,0,P|283:176|284:277,1,160,4|0,0:0|0:0,0:0:0:0:
427,209,21414,5,8,0:0:0:0:
345,384,21544,1,4,0:0:0:0:
330,117,21675,5,8,0:0:0:0:
402,327,21805,1,4,0:0:0:0:
434,18,21936,5,8,0:0:0:0:
337,269,22066,1,4,0:0:0:0:
309,0,22197,6,0,B|313:75|258:175,1,160,0|8,0:0|0:0,0:0:0:0:
215,341,22588,1,4,0:0:0:0:
215,341,22718,2,0,P|168:296|129:282,1,80,0|4,0:0|0:0,0:0:0:0:
6,171,22979,2,0,P|59:148|104:147,1,80,8|4,0:0|0:0,0:0:0:0:
155,368,23240,5,8,0:0:0:0:
125,55,23370,1,4,0:0:0:0:
215,326,23501,5,8,0:0:0:0:
232,23,23631,1,4,0:0:0:0:
326,364,23762,5,8,0:0:0:0:
296,51,23892,1,4,0:0:0:0:
386,322,24023,5,8,0:0:0:0:
403,19,24153,1,4,0:0:0:0:
445,365,24283,6,0,P|478:298|499:197,1,160,0|8,0:0|0:0,0:0:0:0:
398,3,24675,1,4,0:0:0:0:
398,3,24805,2,0,L|370:85,1,80,0|4,0:0|0:0,0:0:0:0:
297,346,25066,1,8,0:0:0:0:
297,346,25197,2,0,P|295:275|254:163,1,160,4|0,0:0|0:0,0:0:0:0:
197,275,25588,1,8,0:0:0:0:
366,59,25718,1,4,0:0:0:0:
414,343,25849,2,0,L|377:260,1,80,0|4,0:0|0:0,0:0:0:0:
327,75,26110,2,0,P|308:121|271:163,1,80,0|4,0:0|0:0,0:0:0:0:
139,224,26371,5,0,0:0:0:0:
93,215,26436,1,0,0:0:0:0:
58,184,26501,1,0,0:0:0:0:
47,139,26566,1,0,0:0:0:0:
61,94,26631,1,0,0:0:0:0:
97,64,26697,1,0,0:0:0:0:
141,68,26763,5,0,0:0:0:0:
182,92,26828,1,0,0:0:0:0:
227,111,26893,1,0,0:0:0:0:
277,113,26958,1,0,0:0:0:0:
324,96,27023,1,0,0:0:0:0:
369,73,27089,2,0,P|395:65|425:68,1,40
458,296,27284,5,0,0:0:0:0:
236,203,27415,1,8,0:0:0:0:
236,203,27676,5,4,0:0:0:0:
236,203,27937,2,4,P|187:238|149:284,1,119.999996337891,6|6,0:0|0:0,0:0:0:0:
259,311,28457,6,0,L|363:354,1,80,0|4,0:0|0:0,0:0:0:0:
439,377,28718,1,8,0:0:0:0:
409,102,28849,1,4,0:0:0:0:
259,311,28979,2,0,P|228:280|211:222,1,80,0|4,0:0|0:0,0:0:0:0:
201,0,29240,1,8,0:0:0:0:
201,0,29370,2,0,P|155:67|137:151,1,160,4|4,0:0|0:0,0:0:0:0:
141,368,29762,6,0,B|172:344|195:296,1,80,8|4,0:0|0:0,0:0:0:0:
261,74,30023,2,0,P|286:110|297:160,1,80,0|4,0:0|0:0,0:0:0:0:
369,373,30283,2,0,B|391:340|398:287,1,80,8|4,0:0|0:0,0:0:0:0:
364,108,30544,5,0,0:0:0:0:
296,314,30675,1,4,0:0:0:0:
223,64,30805,1,8,0:0:0:0:
223,64,30936,2,0,P|220:145|191:222,1,160,4|0,0:0|0:0,0:0:0:0:
36,97,31327,1,8,0:0:0:0:
36,97,31457,6,0,B|70:20|178:2,1,160,4|4,0:0|0:0,0:0:0:0:
316,13,31849,1,8,0:0:0:0:
152,132,31979,1,8,0:0:0:0:
152,132,32044,1,0,0:0:0:0:
152,132,32110,1,8,0:0:0:0:
396,117,32240,5,0,0:0:0:0:
103,242,32370,1,8,0:0:0:0:
399,344,32501,1,0,0:0:0:0:
237,58,32631,6,0,B|190:125|193:234,1,160,4|0,0:0|0:0,0:0:0:0:
295,387,33023,2,0,P|279:351|280:301,1,80,4|8,0:0|0:0,0:0:0:0:
340,112,33283,1,0,0:0:0:0:
380,333,33414,5,8,0:0:0:0:
237,58,33544,2,0,P|213:106|194:224,1,160,4|4,0:0|0:0,0:0:0:0:
218,353,33936,5,8,0:0:0:0:
315,113,34066,1,4,0:0:0:0:
350,374,34197,5,8,0:0:0:0:
289,114,34327,1,4,0:0:0:0:
471,321,34457,5,8,0:0:0:0:
258,119,34588,1,4,0:0:0:0:
512,209,34718,6,0,B|511:165|487:113,1,80,0|4,0:0|0:0,0:0:0:0:
341,0,34979,1,8,0:0:0:0:
341,0,35110,2,0,P|317:81|326:158,1,160,4|4,0:0|0:0,0:0:0:0:
399,287,35501,1,8,0:0:0:0:
428,94,35631,1,8,0:0:0:0:
428,94,35697,1,0,0:0:0:0:
428,94,35762,1,8,0:0:0:0:
221,175,35892,5,0,0:0:0:0:
408,329,36023,1,0,0:0:0:0:
428,94,36153,1,0,0:0:0:0:
249,319,36283,5,8,0:0:0:0:
499,176,36414,1,0,0:0:0:0:
255,37,36544,1,8,0:0:0:0:
349,282,36805,5,0,0:0:0:0:
349,282,37066,1,0,0:0:0:0:
441,151,37327,2,0,B|347:130|250:148,1,179.999994506836
241,344,37849,5,0,0:0:0:0:
241,344,38110,1,0,0:0:0:0:
241,344,38370,2,0,B|146:316|79:249,1,179.999994506836
51,55,38892,5,0,0:0:0:0:
51,55,39153,1,0,0:0:0:0:
51,55,39414,2,0,B|109:123|203:154,1,179.999994506836
390,44,39936,6,0,L|350:118,1,80,0|4,0:0|0:0,0:0:0:0:
264,287,40197,1,8,0:0:0:0:
170,43,40327,2,0,B|128:128|115:225,1,160,4|4,0:0|0:0,0:0:0:0:
278,346,40718,1,8,0:0:0:0:
199,149,40849,1,4,0:0:0:0:
355,219,40979,5,0,0:0:0:0:
355,219,41240,1,0,0:0:0:0:
355,219,41501,2,0,B|282:279|189:279,1,179.999994506836
19,134,42023,5,0,0:0:0:0:
19,134,42283,1,0,0:0:0:0:
19,134,42544,2,0,B|92:194|185:194,1,179.999994506836
353,33,43066,5,0,0:0:0:0:
353,33,43327,1,0,0:0:0:0:
353,33,43588,2,0,B|280:93|187:93,1,179.999994506836
54,71,44110,6,0,L|88:166,1,80,0|4,0:0|0:0,0:0:0:0:
140,280,44370,1,8,0:0:0:0:
242,21,44501,2,0,P|272:66|304:171,1,160,4|4,0:0|0:0,0:0:0:0:
211,304,44892,1,8,0:0:0:0:
379,72,45023,1,4,0:0:0:0:
402,321,45153,6,0,P|375:274|368:224,1,80,0|4,0:0|0:0,0:0:0:0:
313,140,45414,2,0,P|298:177|294:216,1,80,0|4,0:0|0:0,0:0:0:0:
235,365,45675,6,0,P|208:318|201:268,1,80,0|4,0:0|0:0,0:0:0:0:
153,115,45936,2,0,P|138:152|134:191,1,80,0|4,0:0|0:0,0:0:0:0:
228,364,46197,5,8,0:0:0:0:
0,138,46327,1,4,0:0:0:0:
313,162,46457,5,8,0:0:0:0:
0,294,46588,1,4,0:0:0:0:
230,82,46718,5,8,0:0:0:0:
106,384,46849,1,4,0:0:0:0:
172,28,46979,2,0,P|212:72|254:88,1,80,8|4,0:0|0:0,0:0:0:0:
432,132,47240,5,0,0:0:0:0:
468,146,47305,1,0,0:0:0:0:
490,179,47370,1,0,0:0:0:0:
488,218,47435,1,0,0:0:0:0:
463,249,47500,1,0,0:0:0:0:
425,259,47566,1,0,0:0:0:0:
388,245,47631,1,0,0:0:0:0:
366,212,47696,1,0,0:0:0:0:
361,170,47762,5,0,0:0:0:0:
363,237,47827,1,0,0:0:0:0:
333,298,47892,1,0,0:0:0:0:
278,338,47957,1,0,0:0:0:0:
211,347,48022,1,0,0:0:0:0:
147,323,48088,1,0,0:0:0:0:
102,273,48153,1,0,0:0:0:0:
87,207,48218,1,0,0:0:0:0:
93,140,48283,2,0,P|138:70|218:12,1,160,12|0,0:0|0:0,0:0:0:0:
243,233,48805,5,0,0:0:0:0:
197,22,48936,1,0,0:0:0:0:
449,241,49066,1,0,0:0:0:0:
449,241,49327,6,0,L|371:183,1,89.9999972534181,8|0,0:0|0:0,0:0:0:0:
191,47,49588,5,8,0:0:0:0:
289,342,49718,1,0,0:0:0:0:
107,135,49849,5,8,0:0:0:0:
385,274,49979,1,0,0:0:0:0:
111,257,50110,5,8,0:0:0:0:
406,158,50240,1,0,0:0:0:0:
199,340,50370,6,0,P|250:304|299:288,1,89.9999972534181,0|4,0:0|0:0,0:0:0:0:
444,273,50631,1,8,0:0:0:0:
444,273,50762,2,0,P|398:208|304:151,1,179.999994506836,4|0,0:0|0:0,0:0:0:0:
60,261,51153,5,8,0:0:0:0:
304,99,51283,1,0,0:0:0:0:
48,136,51414,5,8,0:0:0:0:
321,236,51544,1,0,0:0:0:0:
140,7,51675,5,8,0:0:0:0:
208,295,51805,1,0,0:0:0:0:
270,0,51936,5,8,0:0:0:0:
73,260,52066,1,0,0:0:0:0:
402,44,52197,5,8,0:0:0:0:
16,159,52327,1,0,0:0:0:0:
16,159,52457,6,0,B|-5:112|7:56,1,89.9999972534181,0|4,0:0|0:0,0:0:0:0:
209,1,52718,1,8,0:0:0:0:
209,1,52849,2,0,P|284:57|331:154,1,179.999994506836,4|4,0:0|0:0,0:0:0:0:
291,311,53240,1,8,0:0:0:0:
220,107,53370,1,4,0:0:0:0:
217,384,53501,6,0,B|269:391|325:363,1,89.9999972534181,0|4,0:0|0:0,0:0:0:0:
409,68,53762,1,8,0:0:0:0:
385,300,53892,1,4,0:0:0:0:
272,103,54023,2,0,P|222:164|155:194,1,134.999995880127
145,199,54283,2,0,P|109:177|57:180,1,89.9999972534181,8|0,0:0|0:0,0:0:0:0:
128,318,54544,6,0,B|170:355|223:334,1,89.9999972534181,0|4,0:0|0:0,0:0:0:0:
340,91,54805,1,8,0:0:0:0:
305,318,54936,1,4,0:0:0:0:
502,241,55066,2,0,B|448:177|350:164,1,134.999995880127
358,160,55327,2,0,P|352:120|309:76,1,89.9999972534181,8|0,0:0|0:0,0:0:0:0:
141,28,55588,6,0,B|143:84|201:116,1,89.9999972534181,0|4,0:0|0:0,0:0:0:0:
281,4,55849,1,8,0:0:0:0:
243,295,55979,1,4,0:0:0:0:
84,85,56110,2,0,B|133:154|225:160,1,134.999995880127
221,161,56370,2,0,B|247:120|293:104,1,89.9999972534181
359,282,56631,5,8,0:0:0:0:
359,282,56697,1,0,0:0:0:0:
359,282,56762,1,8,0:0:0:0:
278,21,56892,1,0,0:0:0:0:
210,296,57023,2,0,B|263:371|365:371,1,179.999994506836,8|4,0:0|0:0,0:0:0:0:
512,147,57414,1,8,0:0:0:0:
304,296,57544,1,4,0:0:0:0:
389,71,57675,5,0,0:0:0:0:
425,339,57805,1,4,0:0:0:0:
247,142,57936,5,8,0:0:0:0:
512,242,58066,1,4,0:0:0:0:
179,298,58197,5,0,0:0:0:0:
446,212,58327,1,4,0:0:0:0:
72,162,58457,5,8,0:0:0:0:
380,240,58588,1,4,0:0:0:0:
104,378,58718,6,0,B|78:347|65:297,1,89.9999972534181,0|4,0:0|0:0,0:0:0:0:
117,61,58979,1,8,0:0:0:0:
117,61,59110,2,0,B|107:155|148:235,1,179.999994506836,0|4,0:0|0:0,0:0:0:0:
251,98,59501,1,8,0:0:0:0:
291,348,59631,1,4,0:0:0:0:
96,181,59762,6,0,B|134:222|202:220,1,89.9999972534181,0|4,0:0|0:0,0:0:0:0:
462,204,60023,1,8,0:0:0:0:
168,142,60153,1,4,0:0:0:0:
453,163,60283,1,0,0:0:0:0:
199,133,60414,1,4,0:0:0:0:
477,100,60544,1,0,0:0:0:0:
187,221,60675,1,4,0:0:0:0:
482,268,60805,5,0,0:0:0:0:
69,65,60936,1,8,0:0:0:0:
493,163,61066,5,0,0:0:0:0:
26,187,61197,1,8,0:0:0:0:
464,61,61327,5,0,0:0:0:0:
58,322,61457,1,8,0:0:0:0:
408,0,61588,5,0,0:0:0:0:
131,384,61718,1,8,0:0:0:0:
131,384,61783,1,4,0:0:0:0:
131,384,61849,6,0,P|173:369|220:333,1,89.9999972534181,8|0,0:0|0:0,0:0:0:0:
338,18,62110,1,0,0:0:0:0:
338,18,62240,2,0,B|247:32|180:113,1,179.999994506836,4|4,0:0|0:0,0:0:0:0:
304,337,62631,1,8,0:0:0:0:
267,90,62762,1,4,0:0:0:0:
144,310,62892,6,0,B|195:295|243:231,1,89.9999972534181,0|4,0:0|0:0,0:0:0:0:
334,75,63153,1,8,0:0:0:0:
334,75,63283,2,0,B|234:49|149:101,1,179.999994506836,4|4,0:0|0:0,0:0:0:0:
126,311,63675,1,8,0:0:0:0:
15,82,63805,1,4,0:0:0:0:
270,167,63936,6,0,B|309:173|358:156,1,89.9999972534181,0|8,0:0|0:0,0:0:0:0:
385,149,64131,1,0,0:0:0:0:
385,149,64197,1,8,0:0:0:0:
275,0,64327,1,0,0:0:0:0:
235,276,64457,1,8,0:0:0:0:
235,276,64523,1,0,0:0:0:0:
235,276,64588,1,8,0:0:0:0:
341,85,64718,1,8,0:0:0:0:
141,273,64849,1,0,0:0:0:0:
373,37,64979,5,0,0:0:0:0:
415,65,65044,1,0,0:0:0:0:
448,104,65109,1,0,0:0:0:0:
468,151,65174,1,0,0:0:0:0:
473,202,65239,1,0,0:0:0:0:
464,253,65305,1,0,0:0:0:0:
440,298,65370,1,0,0:0:0:0:
404,334,65435,1,0,0:0:0:0:
353,348,65501,5,0,0:0:0:0:
338,282,65566,1,0,0:0:0:0:
299,227,65631,1,0,0:0:0:0:
242,192,65696,1,0,0:0:0:0:
176,183,65761,1,0,0:0:0:0:
111,200,65827,1,0,0:0:0:0:
58,241,65892,1,0,0:0:0:0:
26,300,65957,1,0,0:0:0:0:
19,367,66023,6,0,P|58:383|128:368,1,80,12|0,0:0|0:0,0:0:0:0:
242,239,66283,2,0,P|206:276|162:287,1,80,8|0,0:0|0:0,0:0:0:0:
0,158,66544,6,0,P|42:188|97:184,1,80,8|0,0:0|0:0,0:0:0:0:
286,150,66805,1,8,0:0:0:0:
77,59,66936,1,4,0:0:0:0:
221,262,67066,5,0,0:0:0:0:
125,27,67197,1,4,0:0:0:0:
20,262,67327,1,0,0:0:0:0:
20,262,67457,2,0,B|64:328|171:351,1,160
220,134,67849,1,0,0:0:0:0:
240,367,67979,1,0,0:0:0:0:
71,144,68110,6,0,P|118:215|172:229,1,120,0|0,0:0|0:0,3:0:0:0:
174,241,68370,2,0,B|220:256|234:304,1,80,8|0,0:0|0:0,0:0:0:0:
356,361,68631,2,0,P|344:318|304:272,1,80,0|4,0:0|0:0,0:0:0:0:
191,154,68892,1,8,0:0:0:0:
247,355,69023,1,4,0:0:0:0:
357,62,69153,6,0,L|332:146,1,80,0|4,0:0|0:0,0:0:0:0:
309,340,69414,1,8,0:0:0:0:
233,74,69544,1,4,0:0:0:0:
478,205,69675,1,0,0:0:0:0:
203,280,69805,5,4,0:0:0:0:
419,82,69936,1,8,0:0:0:0:
411,356,70066,1,4,0:0:0:0:
213,121,70197,6,0,P|152:173|141:236,1,120
144,243,70457,2,0,P|184:275|197:309,1,80,8|0,0:0|0:0,0:0:0:0:
55,321,70718,2,0,P|16:295|7:251,1,80,0|4,0:0|0:0,0:0:0:0:
57,116,70979,1,8,0:0:0:0:
139,336,71110,1,4,0:0:0:0:
209,68,71240,2,0,P|225:151|269:214,1,160,0|8,0:0|0:0,0:0:0:0:
377,310,71631,5,4,0:0:0:0:
294,109,71762,1,0,0:0:0:0:
512,181,71892,1,4,0:0:0:0:
248,284,72023,5,8,0:0:0:0:
460,80,72153,1,4,0:0:0:0:
453,343,72283,2,0,P|399:384|327:376,1,120
318,361,72544,2,0,P|329:313|360:283,1,80,8|0,0:0|0:0,0:0:0:0:
512,150,72805,2,0,B|504:203|453:234,1,80,0|4,0:0|0:0,0:0:0:0:
348,290,73066,2,0,B|314:255|273:239,1,80,8|4,0:0|0:0,0:0:0:0:
41,250,73327,2,0,P|128:266|195:303,1,160,0|8,0:0|0:0,0:0:0:0:
302,358,73718,5,8,0:0:0:0:
302,358,73783,1,0,0:0:0:0:
302,358,73849,1,8,0:0:0:0:
138,202,73979,1,4,0:0:0:0:
384,295,74110,1,8,0:0:0:0:
190,175,74240,1,4,0:0:0:0:
352,334,74370,6,0,B|394:354|442:352,1,80,0|8,0:0|0:0,0:0:0:0:
464,354,74566,1,0,0:0:0:0:
464,354,74631,1,8,0:0:0:0:
387,74,74762,1,0,0:0:0:0:
223,336,74892,1,8,0:0:0:0:
223,336,74957,1,0,0:0:0:0:
223,336,75023,1,8,0:0:0:0:
512,201,75153,5,0,0:0:0:0:
198,180,75283,1,8,0:0:0:0:
350,384,75414,2,0,P|411:344|458:263,1,160
280,223,75936,6,0,P|187:161|323:163,1,320
429,289,77501,5,0,0:0:0:0:
393,307,77566,1,0,0:0:0:0:
354,312,77631,1,0,0:0:0:0:
314,308,77696,1,0,0:0:0:0:
275,300,77761,1,0,0:0:0:0:
235,293,77827,1,0,0:0:0:0:
196,291,77892,1,0,0:0:0:0:
156,297,77957,1,0,0:0:0:0:
120,313,78022,1,0,0:0:0:0:
85,336,78088,5,0,0:0:0:0:
29,298,78153,1,0,0:0:0:0:
3,235,78218,1,0,0:0:0:0:
15,169,78283,1,0,0:0:0:0:
63,120,78348,1,0,0:0:0:0:
129,106,78414,1,0,0:0:0:0:
192,130,78479,1,0,0:0:0:0:
233,185,78544,2,0,P|277:211|399:172,1,179.999994506836,12|8,0:0|0:0,0:0:0:0:
309,123,78936,5,4,0:0:0:0:
237,338,79066,1,0,0:0:0:0:
450,281,79197,1,4,0:0:0:0:
187,244,79327,5,8,0:0:0:0:
443,146,79457,1,4,0:0:0:0:
271,375,79588,6,0,B|228:381|182:363,1,89.9999972534181,0|4,0:0|0:0,0:0:0:0:
394,104,79849,1,8,0:0:0:0:
394,104,79979,2,0,B|366:210|395:298,1,179.999994506836,4|4,0:0|0:0,0:0:0:0:
419,363,80370,1,8,0:0:0:0:
470,116,80501,1,4,0:0:0:0:
334,372,80631,6,0,P|300:306|288:271,1,89.9999972534181,0|4,0:0|0:0,0:0:0:0:
276,135,80892,1,8,0:0:0:0:
218,371,81023,1,4,0:0:0:0:
394,189,81153,5,0,0:0:0:0:
124,280,81283,1,4,0:0:0:0:
408,318,81414,5,8,0:0:0:0:
105,132,81544,1,4,0:0:0:0:
307,374,81675,6,0,P|319:322|316:269,1,89.9999972534181,0|4,0:0|0:0,0:0:0:0:
336,35,81936,1,8,0:0:0:0:
336,35,82066,2,0,P|371:117|387:209,1,179.999994506836,4|4,0:0|0:0,0:0:0:0:
396,347,82457,1,8,0:0:0:0:
456,85,82588,1,4,0:0:0:0:
260,319,82718,6,0,B|305:302|329:256,1,89.9999972534181,0|4,0:0|0:0,0:0:0:0:
396,73,82979,1,8,0:0:0:0:
396,73,83044,1,0,0:0:0:0:
396,73,83110,1,8,0:0:0:0:
408,336,83240,1,0,0:0:0:0:
264,95,83370,5,4,0:0:0:0:
371,343,83501,1,8,0:0:0:0:
469,94,83631,1,4,0:0:0:0:
320,342,83762,6,0,P|296:305|286:242,1,89.9999972534181,0|4,0:0|0:0,0:0:0:0:
213,69,84023,1,8,0:0:0:0:
213,69,84153,2,0,P|227:156|215:254,1,179.999994506836,4|4,0:0|0:0,0:0:0:0:
203,384,84544,1,8,0:0:0:0:
140,157,84675,1,4,0:0:0:0:
179,384,84805,6,0,B|196:327|201:273,1,89.9999972534181,0|4,0:0|0:0,0:0:0:0:
309,131,85066,1,8,0:0:0:0:
309,131,85197,2,0,B|273:216|270:311,1,179.999994506836,4|4,0:0|0:0,0:0:0:0:
309,384,85588,1,8,0:0:0:0:
188,133,85718,1,4,0:0:0:0:
414,187,85849,5,8,0:0:0:0:
414,187,85914,1,0,0:0:0:0:
414,187,85979,1,8,0:0:0:0:
125,298,86110,1,0,0:0:0:0:
464,251,86240,2,0,B|447:137|362:96,1,179.999994506836,4|4,0:0|0:0,0:0:0:0:
300,282,86631,1,8,0:0:0:0:
360,7,86762,1,4,0:0:0:0:
405,347,86892,6,0,P|361:365|307:359,1,80,0|4,0:0|0:0,0:0:0:0:
165,293,87153,1,8,0:0:0:0:
165,293,87283,2,0,P|202:231|292:180,1,160,4|4,0:0|0:0,0:0:0:0:
311,178,87610,1,0,0:0:0:0:
311,178,87675,1,8,0:0:0:0:
133,148,87805,1,0,0:0:0:0:
318,336,87936,2,0,P|225:305|133:288,1,160,8|0,0:0|0:0,0:0:0:0:
256,192,88457,12,0,88979,0:0:0:0:
