osu file format v14

[General]
AudioFilename: audio.mp3
AudioLeadIn: 1500
PreviewTime: 48911
Countdown: 0
SampleSet: Soft
StackLeniency: 0.4
Mode: 0
LetterboxInBreaks: 0
WidescreenStoryboard: 0

[Editor]
DistanceSpacing: 1.4
BeatDivisor: 4
GridSize: 32
TimelineZoom: 2.5

[Metadata]
Title:DREAMxSCRAMBLE!
TitleUnicode:DREAMxSCRAMBLE!
Artist:AiRI
ArtistUnicode:AiRI
Creator:Plaudible
Version:Outfighter Extra
Source:競女!!!!!!!!
Tags:keijo!!!!!!!! tv size japanese anime cut ver Hip Whip Girl hobbes2 polkamocha pentori anxient kyuukai yaleufeu
BeatmapID:1209553
BeatmapSetID:570653

[Difficulty]
HPDrainRate:6
CircleSize:3.5
OverallDifficulty:8.7
ApproachRate:9.3
SliderMultiplier:1.6
SliderTickRate:1

[Events]
//Background and Video events
0,0,"outfighter.jpg",0,0
//Break Periods
//Storyboard Layer 0 (Background)
//Storyboard Layer 1 (Fail)
//Storyboard Layer 2 (Pass)
//Storyboard Layer 3 (Foreground)
//Storyboard Sound Samples

[TimingPoints]
390,260.869565217391,4,2,1,75,1,0
390,-80,4,2,1,75,0,0
1433,-133.333333333333,4,2,1,60,0,0
1498,-133.333333333333,4,2,1,5,0,0
1563,-133.333333333333,4,2,1,60,0,0
1628,-133.333333333333,4,2,1,5,0,0
1824,-133.333333333333,4,2,0,60,0,0
2476,-133.333333333333,4,2,1,60,0,0
2541,-133.333333333333,4,2,1,5,0,0
2607,-133.333333333333,4,2,1,60,0,0
2672,-133.333333333333,4,2,1,5,0,0
2868,-133.333333333333,4,2,0,60,0,0
3520,-133.333333333333,4,2,1,60,0,0
3585,-133.333333333333,4,2,1,5,0,0
3650,-133.333333333333,4,2,1,60,0,0
3715,-133.333333333333,4,2,1,5,0,0
3911,-133.333333333333,4,2,0,60,0,0
4563,-80,4,2,1,75,0,0
4759,-133.333333333333,4,2,1,5,0,0
4824,-80,4,2,1,75,0,0
5020,-133.333333333333,4,2,1,5,0,0
5085,-80,4,2,1,75,0,0
5281,-133.333333333333,4,2,1,5,0,0
5346,-80,4,2,1,75,0,0
5542,-133.333333333333,4,2,1,5,0,0
5607,-133.333333333333,4,2,1,60,0,0
5672,-133.333333333333,4,2,1,5,0,0
5737,-133.333333333333,4,2,1,60,0,0
5802,-133.333333333333,4,2,1,5,0,0
5998,-133.333333333333,4,2,0,60,0,0
6650,-133.333333333333,4,2,1,60,0,0
6716,-133.333333333333,4,2,1,5,0,0
6781,-133.333333333333,4,2,1,60,0,0
6846,-133.333333333333,4,2,1,5,0,0
7042,-133.333333333333,4,2,0,60,0,0
7694,-133.333333333333,4,2,1,60,0,0
7759,-133.333333333333,4,2,1,5,0,0
7824,-133.333333333333,4,2,1,60,0,0
7889,-133.333333333333,4,2,1,5,0,0
8085,-133.333333333333,4,2,0,60,0,0
8737,-80,4,2,1,60,0,0
8933,-133.333333333333,4,2,1,5,0,0
8998,-80,4,2,1,75,0,0
9194,-133.333333333333,4,2,1,5,0,0
9259,-80,4,2,1,75,0,0
9455,-133.333333333333,4,2,1,5,0,0
9520,-80,4,2,1,75,0,0
9781,-66.6666666666667,4,2,1,75,0,0
13563,-66.6666666666667,4,2,1,75,0,0
13629,-66.6666666666667,4,2,1,5,0,0
13694,-66.6666666666667,4,2,1,75,0,0
13760,-66.6666666666667,4,2,1,5,0,0
13824,-66.6666666666667,4,2,1,75,0,0
13890,-66.6666666666667,4,2,1,5,0,0
13955,-66.6666666666667,4,2,1,75,0,0
17085,-66.6666666666667,4,2,1,75,0,0
17151,-66.6666666666667,4,2,1,5,0,0
17216,-66.6666666666667,4,2,1,75,0,0
17282,-66.6666666666667,4,2,1,5,0,0
17346,-66.6666666666667,4,2,1,75,0,0
17412,-66.6666666666667,4,2,1,5,0,0
17476,-66.6666666666667,4,2,1,75,0,0
17737,-66.6666666666667,4,2,1,75,0,0
17803,-66.6666666666667,4,2,1,5,0,0
17868,-66.6666666666667,4,2,1,75,0,0
17934,-66.6666666666667,4,2,1,5,0,0
17998,-66.6666666666667,4,2,1,75,0,0
18064,-66.6666666666667,4,2,1,5,0,0
18129,-66.6666666666667,4,2,1,75,0,0
19107,-66.6666666666667,4,2,1,5,0,0
19172,-66.6666666666667,4,2,1,75,0,0
19629,-66.6666666666667,4,2,1,5,0,0
19694,-66.6666666666667,4,2,0,60,0,0
20216,-80,4,2,1,75,0,0
22042,-80,4,2,1,75,0,0
22108,-80,4,2,1,5,0,0
22172,-80,4,2,1,75,0,0
22238,-80,4,2,1,5,0,0
22303,-80,4,2,1,75,0,0
24129,-80,4,2,1,75,0,0
24195,-80,4,2,1,5,0,0
24259,-80,4,2,1,75,0,0
24325,-80,4,2,1,5,0,0
24390,-80,4,2,1,75,0,0
26216,-80,4,2,1,75,0,0
26282,-80,4,2,1,5,0,0
26346,-80,4,2,1,75,0,0
26412,-80,4,2,1,5,0,0
26477,-80,4,2,1,75,0,0
27781,-66.6666666666667,4,2,0,75,0,0
27976,-80,4,2,1,5,0,0
28042,-133.333333333333,4,2,0,75,0,0
28433,-80,4,2,1,5,0,0
28563,-80,4,2,1,75,0,0
30389,-80,4,2,1,75,0,0
30455,-80,4,2,1,5,0,0
30520,-80,4,2,1,75,0,0
30586,-80,4,2,1,5,0,0
30650,-80,4,2,1,75,0,0
31955,-80,4,2,1,75,0,0
32021,-80,4,2,1,5,0,0
32085,-80,4,2,1,75,0,0
32216,-80,4,2,1,75,0,0
32282,-80,4,2,1,5,0,0
32346,-80,4,2,1,75,0,0
32672,-80,4,2,1,5,0,0
32737,-80,4,2,1,75,0,0
36129,-80,4,2,1,75,0,0
36195,-80,4,2,1,5,0,0
36259,-80,4,2,1,75,0,0
36325,-80,4,2,1,5,0,0
36389,-80,4,2,1,75,0,0
36455,-80,4,2,1,5,0,0
36520,-80,4,2,1,75,0,0
36586,-80,4,2,1,5,0,0
36650,-80,4,2,1,75,0,0
36716,-80,4,2,1,5,0,0
36781,-80,4,2,1,75,0,0
36846,-80,4,2,1,5,0,0
36847,-80,4,2,1,5,0,0
36911,-80,4,2,1,75,0,0
37107,-80,4,2,1,5,0,0
37172,-80,4,2,1,75,0,0
37368,-80,4,2,1,5,0,0
37433,-80,4,2,1,75,0,0
37889,-80,4,2,1,5,0,0
37955,-80,4,2,1,75,0,0
38150,-80,4,2,1,5,0,0
38215,-80,4,2,1,75,0,0
38411,-80,4,2,1,5,0,0
38476,-80,4,2,1,75,0,0
38933,-80,4,2,1,5,0,0
38998,-80,4,2,1,75,0,0
39194,-80,4,2,1,5,0,0
39259,-80,4,2,1,75,0,0
39455,-80,4,2,1,5,0,0
39520,-80,4,2,1,75,0,0
39976,-80,4,2,1,5,0,0
40042,-80,4,2,1,75,0,0
40368,-80,4,2,1,75,0,0
40433,-80,4,2,1,75,0,0
41281,-80,4,2,1,5,0,0
41346,-80,4,2,1,75,0,0
41542,-80,4,2,1,5,0,0
41607,-80,4,2,1,75,0,0
42063,-80,4,2,1,5,0,0
42129,-80,4,2,1,75,0,0
42324,-80,4,2,1,5,0,0
42389,-80,4,2,1,75,0,0
42585,-80,4,2,1,5,0,0
42650,-80,4,2,1,75,0,0
43107,-80,4,2,1,5,0,0
43172,-80,4,2,1,75,0,0
43368,-80,4,2,1,5,0,0
43433,-80,4,2,1,75,0,0
43629,-80,4,2,1,5,0,0
43694,-80,4,2,1,75,0,0
44150,-80,4,2,1,5,0,0
44216,-80,4,2,1,75,0,0
44542,-80,4,2,1,75,0,0
44607,-80,4,2,1,75,0,0
44933,-80,4,2,1,5,0,0
44998,-80,4,2,1,75,0,0
45063,-80,4,2,1,5,0,0
45259,-80,4,2,1,75,0,0
47281,-80,4,2,1,5,0,0
47346,-80,4,2,1,75,0,0
48129,-80,4,2,1,75,0,0
48195,-80,4,2,1,5,0,0
48259,-80,4,2,1,75,0,0
48325,-80,4,2,1,5,0,0
48389,-80,4,2,1,75,0,0
48911,-80,4,2,0,75,0,0
48976,-80,4,2,0,5,0,0
49042,-80,4,2,0,75,0,0
49107,-80,4,2,0,5,0,0
49172,-80,4,2,0,75,0,0
49433,-66.6666666666667,4,2,1,75,0,1
52498,-80,4,2,1,5,0,1
52563,-66.6666666666667,4,2,1,75,0,1
53803,-80,4,2,1,5,0,1
53868,-100,4,2,1,75,0,1
54063,-80,4,2,1,5,0,1
54129,-66.6666666666667,4,2,1,75,0,1
54846,-80,4,2,1,5,0,1
54911,-100,4,2,1,75,0,1
55107,-80,4,2,1,5,0,1
55172,-66.6666666666667,4,2,1,75,0,1
55694,-66.6666666666667,4,2,1,75,0,1
55889,-80,4,2,1,5,0,1
55955,-100,4,2,1,75,0,1
56150,-80,4,2,1,5,0,1
56216,-66.6666666666667,4,2,1,75,0,1
56607,-66.6666666666667,4,2,1,75,0,1
57520,-66.6666666666667,4,2,1,75,0,1
57585,-80,4,2,1,5,0,1
57650,-66.6666666666667,4,2,1,75,0,1
57715,-66.6666666666667,4,2,1,5,0,1
57781,-66.6666666666667,4,2,1,75,0,1
60846,-66.6666666666667,4,2,1,5,0,1
60912,-66.6666666666667,4,2,1,75,0,1
61237,-66.6666666666667,4,2,1,5,0,1
61302,-66.6666666666667,4,2,1,75,0,1
61629,-66.6666666666667,4,2,1,5,0,1
61694,-66.6666666666667,4,2,1,75,0,1
62281,-66.6666666666667,4,2,1,5,0,1
62346,-66.6666666666667,4,2,1,75,0,1
62672,-66.6666666666667,4,2,1,5,0,1
62737,-66.6666666666667,4,2,1,75,0,1
62933,-66.6666666666667,4,2,1,5,0,1
62998,-66.6666666666667,4,2,1,75,0,1
63976,-66.6666666666667,4,2,1,5,0,1
64041,-66.6666666666667,4,2,1,75,0,1
65607,-66.6666666666667,4,2,1,75,0,1
65672,-66.6666666666667,4,2,1,5,0,1
65737,-66.6666666666667,4,2,1,75,0,1
65802,-66.6666666666667,4,2,1,5,0,1
65868,-66.6666666666667,4,2,1,75,0,1
65933,-66.6666666666667,4,2,1,5,0,1
65998,-66.6666666666667,4,2,1,75,0,1
66063,-66.6666666666667,4,2,1,5,0,1
66129,-80,4,2,1,75,0,0
66324,-80,4,2,1,5,0,0
66389,-80,4,2,1,75,0,0
66585,-80,4,2,1,5,0,0
66650,-80,4,2,1,75,0,0
66846,-80,4,2,1,5,0,0
66911,-80,4,2,1,75,0,0
67107,-80,4,2,1,5,0,0
67172,-80,4,2,1,75,0,0
67824,-80,4,2,1,75,0,0
67890,-80,4,2,1,5,0,0
67955,-80,4,2,1,75,0,0
68021,-80,4,2,1,5,0,0
68085,-80,4,2,1,75,0,0
68151,-80,4,2,1,5,0,0
68216,-80,4,2,1,75,0,0
69781,-80,4,2,1,75,0,0
69847,-80,4,2,1,5,0,0
69911,-80,4,2,1,75,0,0
69977,-80,4,2,1,5,0,0
70042,-80,4,2,1,75,0,0
70108,-80,4,2,1,5,0,0
70172,-80,4,2,1,75,0,0
70238,-80,4,2,1,5,0,0
70303,-80,4,2,1,75,0,0
70498,-80,4,2,1,5,0,0
70563,-80,4,2,1,75,0,0
70759,-80,4,2,1,5,0,0
70824,-80,4,2,1,75,0,0
71020,-80,4,2,1,5,0,0
71085,-80,4,2,1,75,0,0
71281,-80,4,2,1,5,0,0
71346,-80,4,2,1,75,0,0
71998,-80,4,2,1,75,0,0
72064,-80,4,2,1,5,0,0
72128,-80,4,2,1,75,0,0
72194,-80,4,2,1,5,0,0
72259,-80,4,2,1,75,0,0
72325,-80,4,2,1,5,0,0
72389,-80,4,2,1,75,0,0
73629,-80,4,2,1,5,0,0
73694,-80,4,2,1,75,0,0
73759,-80,4,2,1,5,0,0
73824,-80,4,2,1,75,0,0
73825,-80,4,2,1,75,0,0
73955,-80,4,2,1,75,0,0
74020,-80,4,2,1,5,0,0
74085,-80,4,2,1,75,0,0
74216,-80,4,2,1,75,0,0
74281,-80,4,2,1,5,0,0
74346,-80,4,2,1,75,0,0
75259,-80,4,2,1,75,0,0
75325,-80,4,2,1,5,0,0
75389,-80,4,2,1,75,0,0
75455,-80,4,2,1,5,0,0
75520,-80,4,2,1,75,0,0
76042,-133.333333333333,4,2,0,75,0,0
76498,-133.333333333333,4,2,1,5,0,0
76563,-133.333333333333,4,2,1,60,0,0
77476,-133.333333333333,4,2,1,5,0,0
77607,-80,4,2,1,75,0,0
78650,-66.6666666666667,4,2,1,75,0,0
82433,-66.6666666666667,4,2,1,75,0,0
82498,-66.6666666666667,4,2,1,5,0,0
82563,-66.6666666666667,4,2,1,75,0,0
82629,-66.6666666666667,4,2,1,5,0,0
82694,-66.6666666666667,4,2,1,75,0,0
82759,-66.6666666666667,4,2,1,5,0,0
82824,-66.6666666666667,4,2,1,75,0,0
85955,-66.6666666666667,4,2,1,75,0,0
86020,-66.6666666666667,4,2,1,5,0,0
86085,-66.6666666666667,4,2,1,75,0,0
86150,-66.6666666666667,4,2,1,5,0,0
86216,-66.6666666666667,4,2,1,75,0,0
86281,-66.6666666666667,4,2,1,5,0,0
86346,-66.6666666666667,4,2,1,75,0,0
86607,-66.6666666666667,4,2,1,75,0,0
86672,-66.6666666666667,4,2,1,5,0,0
86737,-66.6666666666667,4,2,1,75,0,0
86803,-66.6666666666667,4,2,1,5,0,0
86868,-66.6666666666667,4,2,1,75,0,0
86933,-66.6666666666667,4,2,1,5,0,0
86998,-66.6666666666667,4,2,1,75,0,0
87976,-66.6666666666667,4,2,1,75,0,0
88041,-66.6666666666667,4,2,1,75,0,0
88498,-66.6666666666667,4,2,1,5,0,0
88563,-250,4,2,1,25,0,0

[Colours]
Combo1 : 255,255,128
Combo2 : 255,128,128
Combo3 : 128,128,255
Combo4 : 234,234,234

[HitObjects]
130,176,390,6,0,L|243:183,1,100,8|2,0:0|0:0,0:0:0:0:
321,14,650,2,0,P|337:70|319:114,1,100,8|2,0:0|0:0,0:0:0:0:
368,262,911,2,0,L|246:267,1,100,8|2,0:0|0:0,0:0:0:0:
132,82,1172,2,0,P|116:138|134:182,1,100,8|2,0:0|0:0,0:0:0:0:
114,345,1433,6,0,L|80:342,1,30.0000011444092,8|0,0:0|0:0,0:0:0:0:
294,360,1563,2,0,L|329:365,1,30.0000011444092,0|0,0:0|0:0,0:0:0:0:
294,360,1824,2,0,L|110:345,1,180.000006866455,2|0,0:2|0:0,0:0:0:0:
142,65,2476,6,0,L|108:62,1,30.0000011444092,8|0,0:0|0:0,0:0:0:0:
322,80,2607,2,0,L|357:85,1,30.0000011444092,0|0,0:0|0:0,0:0:0:0:
322,80,2868,2,0,L|138:65,1,180.000006866455,2|0,0:2|0:0,0:0:0:0:
127,202,3520,6,0,L|93:199,1,30.0000011444092,8|0,0:0|0:0,0:0:0:0:
307,217,3650,2,0,L|342:222,1,30.0000011444092,0|0,0:0|0:0,0:0:0:0:
307,217,3911,2,0,L|123:202,1,180.000006866455,2|0,0:2|0:0,0:0:0:0:
266,300,4563,6,0,P|343:299|393:201,1,150,12|0,0:0|0:0,0:0:0:0:
336,124,4824,2,0,P|337:201|435:251,1,150,12|0,0:0|0:0,0:0:0:0:
512,196,5085,2,0,P|435:197|385:295,1,150,12|0,0:0|0:0,0:0:0:0:
441,371,5346,2,0,P|440:294|342:244,1,150,12|0,0:0|0:0,0:0:0:0:
166,139,5607,6,0,L|124:145,1,30.0000011444092,8|0,0:0|0:0,0:0:0:0:
336,124,5737,2,0,L|378:118,1,30.0000011444092,0|0,0:0|0:0,0:0:0:0:
336,124,5998,2,0,B|244:91|258:178|166:139,1,180.000006866455,2|0,0:2|0:0,0:0:0:0:
169,350,6650,6,0,L|127:356,1,30.0000011444092,8|0,0:0|0:0,0:0:0:0:
339,335,6781,2,0,L|381:329,1,30.0000011444092,0|0,0:0|0:0,0:0:0:0:
339,335,7042,2,0,B|247:302|261:389|169:350,1,180.000006866455,2|0,0:2|0:0,0:0:0:0:
198,146,7694,6,0,L|156:152,1,30.0000011444092,8|0,0:0|0:0,0:0:0:0:
368,131,7824,2,0,L|410:125,1,30.0000011444092,0|0,0:0|0:0,0:0:0:0:
368,131,8085,2,0,B|276:98|290:185|198:146,1,180.000006866455,2|0,0:2|0:0,0:0:0:0:
69,149,8737,6,0,P|98:124|201:150,1,150,12|0,0:0|0:0,0:0:0:0:
328,149,8998,2,0,P|262:180|198:146,1,150,12|0,0:0|0:0,0:0:0:0:
200,16,9259,2,0,P|231:81|197:145,1,150,12|0,0:0|0:0,0:0:0:0:
201,276,9520,2,0,P|167:212|198:146,1,150,12|0,0:0|0:0,0:0:0:0:
294,311,9781,6,0,P|240:367|103:308,1,240.000009155274,6|2,0:0|0:0,0:0:0:0:
197,146,10172,1,8,0:0:0:0:
441,70,10303,2,0,L|432:229,1,120.000004577637,2|8,0:0|0:0,0:0:0:0:
203,265,10563,2,0,L|194:106,1,120.000004577637,2|8,0:0|0:0,0:0:0:0:
434,189,10824,6,0,P|372:212|315:185,1,120.000004577637,2|8,0:0|0:0,0:0:0:0:
139,68,11085,2,0,P|201:45|258:72,1,120.000004577637,2|8,0:0|0:0,0:0:0:0:
203,265,11346,2,0,L|55:252,1,120.000004577637,0|8,0:0|0:0,0:0:0:0:
248,63,11607,2,0,L|396:50,1,120.000004577637,0|8,0:0|0:0,0:0:0:0:
356,329,11868,6,0,P|306:296|375:163,1,240.000009155274,2|2,0:0|0:0,0:0:0:0:
471,326,12259,1,8,0:0:0:0:
491,172,12389,2,0,L|507:47,1,120.000004577637,2|8,0:0|0:0,0:0:0:0:
356,329,12650,2,0,L|340:210,1,120.000004577637,2|8,0:0|0:0,0:0:0:0:
184,20,12911,6,0,P|154:106|196:160,1,120.000004577637,2|8,0:0|0:0,0:0:0:0:
253,276,13172,1,2,0:0:0:0:
85,354,13303,2,0,L|74:226,1,120.000004577637,8|2,0:0|0:0,0:0:0:0:
290,196,13563,2,0,L|297:131,1,60.0000022888184,8|0,0:0|0:0,0:0:0:0:
193,269,13693,2,0,L|252:275,1,60.0000022888184
395,255,13824,2,0,L|388:195,1,60.0000022888184,10|0,0:0|0:0,0:0:0:0:
189,29,13955,6,0,B|289:37|289:37|336:66|336:66|440:73,1,240.000009155274,6|2,0:0|0:0,0:0:0:0:
395,255,14346,1,8,0:0:0:0:
193,269,14476,2,0,L|180:150,1,120.000004577637,2|8,0:0|0:0,0:0:0:0:
395,255,14737,2,0,L|382:375,1,120.000004577637,2|8,0:0|0:0,0:0:0:0:
290,37,14998,6,0,L|276:156,1,120.000004577637,2|8,0:0|0:0,0:0:0:0:
489,248,15259,2,0,L|475:128,1,120.000004577637,2|8,0:0|0:0,0:0:0:0:
207,219,15520,2,0,P|276:251|342:217,1,120.000004577637,2|8,0:0|0:0,0:0:0:0:
512,42,15781,2,0,P|453:32|403:63,1,120.000004577637,2|8,0:0|0:0,0:0:0:0:
355,249,16042,6,0,P|449:251|464:116,1,240.000009155274,6|2,0:0|0:0,0:0:0:0:
291,38,16433,1,8,0:0:0:0:
355,249,16563,2,0,L|373:119,1,120.000004577637,2|8,0:0|0:0,0:0:0:0:
164,45,16824,2,0,L|182:175,1,120.000004577637,2|8,0:0|0:0,0:0:0:0:
170,343,17085,6,0,L|181:281,1,60.0000022888184,12|0,0:0|0:0,0:0:0:0:
87,105,17216,2,0,L|98:167,1,60.0000022888184
84,334,17346,2,0,L|95:272,1,60.0000022888184,2|0,0:0|0:0,0:0:0:0:
6,111,17476,1,12,0:0:0:0:
170,343,17737,6,0,L|235:353,1,60.0000022888184,2|0,0:0|0:0,0:0:0:0:
382,302,17868,2,0,L|322:311,1,60.0000022888184,12|0,0:0|0:0,0:0:0:0:
182,256,17998,2,0,L|241:265,1,60.0000022888184
398,377,18129,6,0,L|410:254,1,120.000004577637,14|0,0:0|0:0,0:0:0:0:
427,62,18389,1,2,0:0:0:0:
193,234,18520,2,0,P|242:267|301:272,1,120.000004577637,12|2,0:0|0:0,0:0:0:0:
501,170,18781,1,0,0:0:0:0:
218,111,18911,2,0,P|274:66|273:138,1,180.000006866455,14|0,0:0|0:0,0:0:0:0:
178,133,19172,6,0,P|199:39|251:187,1,420.000016021729,14|0,0:0|0:0,0:0:0:0:
115,231,19694,5,2,0:0:0:0:
257,103,19955,1,2,0:0:0:0:
115,231,20216,6,0,L|123:357,1,100,6|0,0:0|0:0,0:0:0:0:
203,363,20476,1,8,0:0:0:0:
272,294,20607,2,0,P|331:276|389:303,1,100,0|0,0:0|0:0,0:0:0:0:
496,355,20868,2,0,P|437:373|379:346,1,100,2|8,0:0|0:0,0:0:0:0:
272,294,21129,6,0,L|285:84,1,200,0|0,0:0|0:0,0:0:0:0:
366,45,21520,2,0,P|379:105|355:155,1,100,8|0,0:0|0:0,0:0:0:0:
198,139,21781,2,0,P|184:91|198:44,1,100,0|2,0:0|0:0,0:0:0:0:
284,94,22042,2,0,L|281:149,1,50,8|0,0:0|0:0,0:0:0:0:
272,294,22172,2,0,L|275:239,1,50,0|0,0:0|0:0,0:0:0:0:
367,151,22303,6,0,L|362:287,1,100,2|0,0:0|0:0,0:0:0:0:
272,294,22563,1,8,0:0:0:0:
226,178,22694,2,0,P|178:159|131:175,1,100,0|0,0:0|0:0,0:0:0:0:
128,324,22955,2,0,P|168:291|178:243,1,100,2|8,0:0|0:0,0:0:0:0:
98,91,23216,6,0,P|61:219|98:251,1,200,0|0,0:0|0:0,0:0:0:0:
197,96,23607,2,0,L|78:90,1,100,8|0,0:0|0:0,0:0:0:0:
263,255,23868,2,0,L|382:249,1,100,0|2,0:0|0:0,0:0:0:0:
457,172,24129,2,0,L|404:175,1,50,8|0,0:0|0:0,0:0:0:0:
407,325,24259,2,0,L|460:328,1,50,0|0,0:0|0:0,0:0:0:0:
407,174,24389,6,0,P|289:189|264:262,1,200,6|8,0:0|0:0,0:0:0:0:
248,352,24781,2,0,L|265:241,1,100,0|0,0:0|0:0,0:0:0:0:
70,194,25042,2,0,L|85:292,1,100,2|8,0:0|0:0,0:0:0:0:
262,253,25303,6,0,L|230:45,1,200,0|0,0:0|0:0,0:0:0:0:
149,126,25694,2,0,L|169:246,1,100,8|0,0:0|0:0,0:0:0:0:
347,197,25955,2,0,L|327:77,1,100,0|2,0:0|0:0,0:0:0:0:
231,55,26216,2,0,L|239:111,1,50,8|0,0:0|0:0,0:0:0:0:
262,253,26346,2,0,L|253:197,1,50,0|0,0:0|0:0,0:0:0:0:
49,51,26476,6,0,L|61:130,3,50,8|0|2|0,0:0|0:0|0:0|0:0,0:0:0:0:
149,126,26737,2,0,L|137:205,1,50,8|0,0:0|0:0,0:0:0:0:
0,182,26868,2,0,P|29:181|60:190,1,50,2|0,0:0|0:0,0:0:0:0:
126,260,26998,1,8,0:0:0:0:
122,284,27063,1,0,0:0:0:0:
118,309,27129,1,2,0:0:0:0:
114,334,27194,1,0,0:0:0:0:
111,354,27259,2,0,L|41:364,1,50,8|0,0:0|0:0,0:0:0:0:
212,260,27389,2,0,L|282:250,1,50,2|0,0:0|0:0,0:0:0:0:
208,359,27520,5,8,0:0:0:0:
310,81,27781,6,2,P|373:135|316:144,1,180.000006866455,2|0,0:0|0:0,0:0:0:0:
357,46,28042,6,2,P|418:126|363:178,1,180.000006866455,2|0,0:0|0:0,0:0:0:0:
116,312,28563,6,0,P|162:329|210:318,1,100,6|0,0:0|0:0,0:0:0:0:
314,229,28824,1,8,0:0:0:0:
150,140,28955,2,0,L|50:128,1,100,0|0,0:0|0:0,0:0:0:0:
257,56,29216,2,0,L|357:45,1,100,2|8,0:0|0:0,0:0:0:0:
388,264,29476,6,0,P|307:312|234:253,1,200
46,307,29868,2,0,L|178:299,1,100,8|0,0:0|0:0,0:0:0:0:
314,229,30129,2,0,P|319:179|300:134,1,100,0|2,0:0|0:0,0:0:0:0:
160,56,30389,2,0,L|164:110,1,50,8|0,0:0|0:0,0:0:0:0:
229,243,30520,2,0,L|232:193,1,50
37,193,30650,6,0,B|111:185|111:185|150:202|150:202|235:193,1,200,2|8,0:0|0:0,0:0:0:0:
53,352,31042,2,0,P|60:304|96:270,1,100
238,347,31303,2,0,P|193:364|145:351,1,100,2|8,0:0|0:0,0:0:0:0:
37,193,31563,2,0,P|180:224|192:272,1,200
276,253,31955,6,0,L|285:184,1,50,12|0,0:0|0:0,0:0:0:0:
293,115,32085,1,2,0:0:0:0:
366,277,32216,2,0,L|375:208,1,50,12|0,0:0|0:0,0:0:0:0:
383,139,32346,1,2,0:0:0:0:
450,306,32476,2,0,L|479:114,1,150,12|0,0:0|0:0,0:0:0:0:
444,74,32737,6,0,P|396:42|296:143,1,200,6|8,0:0|0:0,0:0:0:0:
276,253,33129,2,0,P|258:207|205:177,1,100,0|0,0:0|0:0,0:0:0:0:
151,346,33389,2,0,P|199:353|252:322,1,100,2|8,0:0|0:0,0:0:0:0:
133,192,33650,6,0,B|90:230|102:286|102:286|84:232|22:218,1,200,0|0,0:0|0:0,0:0:0:0:
35,48,34042,2,0,L|68:176,1,100,8|0,0:0|0:0,0:0:0:0:
223,180,34303,2,0,P|161:172|131:193,1,100,0|2,0:0|0:0,0:0:0:0:
243,331,34563,2,0,P|305:339|335:318,1,100,8|0,0:0|0:0,0:0:0:0:
357,168,34824,6,0,P|298:213|351:326,1,200,2|8,0:0|0:0,0:0:0:0:
462,139,35216,2,0,L|446:243,1,100,0|0,0:0|0:0,0:0:0:0:
341,69,35476,2,0,L|357:173,1,100,2|8,0:0|0:0,0:0:0:0:
457,31,35737,2,0,L|253:60,1,200
100,119,36129,6,0,L|157:124,1,50,10|0,0:0|0:0,0:0:0:0:
280,144,36259,2,0,L|223:149,1,50,8|0,0:0|0:0,0:0:0:0:
115,210,36389,2,0,L|172:215,1,50,2|0,0:0|0:0,0:0:0:0:
241,233,36520,2,0,L|184:238,1,50,2|0,0:0|0:0,0:0:0:0:
128,318,36650,2,0,L|185:323,1,50,8|0,0:0|0:0,0:0:0:0:
205,338,36781,2,0,L|148:343,1,50,0|0,0:0|0:0,0:0:0:0:
31,380,36911,6,0,L|25:182,1,150,2|0,0:0|0:0,0:0:0:0:
22,80,37172,2,0,L|26:252,1,150,2|0,0:0|0:0,0:0:0:0:
56,262,37433,2,0,B|39:296|-13:296|-47:269|-48:216|-11:182|41:178|69:231|69:231|130:276|209:218,1,350,4|0,0:0|0:0,0:0:0:0:
308,380,37955,6,0,L|314:182,1,150,2|0,0:0|0:0,0:0:0:0:
317,80,38216,2,0,L|313:252,1,150,2|0,0:0|0:0,0:0:0:0:
283,262,38476,2,0,B|300:296|352:296|386:269|387:216|350:182|298:178|270:231|270:231|209:276|130:218,1,350,4|0,0:0|0:0,0:0:0:0:
208,164,38998,6,0,L|196:349,1,150,2|0,0:0|0:0,0:0:0:0:
76,323,39259,2,0,L|64:138,1,150,2|0,0:0|0:0,0:0:0:0:
133,62,39520,2,0,B|130:122|177:177|177:177|184:201|183:235|155:253|121:261|71:229|100:167|100:167|117:149|128:94,1,350,4|0,0:0|0:0,0:0:0:0:
304,103,40042,6,0,B|350:89|350:116|384:102|384:102|422:81|420:37|368:18|322:44|359:79,1,200,10|0,0:0|0:0,0:0:0:0:
389,206,40433,2,0,P|443:155|303:107,1,300,0|2,0:0|0:0,0:0:0:0:
185,295,41085,6,0,P|236:270|331:308,1,150,2|0,0:0|0:0,0:0:0:0:
456,298,41346,2,0,P|405:323|310:285,1,150,2|0,0:0|0:0,0:0:0:0:
292,258,41607,2,0,B|258:275|258:327|285:361|338:362|372:325|376:273|326:237|326:237|290:181|336:105,1,350,4|0,0:0|0:0,0:0:0:0:
486,298,42129,6,0,P|446:247|477:161,1,150,2|0,0:0|0:0,0:0:0:0:
434,51,42389,2,0,P|483:94|452:180,1,150,2|0,0:0|0:0,0:0:0:0:
438,210,42650,2,0,B|455:244|507:244|541:217|542:164|505:130|453:126|425:179|425:179|364:224|285:166,1,350,4|0,0:0|0:0,0:0:0:0:
337,71,43172,6,0,P|292:124|344:196,1,150,2|0,0:0|0:0,0:0:0:0:
311,306,43433,2,0,P|356:253|304:181,1,150,2|0,0:0|0:0,0:0:0:0:
131,104,43694,2,0,B|128:164|175:219|175:219|182:243|181:277|153:295|119:303|69:271|98:209|98:209|115:191|126:136,1,350,4|0,0:0|0:0,0:0:0:0:
131,104,44216,6,0,B|85:90|85:117|51:103|51:103|13:82|15:38|67:19|113:45|76:80,1,200,10|0,0:0|0:0,0:0:0:0:
45,198,44607,2,0,P|9:119|134:109,1,250,0|2,0:0|0:0,0:0:0:0:
130,103,44998,2,0,L|188:102,1,50,2|0,0:0|0:0,0:0:0:0:
186,280,45259,6,0,P|257:294|308:258,1,100,6|0,0:0|0:0,0:0:0:0:
369,172,45520,1,8,0:0:0:0:
234,70,45650,2,0,B|234:211|234:211|289:143,1,200,0|2,0:0|0:0,0:0:0:0:
148,49,46042,2,0,P|91:39|35:63,1,100,8|0,0:0|0:0,0:0:0:0:
29,232,46303,5,2,0:0:0:0:
101,124,46433,1,0,0:0:0:0:
106,330,46563,2,0,P|163:342|221:322,1,100,8|0,0:0|0:0,0:0:0:0:
203,170,46824,2,0,P|165:202|153:249,1,100,0|2,0:0|0:0,0:0:0:0:
281,380,47085,2,0,P|293:308|247:251,1,150,8|0,0:0|0:0,0:0:0:0:
247,251,47346,6,0,P|298:257|349:225,1,100,12|2,0:0|0:0,0:0:0:0:
512,68,47607,1,0,0:0:0:0:
283,73,47737,6,0,P|279:171|298:197,1,100,12|2,0:0|0:0,0:0:0:0:
451,365,47998,1,0,0:0:0:0:
407,120,48129,6,0,P|367:120|349:129,1,50,12|0,0:0|0:0,0:0:0:0:
246,250,48259,2,0,P|223:237|198:206,1,50,2|0,0:0|0:0,0:0:0:0:
189,72,48389,5,12,0:0:0:0:
451,365,48911,6,0,L|445:298,1,50
327,224,49042,2,0,L|331:148,1,50
424,42,49172,1,2,0:0:0:0:
424,42,49433,6,0,P|393:131|528:192,1,240.000009155274,6|2,0:0|0:0,0:0:0:0:
274,73,49824,1,8,0:0:0:0:
194,253,49955,2,0,L|177:372,1,120.000004577637,2|8,0:0|0:0,0:0:0:0:
461,254,50216,2,0,L|444:130,1,120.000004577637,2|8,0:0|0:0,0:0:0:0:
210,15,50476,6,0,P|187:82|214:141,1,120.000004577637,2|8,0:0|0:0,0:0:0:0:
336,314,50737,1,2,0:0:0:0:
445,136,50868,2,0,P|378:113|319:140,1,120.000004577637,8|2,0:0|0:0,0:0:0:0:
162,244,51128,1,8,0:0:0:0:
417,375,51259,2,0,P|432:286|407:242,1,120.000004577637,2|8,0:0|0:0,0:0:0:0:
93,317,51520,6,0,P|133:338|219:325,1,120.000004577637,2|8,0:0|0:0,0:0:0:0:
333,128,51781,2,0,P|277:97|199:116,1,120.000004577637,2|8,0:0|0:0,0:0:0:0:
0,240,52042,2,0,L|6:382,1,120.000004577637,2|8,0:0|0:0,0:0:0:0:
336,314,52303,2,0,P|279:224|211:232,1,180.000006866455,2|0,0:0|0:0,0:0:0:0:
119,251,52563,6,0,L|-11:239,1,120.000004577637,2|8,0:0|0:0,0:0:0:0:
223,102,52824,1,2,0:0:0:0:
185,319,52955,2,0,P|124:345|53:321,1,120.000004577637,8|2,0:0|0:0,0:0:0:0:
132,64,53216,1,8,0:0:0:0:
322,211,53346,2,0,B|318:373,1,120.000004577637,2|8,0:0|0:0,0:0:0:0:
351,137,53607,6,0,P|270:96|203:199,1,180.000006866455,2|0,0:0|0:0,0:0:0:0:
322,211,53868,6,0,P|384:212|425:169,1,120,6|0,0:0|0:0,0:0:0:0:
206,144,54129,6,0,B|211:324|211:324|250:269,1,240.000009155274,6|2,0:0|0:0,0:0:0:0:
351,137,54520,1,8,0:0:0:0:
172,218,54650,6,0,P|124:140|220:65,1,180.000006866455,2|0,0:0|0:0,0:0:0:0:
243,183,54911,6,0,P|249:244|210:289,1,120,6|0,0:0|0:0,0:0:0:0:
166,73,55172,6,0,B|346:63|346:63|294:105,1,240.000009155274,6|0,0:0|0:0,0:0:0:0:
172,218,55563,1,8,0:0:0:0:
387,186,55694,6,0,P|310:139|235:234,1,180.000006866455,2|0,0:0|0:0,0:0:0:0:
352,257,55955,6,0,P|414:263|459:224,1,120,6|0,0:0|0:0,0:0:0:0:
242,182,56216,6,0,B|233:362|233:362|275:310,1,240.000009155274,6|2,0:0|0:0,0:0:0:0:
387,186,56607,1,8,0:0:0:0:
188,70,56737,6,0,P|284:65|339:107,1,120.000004577637,2|8,0:0|0:0,0:0:0:0:
352,257,56998,1,2,0:0:0:0:
129,332,57129,2,0,P|211:268|179:354,1,240.000009155274,8|0,0:0|0:0,0:0:0:0:
96,317,57520,2,0,P|93:287|102:258,1,60.0000022888184,14|0,0:0|0:0,0:0:0:0:
257,272,57650,2,0,P|260:302|251:331,1,60.0000022888184,8|0,0:0|0:0,0:0:0:0:
292,175,57781,6,0,B|226:159|182:211|182:211|148:154|82:165,1,240.000009155274,6|2,0:0|0:0,0:0:0:0:
172,361,58172,1,8,0:0:0:0:
424,277,58303,2,0,L|432:146,1,120.000004577637,2|8,0:0|0:0,0:0:0:0:
181,44,58563,2,0,L|191:168,1,120.000004577637,2|8,0:0|0:0,0:0:0:0:
491,93,58824,6,0,P|424:70|365:97,1,120.000004577637,2|8,0:0|0:0,0:0:0:0:
106,281,59085,1,2,0:0:0:0:
368,363,59216,2,0,P|391:296|364:237,1,120.000004577637,8|2,0:0|0:0,0:0:0:0:
221,28,59476,1,8,0:0:0:0:
106,281,59607,2,0,P|195:296|239:271,1,120.000004577637,2|8,0:0|0:0,0:0:0:0:
147,85,59868,6,0,L|167:224,1,120.000004577637,2|8,0:0|0:0,0:0:0:0:
330,333,60129,2,0,L|350:194,1,120.000004577637,2|8,0:0|0:0,0:0:0:0:
221,28,60389,2,0,L|241:167,1,120.000004577637,2|8,0:0|0:0,0:0:0:0:
412,372,60650,2,0,L|440:187,1,180.000006866455,2|0,0:0|0:0,0:0:0:0:
458,97,60911,6,0,L|117:143,1,300.000011444092,12|0,0:0|0:0,0:0:0:0:
30,172,61303,2,0,L|333:196,1,300.000011444092,12|0,0:0|0:0,0:0:0:0:
441,227,61694,2,0,L|299:243,1,120.000004577637,6|10,0:0|0:0,0:0:0:0:
164,337,61955,6,0,B|200:271|191:199|138:141|138:141|154:196|112:277,1,300.000011444092,6|0,0:0|0:0,0:0:0:0:
208,294,62346,2,0,B|219:195|188:136|141:102|141:102|171:150|151:225,1,300.000011444092,12|0,0:0|0:0,0:0:0:0:
231,205,62737,2,0,B|203:120|123:63,1,180.000006866455,12|0,0:0|0:0,0:0:0:0:
24,114,62998,6,0,P|-15:205|60:159,1,240.000009155274,6|2,0:0|0:0,0:0:0:0:
213,33,63389,1,8,0:0:0:0:
301,259,63520,2,0,P|248:290|172:272,1,120.000004577637,0|10,0:0|0:0,0:0:0:0:
371,119,63781,2,0,B|402:131|429:138|429:138|367:172|278:134,1,180.000006866455
205,176,64042,6,0,P|261:142|322:150,1,120.000004577637,12|2,0:0|0:0,0:0:0:0:
466,315,64303,1,0,0:0:0:0:
129,237,64433,6,0,P|108:177|148:102,1,120.000004577637,12|2,0:0|0:0,0:0:0:0:
335,39,64694,1,0,0:0:0:0:
177,320,64824,6,0,P|103:331|50:294,1,120.000004577637,12|2,0:0|0:0,0:0:0:0:
201,83,65085,1,10,0:0:0:0:
353,324,65216,2,0,P|283:347|351:277,1,240.000009155274,4|0,0:0|0:0,0:0:0:0:
481,353,65607,6,0,P|440:357|382:341,1,60.0000022888184,12|0,0:0|0:0,0:0:0:0:
422,141,65737,2,0,P|467:137|504:152,1,60.0000022888184,2|0,0:0|0:0,0:0:0:0:
224,364,65868,2,0,P|214:336|213:307,1,60.0000022888184,12|0,0:0|0:0,0:0:0:0:
310,200,65998,2,0,P|314:229|314:259,1,60.0000022888184,2|0,0:0|0:0,0:0:0:0:
94,364,66129,6,0,B|135:361|160:330|160:330|185:360|224:364,1,150,6|0,0:0|0:0,0:0:0:0:
309,367,66389,2,0,L|482:357,1,150,8|0,0:0|0:0,0:0:0:0:
442,251,66650,2,0,B|400:257|377:290|377:290|351:260|288:256,1,150
231,249,66911,2,0,L|64:257,1,150,8|0,0:0|0:0,0:0:0:0:
40,332,67172,6,0,L|57:208,1,100,2|0,0:0|0:0,0:0:0:0:
119,66,67433,1,8,0:0:0:0:
271,145,67563,2,0,P|301:161|391:143,1,100,0|0,0:0|0:0,0:0:0:0:
320,27,67824,2,0,L|326:90,1,50,2|0,0:0|0:0,0:0:0:0:
266,194,67955,2,0,L|272:131,1,50,8|0,0:0|0:0,0:0:0:0:
225,13,68085,2,0,L|231:76,1,50,0|0,0:0|0:0,0:0:0:0:
355,257,68216,6,0,L|369:120,1,100,2|0,0:0|0:0,0:0:0:0:
172,181,68476,2,0,P|228:202|293:172,1,100,8|0,0:0|0:0,0:0:0:0:
320,27,68737,2,0,P|290:11|200:29,1,100,0|2,0:0|0:0,0:0:0:0:
23,57,68998,2,0,L|35:188,1,100,8|0,0:0|0:0,0:0:0:0:
181,226,69259,6,0,P|125:146|4:193,1,200,2|8,0:0|0:0,0:0:0:0:
152,310,69650,1,0,0:0:0:0:
173,313,69716,1,0,0:0:0:0:
194,317,69781,2,0,L|257:312,1,50,0|0,0:0|0:0,0:0:0:0:
361,263,69911,2,0,L|298:258,1,50,2|0,0:0|0:0,0:0:0:0:
181,226,70042,2,0,L|244:221,1,50,8|0,0:0|0:0,0:0:0:0:
372,179,70172,2,0,L|309:174,1,50,0|0,0:0|0:0,0:0:0:0:
119,95,70303,6,0,B|162:91|189:60|189:60|219:85|274:87,1,150,6|0,0:0|0:0,0:0:0:0:
335,84,70563,2,0,L|490:69,1,150,8|0,0:0|0:0,0:0:0:0:
505,188,70824,2,0,B|462:184|435:153|435:153|405:178|350:180,1,150
291,186,71085,2,0,L|136:171,1,150,8|0,0:0|0:0,0:0:0:0:
119,95,71346,6,0,L|123:232,1,100,2|0,0:0|0:0,0:0:0:0:
228,293,71607,1,8,0:0:0:0:
349,125,71737,2,0,P|289:104|232:123,1,100,0|0,0:0|0:0,0:0:0:0:
70,142,71998,2,0,L|119:146,1,50,2|0,0:0|0:0,0:0:0:0:
254,110,72129,2,0,L|189:112,1,50,8|0,0:0|0:0,0:0:0:0:
84,47,72259,2,0,L|133:51,1,50,0|0,0:0|0:0,0:0:0:0:
291,195,72389,6,0,L|156:200,1,100,2|0,0:0|0:0,0:0:0:0:
20,343,72650,2,0,L|155:348,1,100,8|0,0:0|0:0,0:0:0:0:
70,140,72911,2,0,L|65:275,1,100,0|2,0:0|0:0,0:0:0:0:
291,195,73172,2,0,L|281:63,1,100,8|0,0:0|0:0,0:0:0:0:
233,281,73433,6,0,P|293:306|379:255,1,150,2|0,0:0|0:0,0:0:0:0:
375,188,73694,6,0,L|371:135,1,50,8|0,0:0|0:0,0:0:0:0:
363,57,73824,1,0,0:0:0:0:
291,195,73955,2,0,L|287:142,1,50,8|0,0:0|0:0,0:0:0:0:
280,63,74085,1,2,0:0:0:0:
210,206,74216,2,0,L|206:153,1,50,8|0,0:0|0:0,0:0:0:0:
197,71,74346,1,0,0:0:0:0:
68,26,74476,6,0,L|79:166,1,100,12|2,0:0|0:0,0:0:0:0:
91,294,74737,1,0,0:0:0:0:
427,217,74868,6,0,P|373:199|330:214,1,100,12|2,0:0|0:0,0:0:0:0:
135,369,75129,1,0,0:0:0:0:
376,336,75259,2,0,P|380:289|376:269,1,50,12|0,0:0|0:0,0:0:0:0:
72,155,75389,2,0,P|67:201|72:220,1,50,2|0,0:0|0:0,0:0:0:0:
259,369,75520,5,12,0:0:0:0:
53,371,76042,6,0,B|129:361|129:361|186:379|186:379|266:369,1,210.000008010865,2|0,0:0|0:0,0:0:0:0:
266,250,76563,6,0,P|162:274|280:175,1,420.000016021729,4|0,0:0|0:0,0:0:0:0:
267,149,77607,6,0,L|393:144,1,100,8|2,0:0|0:0,0:0:0:0:
465,285,77868,2,0,P|476:222|444:166,1,100,8|2,0:0|0:0,0:0:0:0:
489,63,78129,2,0,L|363:57,1,100,8|2,0:0|0:0,0:0:0:0:
276,241,78389,2,0,P|255:196|267:149,1,100,8|2,0:0|0:0,0:0:0:0:
103,329,78650,6,0,L|371:344,1,240.000009155274,6|2,0:0|0:0,0:0:0:0:
471,227,79042,1,8,0:0:0:0:
196,127,79172,2,0,L|205:286,1,120.000004577637,2|8,0:0|0:0,0:0:0:0:
464,346,79433,2,0,L|473:187,1,120.000004577637,2|8,0:0|0:0,0:0:0:0:
459,78,79694,6,0,P|397:55|340:82,1,120.000004577637,2|8,0:0|0:0,0:0:0:0:
148,222,79955,2,0,P|208:238|265:211,1,120.000004577637,2|8,0:0|0:0,0:0:0:0:
209,19,80216,2,0,L|61:32,1,120.000004577637,2|8,0:0|0:0,0:0:0:0:
259,216,80476,2,0,L|407:229,1,120.000004577637,2|8,0:0|0:0,0:0:0:0:
459,78,80737,6,0,P|390:150|465:261,1,240.000009155274,2|2,0:0|0:0,0:0:0:0:
490,166,81129,1,8,0:0:0:0:
323,321,81259,2,0,L|193:311,1,120.000004577637,2|8,0:0|0:0,0:0:0:0:
31,173,81520,2,0,L|150:163,1,120.000004577637,2|8,0:0|0:0,0:0:0:0:
115,369,81781,6,0,P|89:296|115:246,1,120.000004577637,2|8,0:0|0:0,0:0:0:0:
240,67,82042,1,2,0:0:0:0:
324,322,82172,2,0,L|194:312,1,120.000004577637,8|2,0:0|0:0,0:0:0:0:
150,162,82433,2,0,L|157:97,1,60.0000022888184,8|0,0:0|0:0,0:0:0:0:
249,230,82563,2,0,L|242:165,1,60.0000022888184,2|0,0:0|0:0,0:0:0:0:
103,259,82694,2,0,L|168:266,1,60.0000022888184,8|0,0:0|0:0,0:0:0:0:
328,74,82824,6,0,B|238:66|238:66|197:23|197:23|51:16,1,240.000009155274,6|2,0:0|0:0,0:0:0:0:
34,155,83216,1,8,0:0:0:0:
233,348,83346,2,0,L|254:188,1,120.000004577637,2|8,0:0|0:0,0:0:0:0:
34,155,83607,2,0,L|55:315,1,120.000004577637,2|8,0:0|0:0,0:0:0:0:
313,163,83868,6,0,P|257:139|193:157,1,120.000004577637,2|8,0:0|0:0,0:0:0:0:
0,355,84129,2,0,P|56:370|118:346,1,120.000004577637,2|8,0:0|0:0,0:0:0:0:
113,102,84389,2,0,L|127:224,1,120.000004577637,2|8,0:0|0:0,0:0:0:0:
359,349,84650,2,0,L|373:227,1,120.000004577637,2|8,0:0|0:0,0:0:0:0:
417,9,84911,6,0,P|376:84|498:178,1,240.000009155274,6|2,0:0|0:0,0:0:0:0:
479,84,85303,1,8,0:0:0:0:
212,219,85433,2,0,L|199:390,1,120.000004577637,2|8,0:0|0:0,0:0:0:0:
339,114,85694,2,0,L|352:285,1,120.000004577637,2|8,0:0|0:0,0:0:0:0:
340,378,85955,6,0,L|347:318,1,60.0000022888184,12|0,0:0|0:0,0:0:0:0:
428,167,86085,2,0,L|433:246,1,60.0000022888184
425,382,86216,2,0,L|434:310,1,60.0000022888184,2|0,0:0|0:0,0:0:0:0:
512,171,86346,1,12,0:0:0:0:
340,378,86607,6,0,L|259:368,1,60.0000022888184,2|0,0:0|0:0,0:0:0:0:
155,299,86737,2,0,L|225:310,1,60.0000022888184,12|0,0:0|0:0,0:0:0:0:
354,289,86868,2,0,L|295:281,1,60.0000022888184
111,358,86998,6,0,L|130:225,1,120.000004577637,12|0,0:0|0:0,0:0:0:0:
150,66,87259,1,2,0:0:0:0:
354,289,87389,2,0,P|294:306|226:296,1,120.000004577637,12|2,0:0|0:0,0:0:0:0:
77,163,87650,1,0,0:0:0:0:
322,133,87781,2,0,P|266:178|267:106,1,180.000006866455,12|0,0:0|0:0,0:0:0:0:
361,111,88042,6,0,P|340:205|288:57,1,420.000016021729,12|0,0:0|0:0,0:0:0:0:
354,19,88563,6,0,B|379:20|379:20|399:13|399:13|420:17|420:17|438:7|469:6|487:20,1,128,4|0,0:0|0:0,0:0:0:0:
