osu file format v14

[General]
AudioFilename: audio.mp3
AudioLeadIn: 1500
PreviewTime: 48911
Countdown: 0
SampleSet: Soft
StackLeniency: 0.7
Mode: 0
LetterboxInBreaks: 0
WidescreenStoryboard: 1

[Editor]
Bookmarks: 390,9781,20216,36911,45259,49433,66129,78650,89085
DistanceSpacing: 0.5
BeatDivisor: 4
GridSize: 4
TimelineZoom: 1

[Metadata]
Title:DREAMxSCRAMBLE!
TitleUnicode:DREAMxSCRAMBLE!
Artist:AiRI
ArtistUnicode:AiRI
Creator:Plaudible
Version:Infighter Extra
Source:競女!!!!!!!!
Tags:keijo!!!!!!!! tv size japanese anime cut ver Hip Whip Girl hobbes2 polkamocha pentori anxient kyuukai yaleufeu
BeatmapID:1209552
BeatmapSetID:570653

[Difficulty]
HPDrainRate:6
CircleSize:4
OverallDifficulty:9
ApproachRate:9.6
SliderMultiplier:1.4
SliderTickRate:1

[Events]
//Background and Video events
0,0,"infighter.png",0,0
//Break Periods
//Storyboard Layer 0 (Background)
//Storyboard Layer 1 (Fail)
//Storyboard Layer 2 (Pass)
//Storyboard Layer 3 (Foreground)
//Storyboard Sound Samples

[TimingPoints]
390,260.869565217391,4,2,1,75,1,0
1433,-133.333333333333,4,2,1,60,0,0
1824,-133.333333333333,4,2,0,60,0,0
2476,-133.333333333333,4,2,1,60,0,0
2868,-133.333333333333,4,2,0,60,0,0
3520,-133.333333333333,4,2,1,60,0,0
3911,-133.333333333333,4,2,0,60,0,0
4563,-80,4,2,1,75,0,0
5607,-133.333333333333,4,2,1,60,0,0
5998,-133.333333333333,4,2,0,60,0,0
6650,-133.333333333333,4,2,1,60,0,0
7042,-133.333333333333,4,2,0,60,0,0
7694,-133.333333333333,4,2,1,60,0,0
8085,-133.333333333333,4,2,0,60,0,0
8737,-80,4,2,1,60,0,0
9781,-80,4,2,1,75,0,0
19433,-80,4,2,1,5,0,0
19694,-133.333333333333,4,2,0,60,0,0
20216,-100,4,2,1,75,0,0
27781,-66.6666666666667,4,2,0,75,0,0
27976,-100,4,2,1,5,0,0
28042,-100,4,2,0,75,0,0
28563,-100,4,2,1,75,0,0
36846,-100,4,2,1,5,0,0
36911,-100,4,2,1,75,0,0
37889,-100,4,2,1,5,0,0
37955,-100,4,2,1,75,0,0
38933,-100,4,2,1,5,0,0
38998,-100,4,2,1,75,0,0
39976,-100,4,2,1,5,0,0
40042,-100,4,2,1,75,0,0
42063,-100,4,2,1,5,0,0
42129,-100,4,2,1,75,0,0
43107,-100,4,2,1,5,0,0
43172,-100,4,2,1,75,0,0
44150,-100,4,2,1,5,0,0
44216,-100,4,2,1,75,0,0
48911,-100,4,2,0,75,0,0
49433,-80,4,2,1,75,0,1
53868,-100,4,2,1,75,0,1
54063,-100,4,2,1,5,0,1
54129,-66.6666666666667,4,2,1,75,0,1
54911,-100,4,2,1,75,0,1
55107,-100,4,2,1,5,0,1
55172,-66.6666666666667,4,2,1,75,0,1
55694,-80,4,2,1,75,0,1
55955,-100,4,2,1,75,0,1
56150,-100,4,2,1,5,0,1
56216,-66.6666666666667,4,2,1,75,0,1
56607,-80,4,2,1,75,0,1
66129,-80,4,2,1,75,0,0
74476,-100,4,2,1,75,0,0
76042,-153.846153846154,4,2,0,75,0,0
76498,-100,4,2,1,5,0,0
76563,-133.333333333333,4,2,1,75,0,0
77476,-80,4,2,1,5,0,0
77607,-80,4,2,1,75,0,0
78650,-80,4,2,1,75,0,0
88303,-80,4,2,1,5,0,0
88563,-200,4,2,1,25,0,0

[Colours]
Combo1 : 255,255,128
Combo2 : 255,128,128
Combo3 : 128,128,255
Combo4 : 234,234,234

[HitObjects]
126,192,390,5,8,0:0:0:0:
163,358,520,1,2,0:0:0:0:
214,219,650,5,8,0:0:0:0:
59,254,781,1,2,0:0:0:0:
107,103,911,5,8,0:0:0:0:
145,278,1042,1,2,0:0:0:0:
193,135,1172,5,8,0:0:0:0:
41,171,1303,1,2,0:0:0:0:
252,73,1433,5,8,0:0:0:0:
300,280,1563,1,0,0:0:0:0:
300,280,1824,2,0,L|472:300,1,157.500006008148,2|0,0:2|0:0,0:0:0:0:
193,279,2476,5,8,0:0:0:0:
252,73,2606,1,0,0:0:0:0:
252,73,2868,2,0,L|424:53,1,157.500006008148,2|0,0:2|0:0,0:0:0:0:
134,73,3520,5,8,0:0:0:0:
193,279,3650,1,0,0:0:0:0:
193,279,3911,2,0,L|365:299,1,157.500006008148,2|0,0:2|0:0,0:0:0:0:
431,160,4563,6,0,L|301:171,1,131.25,12|0,0:0|0:0,0:0:0:0:
256,239,4824,2,0,L|267:109,1,131.25,12|0,0:0|0:0,0:0:0:0:
336,65,5085,2,0,P|283:87|206:38,1,131.25,12|0,0:0|0:0,0:0:0:0:
104,125,5346,2,0,P|164:148|227:108,1,131.25,12|0,0:0|0:0,0:0:0:0:
158,67,5607,5,8,0:0:0:0:
212,268,5737,1,0,0:0:0:0:
212,268,5998,2,0,L|384:288,1,157.500006008148,2|0,0:2|0:0,0:0:0:0:
100,271,6650,5,8,0:0:0:0:
158,67,6780,1,0,0:0:0:0:
158,67,7041,2,0,L|330:47,1,157.500006008148,2|0,0:2|0:0,0:0:0:0:
34,67,7694,5,8,0:0:0:0:
100,271,7824,1,0,0:0:0:0:
100,271,8085,2,0,L|272:291,1,157.500006008148,2|0,0:2|0:0,0:0:0:0:
126,115,8737,5,12,0:0:0:0:
126,115,8803,1,0,0:0:0:0:
126,115,8868,1,2,0:0:0:0:
100,271,8998,5,12,0:0:0:0:
100,271,9063,1,0,0:0:0:0:
100,271,9128,1,2,0:0:0:0:
243,216,9259,5,12,0:0:0:0:
244,209,9324,1,0,0:0:0:0:
245,201,9389,1,2,0:0:0:0:
307,40,9520,5,12,0:0:0:0:
328,41,9585,1,0,0:0:0:0:
349,43,9650,1,0,0:0:0:0:
370,45,9715,1,0,0:0:0:0:
392,48,9781,6,0,L|400:148,1,87.5,6|8,0:0|0:0,0:0:0:0:
296,288,10042,1,2,0:0:0:0:
304,120,10172,1,8,0:0:0:0:
464,288,10303,2,0,P|416:300|364:288,1,87.5,2|8,0:0|0:0,0:0:0:0:
216,112,10563,2,0,L|308:120,1,87.5,2|8,0:0|0:0,0:0:0:0:
216,288,10824,6,0,B|128:324|128:256|28:300,1,175,2|2,0:0|0:0,0:0:0:0:
88,380,11216,1,8,0:0:0:0:
170,184,11346,2,0,L|160:98,1,87.5,0|8,0:0|0:0,0:0:0:0:
296,288,11607,2,0,P|349:297|392:275,1,87.5,0|8,0:0|0:0,0:0:0:0:
170,184,11868,5,2,0:0:0:0:
81,300,11998,2,0,P|42:319|0:315,1,87.5,8|2,0:0|0:0,0:0:0:0:
104,96,12259,1,8,0:0:0:0:
214,257,12389,2,0,L|211:344,1,87.5,2|8,0:0|0:0,0:0:0:0:
27,143,12650,2,0,L|30:230,1,87.5,2|8,0:0|0:0,0:0:0:0:
284,63,12911,6,0,P|216:55|178:83,1,87.5,2|8,0:0|0:0,0:0:0:0:
27,143,13172,1,2,0:0:0:0:
225,340,13303,2,0,P|229:294|210:252,1,87.5,8|2,0:0|0:0,0:0:0:0:
27,143,13563,5,8,0:0:0:0:
155,311,13694,1,2,0:0:0:0:
200,62,13824,1,8,0:0:0:0:
383,273,13955,6,0,B|277:280|277:280|203:252,1,175,6|2,0:0|0:0,0:0:0:0:
44,154,14346,1,8,0:0:0:0:
277,77,14476,2,0,P|303:125|280:185,1,87.5,2|8,0:0|0:0,0:0:0:0:
155,311,14737,2,0,P|131:264|152:203,1,87.5,2|8,0:0|0:0,0:0:0:0:
380,282,14998,6,0,B|312:282|312:282|272:257|272:257|195:255,1,175,2|2,0:0|0:0,0:0:0:0:
245,351,15389,1,8,0:0:0:0:
344,185,15520,2,0,L|358:95,1,87.5,2|8,0:0|0:0,0:0:0:0:
415,331,15781,2,0,B|459:358|502:342,1,87.5,2|8,0:0|0:0,0:0:0:0:
344,185,16042,5,6,0:0:0:0:
227,261,16172,2,0,B|187:275|143:248,1,87.5,8|2,0:0|0:0,0:0:0:0:
264,88,16433,1,8,0:0:0:0:
320,271,16563,2,0,L|305:380,1,87.5,2|8,0:0|0:0,0:0:0:0:
184,91,16824,2,0,L|196:178,1,87.5,2|8,0:0|0:0,0:0:0:0:
378,204,17085,6,0,P|323:185|276:198,1,87.5,12|0,0:0|0:0,0:0:0:0:
146,248,17346,1,2,0:0:0:0:
16,99,17476,2,0,P|67:86|121:111,1,87.5,12|0,0:0|0:0,0:0:0:0:
295,189,17737,5,2,0:0:0:0:
59,168,17868,1,12,0:0:0:0:
222,19,17998,1,0,0:0:0:0:
326,273,18129,6,0,P|268:274|234:257,1,87.5,14|0,0:0|0:0,0:0:0:0:
374,155,18389,1,2,0:0:0:0:
317,379,18520,5,12,0:0:0:0:
156,215,18650,1,2,0:0:0:0:
374,155,18781,1,0,0:0:0:0:
203,342,18911,5,14,0:0:0:0:
250,125,19042,1,0,0:0:0:0:
453,320,19172,6,0,P|402:296|480:259,1,175,14|0,0:0|0:0,0:0:0:0:
203,342,19694,5,2,0:0:0:0:
203,342,19955,1,2,0:0:0:0:
203,342,20216,6,0,L|109:334,1,70,6|0,0:0|0:0,0:0:0:0:
78,210,20476,1,8,0:0:0:0:
174,161,20607,2,0,P|184:216|166:251,1,70
90,107,20868,2,0,P|112:80|144:67,1,70,2|8,0:0|0:0,0:0:0:0:
78,210,21129,6,0,P|43:204|-9:108,1,140
67,13,21520,1,8,0:0:0:0:
263,129,21781,5,0,0:0:0:0:
263,129,21911,1,2,0:0:0:0:
380,210,22042,2,0,P|415:219|466:204,1,70,8|0,0:0|0:0,0:0:0:0:
354,63,22303,6,0,L|348:138,1,70,2|0,0:0|0:0,0:0:0:0:
222,232,22563,1,8,0:0:0:0:
194,125,22694,2,0,P|229:121|263:129,1,70
116,201,22955,2,0,P|92:167|87:129,1,70,2|8,0:0|0:0,0:0:0:0:
222,232,23216,6,0,P|195:289|99:310,1,140
18,249,23607,1,8,0:0:0:0:
194,125,23868,5,0,0:0:0:0:
194,125,23998,1,2,0:0:0:0:
316,194,24129,2,0,P|349:203|383:197,1,70,8|0,0:0|0:0,0:0:0:0:
282,52,24389,6,0,L|275:140,1,70,6|0,0:0|0:0,0:0:0:0:
155,227,24650,1,8,0:0:0:0:
126,122,24781,2,0,P|160:114|193:124,1,70
181,289,25042,2,0,P|156:246|158:204,1,70,2|8,0:0|0:0,0:0:0:0:
298,102,25303,6,0,P|289:170|241:219,1,140
126,122,25694,1,8,0:0:0:0:
64,323,25955,1,0,0:0:0:0:
64,323,26085,1,2,0:0:0:0:
181,289,26216,2,0,L|189:204,1,70,8|0,0:0|0:0,0:0:0:0:
216,82,26476,5,8,0:0:0:0:
216,82,26542,1,0,0:0:0:0:
216,82,26607,2,0,L|212:127,1,35,2|0,0:0|0:0,0:0:0:0:
294,207,26737,2,0,P|272:201|253:202,1,35,8|0,0:0|0:0,0:0:0:0:
346,280,26868,2,0,P|350:306|350:321,1,35,2|0,0:0|0:0,0:0:0:0:
264,281,26998,5,8,0:0:0:0:
254,282,27063,1,0,0:0:0:0:
244,283,27129,1,2,0:0:0:0:
234,284,27194,1,0,0:0:0:0:
224,285,27259,2,0,P|199:281|178:263,1,35,8|0,0:0|0:0,0:0:0:0:
207,156,27390,2,0,P|212:180|214:218,1,35,2|0,0:0|0:0,0:0:0:0:
92,228,27520,5,8,0:0:0:0:
92,228,27781,6,2,P|43:188|115:193,1,157.500006008148,2|0,0:0|0:0,0:1:0:0:
103,251,28042,6,2,P|24:163|119:146,1,245,2|0,0:0|0:0,0:1:0:0:
207,156,28563,6,0,P|241:159|275:150,1,70,6|0,0:0|0:0,0:0:0:0:
390,85,28824,1,8,0:0:0:0:
468,178,28955,2,0,L|464:266,1,70
307,108,29216,2,0,L|310:178,1,70,2|8,0:0|0:0,0:0:0:0:
474,38,29476,6,0,L|468:178,1,140
365,269,29868,2,0,P|328:274|273:255,1,70,8|0,0:0|0:0,0:0:0:0:
194,168,30129,1,0,0:0:0:0:
194,168,30259,1,2,0:0:0:0:
70,236,30389,2,0,L|67:312,1,70,8|0,0:0|0:0,0:0:0:0:
194,168,30650,6,0,P|236:163|271:174,1,70,2|0,0:0|0:0,0:0:0:0:
365,252,30911,1,8,0:0:0:0:
458,188,31042,2,0,L|450:96,1,70
284,256,31303,2,0,L|294:178,1,70,2|8,0:0|0:0,0:0:0:0:
473,327,31563,6,0,L|457:180,1,140,0|0,0:0|0:0,0:0:0:0:
349,140,31955,5,12,0:0:0:0:
486,72,32085,1,2,0:0:0:0:
355,218,32216,5,12,0:0:0:0:
406,77,32346,1,2,0:0:0:0:
425,268,32476,5,12,0:0:0:0:
349,140,32607,1,2,0:0:0:0:
217,318,32737,6,0,P|257:335|299:331,1,70,6|0,0:0|0:0,0:0:0:0:
425,268,32998,1,8,0:0:0:0:
264,181,33129,2,0,L|260:268,1,70
103,116,33389,2,0,L|107:200,1,70,2|8,0:0|0:0,0:0:0:0:
270,41,33650,6,0,L|263:180,1,140,0|0,0:0|0:0,0:0:0:0:
142,268,34042,2,0,P|95:274|64:264,1,70,8|0,0:0|0:0,0:0:0:0:
5,166,34303,1,0,0:0:0:0:
5,166,34433,1,2,0:0:0:0:
98,47,34563,2,0,P|105:100|93:142,1,70,8|0,0:0|0:0,0:0:0:0:
18,261,34824,6,0,P|87:237|150:281,1,140,2|8,0:0|0:0,0:0:0:0:
276,331,35216,2,0,L|179:324,1,70
371,184,35476,2,0,L|274:191,1,70,2|8,0:0|0:0,0:0:0:0:
416,340,35737,2,0,L|276:331,1,140
174,139,36129,5,10,0:0:0:0:
199,355,36259,1,8,0:0:0:0:
279,185,36389,5,2,0:0:0:0:
174,139,36520,1,2,0:0:0:0:
187,251,36650,2,0,L|201:364,1,105,8|0,0:0|0:0,0:0:0:0:
200,356,36911,5,2,0:0:0:0:
159,43,37172,1,2,0:0:0:0:
200,356,37433,2,0,B|302:346|302:346|354:309|354:309|446:301,1,245,4|0,0:0|0:0,0:0:0:0:
511,295,37955,5,2,0:0:0:0:
244,210,38216,1,2,0:0:0:0:
511,295,38476,2,0,B|502:123|502:123|456:193,1,245,4|0,0:0|0:0,0:0:0:0:
420,250,38998,5,2,0:0:0:0:
403,6,39259,1,2,0:0:0:0:
420,250,39520,2,0,B|270:290|270:290|176:267,1,245,4|0,0:0|0:0,0:0:0:0:
112,218,40042,6,0,L|117:142,1,70,8|0,0:0|0:0,0:0:0:0:
182,268,40302,1,0,0:0:0:0:
189,93,40433,2,0,P|129:56|63:74,1,140,0|8,0:0|0:0,0:0:0:0:
273,149,40824,5,2,0:0:0:0:
328,292,40955,1,0,0:0:0:0:
345,76,41085,5,2,0:0:0:0:
247,375,41346,1,2,0:0:0:0:
345,76,41607,2,0,B|161:100|161:100|233:145,1,245,4|0,0:0|0:0,0:0:0:0:
282,171,42129,5,2,0:0:0:0:
13,118,42389,1,2,0:0:0:0:
282,171,42650,2,0,B|347:183|347:183|328:69|328:69|261:101,1,245,4|0,0:0|0:0,0:0:0:0:
208,146,43172,5,2,0:0:0:0:
454,113,43433,1,2,0:0:0:0:
208,146,43694,2,0,B|69:162|69:162|50:228|50:228|76:270|76:270,1,245,4|0,0:0|0:0,0:0:0:0:
146,297,44216,6,0,L|216:291,1,70,8|0,0:0|0:0,0:0:0:0:
69,258,44476,1,2,0:0:0:0:
281,348,44607,2,0,P|305:287|265:221,1,140,0|8,0:0|0:0,0:0:0:0:
194,372,44998,5,2,0:0:0:0:
368,341,45129,1,0,0:0:0:0:
465,121,45259,6,0,B|474:276,1,140,6|8,0:0|0:0,0:0:0:0:
368,341,45650,1,0,0:0:0:0:
285,169,45781,2,0,P|244:156|197:165,1,70,0|2,0:0|0:0,0:0:0:0:
396,261,46042,2,0,P|420:225|421:186,1,70,8|0,0:0|0:0,0:0:0:0:
241,236,46303,6,0,L|235:408,1,140,2|8,0:0|0:0,0:0:0:0:
319,244,46694,1,0,0:0:0:0:
149,331,46824,2,0,L|68:327,1,70,0|2,0:0|0:0,0:0:0:0:
312,348,47085,5,8,0:0:0:0:
297,112,47216,1,0,0:0:0:0:
411,377,47346,5,12,0:0:0:0:
241,236,47476,2,0,P|234:183|252:140,1,70,2|0,0:0|0:0,0:0:0:0:
507,268,47737,5,12,0:0:0:0:
217,333,47868,2,0,P|177:338|145:329,1,70,2|0,0:0|0:0,0:0:0:0:
404,179,48129,5,12,0:0:0:0:
312,348,48259,1,2,0:0:0:0:
219,73,48389,1,12,0:0:0:0:
152,332,48911,6,0,L|54:323,1,70
336,352,49172,1,2,0:0:0:0:
336,352,49433,6,0,P|376:356|424:336,1,87.5,6|8,0:0|0:0,0:0:0:0:
187,160,49694,2,0,L|192:247,1,87.5,2|8,0:0|0:0,0:0:0:0:
439,61,49955,1,2,0:0:0:0:
364,279,50085,1,8,0:0:0:0:
248,82,50216,2,0,P|248:48|280:-11,1,87.5,2|8,0:0|0:0,0:0:0:0:
193,248,50476,6,0,B|129:281|73:236|73:236|95:239|121:230,1,175,2|2,0:0|0:0,0:0:0:0:
432,215,50868,2,0,P|367:185|327:199,1,87.5,8|2,0:0|0:0,0:0:0:0:
170,352,51129,1,8,0:0:0:0:
65,139,51259,2,0,L|74:42,1,87.5,2|8,0:0|0:0,0:0:0:0:
193,248,51520,6,0,P|247:268|289:258,1,87.5,2|8,0:0|0:0,0:0:0:0:
416,110,51781,1,2,0:0:0:0:
430,341,51911,1,8,0:0:0:0:
242,181,52042,2,0,L|255:85,1,87.5,2|8,0:0|0:0,0:0:0:0:
347,336,52303,2,0,P|280:336|236:304,1,87.5,2|8,0:0|0:0,0:0:0:0:
69,179,52563,6,0,B|138:186|138:186|184:173|184:173|251:181,1,175,2|2,0:0|0:0,0:0:0:0:
119,11,52955,2,0,L|126:125,1,87.5,8|2,0:0|0:0,0:0:0:0:
198,257,53216,1,8,0:0:0:0:
418,144,53346,2,0,P|363:126|328:138,1,87.5,2|8,0:0|0:0,0:0:0:0:
117,347,53607,6,0,L|237:357,1,87.5,2|8,0:0|0:0,0:0:0:0:
391,241,53868,2,0,P|365:285|316:309,1,105,6|0,0:0|0:0,0:0:0:0:
198,257,54129,6,0,P|265:292|371:184,1,210.000008010865,6|2,0:0|0:0,0:0:0:0:
256,65,54520,1,8,0:0:0:0:
136,173,54650,5,2,0:0:0:0:
276,199,54781,1,8,0:0:0:0:
122,372,54911,2,0,P|82:339|60:289,1,105,6|0,0:0|0:0,0:0:0:0:
136,173,55172,6,0,P|89:240|180:361,1,210.000008010865,6|0,0:0|0:0,0:0:0:0:
318,276,55563,1,8,0:0:0:0:
188,113,55694,5,2,0:0:0:0:
183,260,55824,1,8,0:0:0:0:
4,152,55955,2,0,P|13:110|74:61,1,105,6|0,0:0|0:0,0:0:0:0:
188,113,56216,6,0,P|100:80|30:170,1,210.000008010865,6|2,0:0|0:0,0:0:0:0:
183,260,56607,1,8,0:0:0:0:
336,171,56737,6,0,B|301:150|301:150|254:149,1,87.5,2|8,0:0|0:0,0:0:0:0:
94,235,56998,5,2,0:0:0:0:
113,102,57129,1,8,0:0:0:0:
254,149,57259,5,6,0:0:0:0:
37,164,57389,1,8,0:0:0:0:
203,58,57520,5,6,0:0:0:0:
181,285,57650,1,8,0:0:0:0:
343,27,57781,6,0,P|386:20|428:28,1,87.5,6|8,0:0|0:0,0:0:0:0:
278,229,58042,2,0,L|284:141,1,87.5,2|8,0:0|0:0,0:0:0:0:
464,357,58303,1,2,0:0:0:0:
470,109,58433,1,8,0:0:0:0:
278,229,58563,2,0,P|266:271|280:318,1,87.5,2|8,0:0|0:0,0:0:0:0:
182,124,58824,6,0,B|118:91|62:136|62:136|84:133|110:142,1,175,2|2,0:0|0:0,0:0:0:0:
327,302,59216,2,0,P|279:323|231:317,1,87.5,8|2,0:0|0:0,0:0:0:0:
72,211,59477,1,8,0:0:0:0:
287,40,59607,2,0,P|341:34|399:68,1,87.5,2|8,0:0|0:0,0:0:0:0:
164,289,59868,6,0,L|184:177,1,87.5,2|8,0:0|0:0,0:0:0:0:
370,358,60129,1,2,0:0:0:0:
326,110,60259,1,8,0:0:0:0:
248,294,60390,2,0,P|199:300|145:275,1,87.5,2|8,0:0|0:0,0:0:0:0:
326,110,60651,2,0,B|342:151|342:151|339:194,1,87.5,2|8,0:0|0:0,0:0:0:0:
54,237,60911,5,12,0:0:0:0:
109,15,61042,1,2,0:0:0:0:
212,216,61172,1,0,0:0:0:0:
0,108,61303,5,12,0:0:0:0:
233,77,61433,1,2,0:0:0:0:
148,302,61563,1,8,0:0:0:0:
109,15,61694,5,4,0:0:0:0:
41,286,61824,1,10,0:0:0:0:
212,216,61955,6,0,B|269:224|269:224|311:200|311:200|379:209,1,175,6|2,0:0|0:0,0:0:0:0:
123,119,62346,2,0,L|134:206,1,87.5,8|0,0:0|0:0,0:0:0:0:
109,15,62606,1,10,0:0:0:0:
377,55,62737,2,0,L|369:146,1,87.5,0|8,0:0|0:0,0:0:0:0:
141,263,62998,6,0,P|219:232|287:281,1,175,2|2,0:0|0:0,0:0:0:0:
45,340,63389,1,8,0:0:0:0:
27,183,63520,2,0,L|35:79,1,87.5,0|10,0:0|0:0,0:0:0:0:
252,83,63781,5,2,0:0:0:0:
273,320,63911,1,8,0:0:0:0:
363,112,64042,5,12,0:0:0:0:
147,132,64172,1,0,0:0:0:0:
272,309,64303,1,2,0:0:0:0:
320,76,64433,5,12,0:0:0:0:
270,297,64564,1,0,0:0:0:0:
181,89,64694,1,2,0:0:0:0:
376,206,64825,5,12,0:0:0:0:
149,225,64955,1,0,0:0:0:0:
246,33,65085,5,12,0:0:0:0:
276,331,65216,2,0,L|89:318,1,175,2|2,0:0|0:0,0:0:0:0:
158,65,65607,5,12,0:0:0:0:
376,218,65737,1,2,0:0:0:0:
184,244,65868,5,12,0:0:0:0:
332,36,65998,1,2,0:0:0:0:
184,244,66129,6,0,P|159:197|170:153,1,87.5,6|0,0:0|0:0,0:0:0:0:
332,36,66389,2,0,P|342:88|310:142,1,87.5,8|0,0:0|0:0,0:0:0:0:
158,65,66650,2,0,L|259:71,1,87.5,0|2,0:0|0:0,0:0:0:0:
345,223,66911,2,0,L|257:213,1,87.5,8|0,0:0|0:0,0:0:0:0:
112,193,67172,5,2,0:0:0:0:
248,135,67303,1,0,0:0:0:0:
239,298,67433,1,8,0:0:0:0:
167,121,67563,2,0,P|200:71|309:78,1,175,0|2,0:0|0:0,0:0:0:0:
414,147,67955,2,0,P|441:153|513:130,1,87.5,8|0,0:0|0:0,0:0:0:0:
442,39,68216,5,2,0:0:0:0:
305,74,68346,1,0,0:0:0:0:
364,226,68476,2,0,L|472:236,1,87.5,8|0,0:0|0:0,0:0:0:0:
434,39,68737,5,0,0:0:0:0:
297,74,68868,1,2,0:0:0:0:
356,226,68998,2,0,L|464:236,1,87.5,8|0,0:0|0:0,0:0:0:0:
216,66,69259,6,0,P|218:96|351:135,1,175,2|8,0:0|0:0,0:0:0:0:
450,53,69650,1,0,0:0:0:0:
450,53,69716,1,0,0:0:0:0:
450,53,69781,1,0,0:0:0:0:
297,74,69911,1,2,0:0:0:0:
390,214,70042,1,8,0:0:0:0:
364,21,70172,1,0,0:0:0:0:
191,135,70303,6,0,P|166:182|177:226,1,87.5,6|0,0:0|0:0,0:0:0:0:
339,343,70563,2,0,P|349:291|317:237,1,87.5,8|0,0:0|0:0,0:0:0:0:
165,314,70824,2,0,L|266:308,1,87.5,0|2,0:0|0:0,0:0:0:0:
352,156,71085,2,0,L|264:166,1,87.5,8|0,0:0|0:0,0:0:0:0:
122,181,71346,5,2,0:0:0:0:
238,94,71476,1,0,0:0:0:0:
256,247,71607,1,8,0:0:0:0:
161,71,71737,2,0,P|216:20|308:54,1,175,0|2,0:0|0:0,0:0:0:0:
352,156,72129,2,0,P|396:169|451:154,1,87.5,8|0,0:0|0:0,0:0:0:0:
397,67,72389,5,2,0:0:0:0:
402,250,72520,1,0,0:0:0:0:
277,130,72650,2,0,L|285:42,1,87.5,8|0,0:0|0:0,0:0:0:0:
395,75,72911,5,0,0:0:0:0:
400,258,73042,1,2,0:0:0:0:
275,138,73172,2,0,L|283:50,1,87.5,8|0,0:0|0:0,0:0:0:0:
476,237,73433,6,0,P|464:307|368:332,1,175,2|8,0:0|0:0,0:0:0:0:
257,280,73824,1,0,0:0:0:0:
257,280,73889,1,0,0:0:0:0:
257,280,73955,1,8,0:0:0:0:
396,169,74085,1,2,0:0:0:0:
159,244,74216,1,8,0:0:0:0:
373,334,74346,1,0,0:0:0:0:
131,384,74476,5,12,0:0:0:0:
301,192,74607,2,0,P|309:142|287:102,1,70,2|0,0:0|0:0,0:0:0:0:
37,237,74867,5,12,0:0:0:0:
224,356,74998,2,0,P|274:362|306:344,1,70,2|0,0:0|0:0,0:0:0:0:
149,125,75259,5,12,0:0:0:0:
252,282,75389,1,2,0:0:0:0:
323,28,75519,1,12,0:0:0:0:
220,100,76042,6,0,P|166:83|234:56,1,159.249992710114,2|4,0:0|0:0,0:0:0:0:
275,217,76563,6,0,B|277:163|277:163|213:207|140:174|140:174|119:215|75:234|75:234|120:270|170:260,1,367.500014019013,4|0,0:0|0:0,0:0:0:0:
145,262,77607,5,8,0:0:0:0:
39,131,77737,1,2,0:0:0:0:
95,326,77867,5,8,0:0:0:0:
104,81,77998,1,2,0:0:0:0:
277,293,78128,5,8,0:0:0:0:
64,253,78259,1,2,0:0:0:0:
186,81,78389,5,8,0:0:0:0:
175,337,78520,1,2,0:0:0:0:
253,132,78650,6,0,L|353:124,1,87.5,6|8,0:0|0:0,0:0:0:0:
507,229,78911,1,2,0:0:0:0:
325,220,79041,1,8,0:0:0:0:
493,60,79172,2,0,P|505:108|493:160,1,87.5,2|8,0:0|0:0,0:0:0:0:
317,308,79432,2,0,L|325:216,1,87.5,2|8,0:0|0:0,0:0:0:0:
196,105,79694,6,0,P|136:132|39:80,1,175,2|2,0:0|0:0,0:0:0:0:
130,26,80085,1,8,0:0:0:0:
263,165,80216,2,0,L|261:266,1,87.5,2|8,0:0|0:0,0:0:0:0:
358,59,80476,2,0,P|402:39|456:47,1,87.5,2|8,0:0|0:0,0:0:0:0:
263,165,80737,5,2,0:0:0:0:
155,74,80868,2,0,P|111:54|57:62,1,87.5,8|2,0:0|0:0,0:0:0:0:
184,264,81129,1,8,0:0:0:0:
240,88,81259,2,0,L|233:0,1,87.5,2|8,0:0|0:0,0:0:0:0:
95,247,81520,2,0,L|103:154,1,87.5,2|8,0:0|0:0,0:0:0:0:
300,342,81781,6,0,P|243:349|209:329,1,87.5,2|8,0:0|0:0,0:0:0:0:
20,216,82042,1,2,0:0:0:0:
228,40,82172,2,0,P|236:96|221:144,1,87.5,8|2,0:0|0:0,0:0:0:0:
20,216,82433,5,8,0:0:0:0:
156,88,82563,1,2,0:0:0:0:
217,337,82694,1,8,0:0:0:0:
399,109,82824,6,0,B|293:102|293:102|219:130,1,175,6|2,0:0|0:0,0:0:0:0:
40,212,83216,1,8,0:0:0:0:
308,308,83346,2,0,P|322:256|299:196,1,87.5,2|8,0:0|0:0,0:0:0:0:
156,88,83607,2,0,P|144:128|168:184,1,87.5,2|8,0:0|0:0,0:0:0:0:
399,109,83868,6,0,B|331:109|331:109|291:134|291:134|214:136,1,175,2|2,0:0|0:0,0:0:0:0:
253,32,84259,1,8,0:0:0:0:
362,203,84389,2,0,L|356:324,1,87.5,2|8,0:0|0:0,0:0:0:0:
429,66,84650,2,0,P|472:33|517:31,1,87.5,2|8,0:0|0:0,0:0:0:0:
362,203,84911,5,6,0:0:0:0:
259,67,85042,2,0,P|218:49|163:63,1,87.5,8|2,0:0|0:0,0:0:0:0:
260,372,85303,1,8,0:0:0:0:
362,203,85433,2,0,L|357:108,1,87.5,2|8,0:0|0:0,0:0:0:0:
177,335,85694,2,0,L|189:248,1,87.5,2|8,0:0|0:0,0:0:0:0:
409,341,85955,6,0,P|373:347|320:320,1,87.5,12|0,0:0|0:0,0:0:0:0:
243,183,86216,1,2,0:0:0:0:
92,339,86346,6,0,P|161:342|192:323,1,87.5,12|0,0:0|0:0,0:0:0:0:
321,181,86607,5,2,0:0:0:0:
81,204,86737,1,12,0:0:0:0:
215,356,86868,1,0,0:0:0:0:
354,104,86998,6,0,P|300:99|261:119,1,87.5,12|0,0:0|0:0,0:0:0:0:
430,180,87259,1,2,0:0:0:0:
289,1,87389,5,12,0:0:0:0:
207,211,87520,1,2,0:0:0:0:
430,180,87650,1,0,0:0:0:0:
188,72,87781,5,12,0:0:0:0:
327,252,87911,1,2,0:0:0:0:
420,51,88042,6,0,P|342:112|441:106,1,262.5,12|0,0:0|0:0,0:0:0:0:
207,211,88563,6,0,B|218:239|208:266|208:266|214:284|214:284|202:304|211:324|211:324|214:338|207:351,1,140,4|0,0:0|0:0,0:0:0:0:
