osu file format v14

[General]
AudioFilename: audio.mp3
AudioLeadIn: 1500
PreviewTime: 48911
Countdown: 0
SampleSet: Soft
StackLeniency: 0.3
Mode: 0
LetterboxInBreaks: 0
WidescreenStoryboard: 0

[Editor]
DistanceSpacing: 1.3
BeatDivisor: 4
GridSize: 8
TimelineZoom: 1

[Metadata]
Title:DREAMxSCRAMBLE!
TitleUnicode:DREAMxSCRAMBLE!
Artist:AiRI
ArtistUnicode:AiRI
Creator:Plaudible
Version:Counter Extra
Source:競女!!!!!!!!
Tags:keijo!!!!!!!! tv size japanese anime cut ver Hip Whip Girl hobbes2 polkamocha pentori anxient kyuukai yaleufeu
BeatmapID:1229084
BeatmapSetID:570653

[Difficulty]
HPDrainRate:6
CircleSize:4
OverallDifficulty:8.3
ApproachRate:8
SliderMultiplier:1.4
SliderTickRate:1

[Events]
//Background and Video events
0,0,"counter.jpg",0,0
//Break Periods
//Storyboard Layer 0 (Background)
//Storyboard Layer 1 (Fail)
//Storyboard Layer 2 (Pass)
//Storyboard Layer 3 (Foreground)
//Storyboard Sound Samples

[TimingPoints]
390,260.869565217391,4,2,1,75,1,0
390,-80,4,2,1,75,0,0
1433,-133.333333333333,4,2,1,60,0,0
1824,-133.333333333333,4,2,0,60,0,0
2476,-133.333333333333,4,2,1,60,0,0
2868,-133.333333333333,4,2,0,60,0,0
3520,-133.333333333333,4,2,1,60,0,0
3911,-133.333333333333,4,2,0,60,0,0
4563,-80,4,2,1,75,0,0
5607,-133.333333333333,4,2,1,60,0,0
5998,-133.333333333333,4,2,0,60,0,0
6650,-133.333333333333,4,2,1,60,0,0
7042,-133.333333333333,4,2,0,60,0,0
7694,-133.333333333333,4,2,1,60,0,0
8085,-133.333333333333,4,2,0,60,0,0
8737,-80,4,2,1,60,0,0
9781,-80,4,2,1,75,0,0
19433,-100,4,2,1,5,0,0
19694,-80,4,2,0,60,0,0
20216,-100,4,2,1,75,0,0
27781,-66.6666666666667,4,2,0,75,0,0
28042,-100,4,2,0,75,0,0
28563,-80,4,2,1,75,0,0
32216,-50,4,2,1,75,0,0
32737,-80,4,2,1,75,0,0
36650,-100,4,2,1,75,0,0
36846,-100,4,2,1,5,0,0
36911,-100,4,2,1,75,0,0
37889,-100,4,2,1,5,0,0
37955,-100,4,2,1,75,0,0
38933,-100,4,2,1,5,0,0
38998,-100,4,2,1,75,0,0
38999,-100,4,2,1,75,0,0
39976,-100,4,2,1,5,0,0
40042,-80,4,2,1,75,0,0
41085,-100,4,2,1,75,0,0
42063,-100,4,2,1,5,0,0
42129,-100,4,2,1,75,0,0
43107,-100,4,2,1,5,0,0
43172,-100,4,2,1,75,0,0
43173,-100,4,2,1,75,0,0
44150,-100,4,2,1,5,0,0
44216,-80,4,2,1,75,0,0
44607,-83.3333333333333,4,2,1,75,0,0
44998,-80,4,2,1,75,0,0
47085,-66.6666666666667,4,2,1,75,0,0
47346,-80,4,2,1,75,0,0
48911,-100,4,2,0,75,0,0
49433,-80,4,2,1,75,0,1
53868,-100,4,2,1,75,0,1
54129,-66.6666666666667,4,2,1,75,0,1
54911,-100,4,2,1,75,0,1
55172,-66.6666666666667,4,2,1,75,0,1
55694,-80,4,2,1,75,0,1
55955,-100,4,2,1,75,0,1
56216,-66.6666666666667,4,2,1,75,0,1
56607,-80,4,2,1,75,0,1
66129,-80,4,2,1,75,0,0
76042,-100,4,2,0,75,0,0
76498,-100,4,2,1,5,0,0
76563,-133.333333333333,4,2,1,75,0,0
77476,-100,4,2,1,5,0,0
77607,-80,4,2,1,75,0,0
78650,-80,4,2,1,75,0,0
88303,-80,4,2,1,5,0,0
88433,-100,4,2,1,5,0,0
88563,-200,4,2,1,25,0,0

[Colours]
Combo1 : 255,255,128
Combo2 : 255,128,128
Combo3 : 128,128,255
Combo4 : 234,234,234

[HitObjects]
166,93,390,6,0,P|252:116|271:109,1,87.5,8|2,0:0|0:0,0:0:0:0:
310,62,650,2,0,P|271:109|238:119,1,87.5,8|2,0:0|0:0,0:0:0:0:
162,180,911,2,0,L|166:66,1,87.5,8|2,0:0|0:0,0:0:0:0:
79,184,1172,2,0,P|121:195|161:179,1,87.5,8|2,0:0|0:0,0:0:0:0:
226,34,1433,5,8,0:0:0:0:
296,278,1563,1,0,0:0:0:0:
296,278,1824,2,0,L|474:272,1,157.500006008148,2|0,0:2|0:0,0:0:0:0:
313,87,2476,5,8,0:0:0:0:
204,322,2607,1,0,0:0:0:0:
204,322,2868,2,0,L|26:316,1,157.500006008148,2|0,0:2|0:0,0:0:0:0:
221,131,3520,5,8,0:0:0:0:
279,378,3650,1,0,0:0:0:0:
279,378,3911,2,0,L|457:372,1,157.500006008148,2|0,0:2|0:0,0:0:0:0:
436,371,4563,6,0,P|495:339|505:269,1,131.25,12|0,0:0|0:0,0:0:0:0:
344,300,4824,2,0,P|374:356|436:371,1,131.25,12|0,0:0|0:0,0:0:0:0:
416,209,5085,2,0,P|359:238|344:300,1,131.25,12|0,0:0|0:0,0:0:0:0:
507,280,5346,2,0,P|477:223|416:208,1,131.25,12|0,0:0|0:0,0:0:0:0:
273,383,5607,5,8,0:0:0:0:
333,130,5737,1,0,0:0:0:0:
333,130,5998,2,0,L|511:136,1,157.500006008148,2|0,0:2|0:0,0:0:0:0:
350,329,6650,5,8,0:0:0:0:
241,94,6781,1,0,0:0:0:0:
241,94,7042,2,0,L|63:100,1,157.500006008148,2|0,0:2|0:0,0:0:0:0:
262,294,7694,5,8,0:0:0:0:
316,38,7824,1,0,0:0:0:0:
316,38,8085,2,0,L|494:44,1,157.500006008148,2|0,0:2|0:0,0:0:0:0:
272,210,8737,6,0,P|256:148|199:119,1,131.25,12|0,0:0|0:0,0:0:0:0:
180,283,8998,2,0,P|242:266|272:210,1,131.25,12|0,0:0|0:0,0:0:0:0:
107,192,9259,2,0,P|123:254|180:283,1,131.25,12|0,0:0|0:0,0:0:0:0:
199,121,9520,2,0,P|136:135|107:192,1,131.25,12|0,0:0|0:0,0:0:0:0:
272,210,9781,6,0,L|279:35,1,175,6|2,0:0|0:0,0:0:0:0:
383,131,10172,1,8,0:0:0:0:
272,209,10303,2,0,P|229:217|189:200,1,87.5,2|8,0:0|0:0,0:0:0:0:
354,201,10563,2,0,P|311:193|272:210,1,87.5,2|8,0:0|0:0,0:0:0:0:
110,321,10824,6,0,P|114:237|189:200,1,175,2|2,0:0|0:0,0:0:0:0:
354,201,11216,1,8,0:0:0:0:
255,329,11346,2,0,P|180:366|110:321,1,175,0|0,0:0|0:0,0:0:0:0:
39,188,11737,1,8,0:0:0:0:
189,199,11868,6,0,P|259:245|255:329,1,175,2|2,0:0|0:0,0:0:0:0:
107,319,12259,1,8,0:0:0:0:
189,199,12389,2,0,P|247:228|266:261,1,87.5,2|8,0:0|0:0,0:0:0:0:
255,328,12650,2,0,P|268:274|249:228,1,87.5,2|8,0:0|0:0,0:0:0:0:
399,287,12911,6,0,P|317:304|259:244,1,175,2|2,0:0|0:0,0:0:0:0:
347,127,13303,2,0,L|339:232,1,87.5,8|2,0:0|0:0,0:0:0:0:
340,214,13563,2,0,L|324:40,1,175,8|8,0:0|0:0,0:0:0:0:
256,243,13955,6,0,P|184:210|93:270,1,175,6|2,0:0|0:0,0:0:0:0:
174,373,14346,1,8,0:0:0:0:
256,243,14476,2,0,P|270:202|264:159,1,87.5,2|8,0:0|0:0,0:0:0:0:
264,326,14737,2,0,P|249:285|255:242,1,87.5,2|8,0:0|0:0,0:0:0:0:
119,165,14998,6,0,P|193:204|264:159,1,175,2|2,0:0|0:0,0:0:0:0:
337,24,15389,1,8,0:0:0:0:
186,36,15520,2,0,P|116:81|119:165,1,175,2|2,0:0|0:0,0:0:0:0:
195,281,15911,1,8,0:0:0:0:
262,159,16042,6,0,P|259:75|186:36,1,175,4|2,0:0|0:0,0:0:0:0:
118,162,16433,1,8,0:0:0:0:
263,158,16563,2,0,P|272:109|257:69,1,87.5,2|8,0:0|0:0,0:0:0:0:
186,35,16824,2,0,P|232:47|263:79,1,87.5,2|8,0:0|0:0,0:0:0:0:
416,187,17085,6,0,P|350:205|319:196,1,87.5,12|0,0:0|0:0,0:0:0:0:
190,117,17346,1,2,0:0:0:0:
95,325,17476,6,0,P|154:291|169:262,1,87.5,12|0,0:0|0:0,0:0:0:0:
190,117,17737,1,2,0:0:0:0:
281,287,17868,1,12,0:0:0:0:
190,117,17998,1,0,0:0:0:0:
281,287,18129,6,0,L|377:298,1,87.5,14|0,0:0|0:0,0:0:0:0:
471,252,18389,1,2,0:0:0:0:
193,310,18520,2,0,L|383:295,1,175,12|0,0:0|0:0,0:0:0:0:
471,252,18911,1,14,0:0:0:0:
260,196,19042,1,0,0:0:0:0:
494,172,19172,6,0,P|498:111|425:189,1,262.5,14|0,0:0|0:0,0:0:0:0:
494,172,19694,5,2,0:0:0:0:
414,182,19955,1,2,0:0:0:0:
330,199,20216,6,0,L|237:196,1,70,6|0,0:0|0:0,0:0:0:0:
145,138,20476,1,8,0:0:0:0:
51,241,20607,2,0,P|43:207|51:174,1,70
52,307,20868,2,0,P|62:274|51:240,1,70,2|8,0:0|0:0,0:0:0:0:
48,378,21129,6,0,B|51:312|51:312|88:239|21:246|52:174,1,210,0|8,0:0|0:0,0:0:0:0:
151,68,21781,1,0,0:0:0:0:
145,138,21911,1,2,0:0:0:0:
151,68,22042,2,0,L|144:165,1,70,8|0,0:0|0:0,0:0:0:0:
321,183,22303,6,0,P|284:172|235:187,1,70,2|0,0:0|0:0,0:0:0:0:
158,230,22563,1,8,0:0:0:0:
50,173,22694,2,0,L|36:88,1,70,0|0,0:0|0:0,0:0:0:0:
36,241,22955,2,0,L|49:172,1,70,2|8,0:0|0:0,0:0:0:0:
52,309,23216,6,0,B|37:237|37:237|50:171|50:171|38:103,1,210,0|8,0:0|0:0,0:0:0:0:
158,230,23868,1,0,0:0:0:0:
169,160,23998,1,2,0:0:0:0:
158,230,24129,2,0,L|174:132,1,70,8|0,0:0|0:0,0:0:0:0:
257,53,24389,6,0,P|310:52|337:65,1,70,6|0,0:0|0:0,0:0:0:0:
432,165,24650,1,8,0:0:0:0:
286,201,24781,2,0,P|277:167|285:134,1,70
288,268,25042,2,0,P|295:234|286:201,1,70,2|8,0:0|0:0,0:0:0:0:
284,336,25303,6,0,B|271:308|285:275|285:275|321:199|254:206|285:135,1,210,0|8,0:0|0:0,0:0:0:0:
429,301,25955,1,0,0:0:0:0:
359,312,26085,1,2,0:0:0:0:
429,301,26216,2,0,L|331:317,1,70,8|0,0:0|0:0,0:0:0:0:
211,238,26476,5,8,0:0:0:0:
211,238,26542,1,0,0:0:0:0:
211,238,26607,2,0,L|166:232,4,35,2|0|8|0|2,0:0|0:0|0:0|0:0|0:0,0:0:0:0:
363,176,26998,5,8,0:0:0:0:
363,176,27064,1,0,0:0:0:0:
363,176,27129,2,0,L|408:170,4,35,2|0|8|0|2,0:0|0:0|0:0|0:0|0:0,0:0:0:0:
195,101,27520,5,8,0:0:0:0:
195,101,27781,6,2,P|152:134|221:128,1,157.500006008148,2|0,0:0|0:0,0:0:0:0:
208,68,28042,6,2,P|126:104|205:201,1,245,2|0,0:0|0:0,0:0:0:0:
293,154,28563,6,0,L|285:267,1,87.5,6|0,0:0|0:0,0:0:0:0:
204,356,28824,1,8,0:0:0:0:
54,272,28955,2,0,P|106:264|149:282,1,87.5,0|0,0:0|0:0,0:0:0:0:
51,186,29216,2,0,P|42:229|53:271,1,87.5,2|8,0:0|0:0,0:0:0:0:
54,101,29476,6,0,B|71:143|52:185|52:185|30:233|55:271|55:271|94:252|138:274,1,262.5,0|8,0:0|0:0,0:0:0:0:
92,347,29998,1,0,0:0:0:0:
219,184,30129,1,0,0:0:0:0:
232,270,30259,1,2,0:0:0:0:
219,184,30390,2,0,L|236:293,1,87.5,8|0,0:0|0:0,0:0:0:0:
424,219,30650,6,0,P|371:206|331:218,1,87.5,2|0,0:0|0:0,0:0:0:0:
232,270,30911,1,8,0:0:0:0:
114,82,31042,2,0,L|124:168,1,87.5,0|0,0:0|0:0,0:0:0:0:
136,256,31303,2,0,L|125:170,1,87.5,2|8,0:0|0:0,0:0:0:0:
48,239,31563,6,0,B|136:255|136:255|124:170|124:170,1,175
114,82,31955,2,0,L|124:168,1,87.5,12|2,0:0|0:0,0:0:0:0:
163,302,32216,6,0,L|124:168,1,140,12|2,0:0|0:0,0:0:0:0:
84,33,32476,6,0,L|124:168,1,140,12|2,0:0|0:0,0:0:0:0:
163,302,32737,6,0,P|229:312|266:289,1,87.5,6|0,0:0|0:0,0:0:0:0:
348,215,32998,1,8,0:0:0:0:
257,29,33129,2,0,L|268:120,1,87.5,0|0,0:0|0:0,0:0:0:0:
172,23,33389,2,0,P|219:36|280:14,1,87.5,2|8,0:0|0:0,0:0:0:0:
84,33,33650,6,0,B|122:7|175:26|175:26|212:40|256:30|256:30|267:115,1,262.5,0|8,0:0|0:0,0:0:0:0:
204,235,34172,1,0,0:0:0:0:
61,117,34303,1,0,0:0:0:0:
147,103,34433,1,2,0:0:0:0:
61,117,34564,2,0,L|173:99,1,87.5,8|0,0:0|0:0,0:0:0:0:
267,114,34824,6,0,P|321:128|367:110,1,87.5,2|0,0:0|0:0,0:0:0:0:
420,54,35085,1,8,0:0:0:0:
348,205,35216,2,0,P|340:162|356:109,1,87.5,0|0,0:0|0:0,0:0:0:0:
350,289,35476,2,0,P|358:246|342:193,1,87.5,2|8,0:0|0:0,0:0:0:0:
433,291,35737,6,0,B|393:318|351:290|351:290|367:239|347:204,1,175
270,250,36129,5,10,0:0:0:0:
433,291,36259,1,8,0:0:0:0:
270,332,36389,5,2,0:0:0:0:
272,166,36519,1,2,0:0:0:0:
199,287,36650,6,0,L|81:293,1,105,8|0,0:0|0:0,0:0:0:0:
26,369,36911,5,2,0:0:0:0:
15,132,37172,1,2,0:0:0:0:
25,369,37433,2,0,B|-12:215|-12:215|13:132,1,245,4|0,0:0|0:0,0:0:0:0:
91,136,37955,5,2,0:0:0:0:
102,373,38216,1,2,0:0:0:0:
90,136,38477,2,0,B|65:219|65:219|102:373,1,245,4|0,0:0|0:0,0:0:0:0:
181,375,38998,5,2,0:0:0:0:
170,138,39259,1,2,0:0:0:0:
181,374,39520,2,0,B|144:220|144:220|170:138,1,245,4|0,0:0|0:0,0:0:0:0:
149,52,40042,6,0,L|175:159,1,87.5,10|0,0:0|0:0,0:0:0:0:
145,222,40303,1,0,0:0:0:0:
149,52,40433,6,0,B|169:137|169:137|145:221,1,175,0|8,0:0|0:0,0:0:0:0:
232,51,40824,1,2,0:0:0:0:
251,143,40955,1,0,0:0:0:0:
232,51,41085,5,2,0:0:0:0:
250,289,41346,1,2,0:0:0:0:
232,51,41607,2,0,B|251:144|251:144|233:212|233:212|256:313,1,245,4|0,0:0|0:0,0:0:0:0:
329,287,42129,5,2,0:0:0:0:
311,49,42390,1,2,0:0:0:0:
329,287,42651,2,0,B|312:210|312:210|330:142|330:142|311:49,1,245,4|0,0:0|0:0,0:0:0:0:
393,47,43172,5,2,0:0:0:0:
411,285,43433,1,2,0:0:0:0:
393,47,43694,2,0,B|412:140|412:140|394:208|394:208|412:286,1,245,4|0,0:0|0:0,0:0:0:0:
381,368,44216,6,0,L|425:248,1,87.5,10|0,0:0|0:0,0:0:0:0:
394,208,44476,1,0,0:0:0:0:
380,368,44607,6,0,B|411:286|411:286|394:208,1,167.999994873047,0|8,0:0|0:0,0:0:0:0:
267,379,44998,1,2,0:0:0:0:
312,272,45129,1,0,0:0:0:0:
267,379,45259,6,0,L|150:364,1,87.5,6|0,0:0|0:0,0:0:0:0:
102,238,45520,1,8,0:0:0:0:
310,189,45650,2,0,P|323:235|301:285,1,87.5,0|0,0:0|0:0,0:0:0:0:
171,97,45911,1,2,0:0:0:0:
102,238,46042,2,0,L|203:228,1,87.5,8|0,0:0|0:0,0:0:0:0:
14,219,46303,6,0,L|192:229,1,175,2|8,0:0|0:0,0:0:0:0:
318,106,46694,1,0,0:0:0:0:
179,16,46824,2,0,P|165:77|177:107,1,87.5,0|2,0:0|0:0,0:0:0:0:
363,244,47085,2,0,P|356:188|319:252,1,157.500006008148,8|0,0:0|0:0,0:0:0:0:
393,262,47346,6,0,P|409:210|390:160,1,87.5,12|2,0:0|0:0,0:0:0:0:
307,36,47607,1,0,0:0:0:0:
129,228,47737,6,0,P|169:242|212:235,1,87.5,12|2,0:0|0:0,0:0:0:0:
401,178,47998,1,0,0:0:0:0:
241,107,48129,1,12,0:0:0:0:
310,304,48259,1,2,0:0:0:0:
307,36,48389,5,12,0:0:0:0:
307,36,48911,2,0,L|404:26,1,70,0|0,0:0|0:0,0:0:0:0:
161,49,49172,1,2,0:0:0:0:
161,49,49433,6,0,L|152:246,1,175,6|2,0:0|0:0,0:0:0:0:
21,129,49824,1,8,0:0:0:0:
161,49,49955,2,0,P|203:42|244:56,1,87.5,2|8,0:0|0:0,0:0:0:0:
42,32,50216,2,0,P|103:64|170:40,1,131.25,2|0,0:0|0:0,0:0:0:0:
244,56,50476,6,0,L|241:155,1,87.5,2|0,0:0|0:0,0:0:0:0:
337,245,50737,1,2,0:0:0:0:
449,65,50868,6,0,L|446:164,1,87.5,8|2,0:0|0:0,0:0:0:0:
337,245,51129,1,8,0:0:0:0:
157,156,51259,2,0,P|206:139|265:153,1,87.5,2|8,0:0|0:0,0:0:0:0:
76,151,51520,2,0,P|134:171|255:129,1,175,2|2,0:0|0:0,0:0:0:0:
157,35,51911,1,8,0:0:0:0:
59,236,52042,2,0,L|77:145,1,87.5,2|8,0:0|0:0,0:0:0:0:
83,364,52303,2,0,L|51:197,1,131.25,2|0,0:0|0:0,0:0:0:0:
76,151,52563,6,0,P|142:147|179:177,1,87.5,2|8,0:0|0:0,0:0:0:0:
250,246,52824,1,2,0:0:0:0:
378,99,52955,6,0,P|324:112|293:165,1,87.5,8|2,0:0|0:0,0:0:0:0:
250,246,53216,1,8,0:0:0:0:
387,303,53346,2,0,P|403:252|384:203,1,87.5,2|8,0:0|0:0,0:0:0:0:
227,374,53607,6,0,L|249:245,1,131.25,2|0,0:0|0:0,0:0:0:0:
264,141,53868,2,0,L|249:245,1,105,6|0,0:0|0:0,0:0:0:0:
387,301,54129,2,0,P|294:329|248:243,1,210.000008010865,6|2,0:0|0:0,0:0:0:0:
360,149,54520,1,8,0:0:0:0:
248,243,54650,6,0,L|119:221,1,131.25,2|0,0:0|0:0,0:0:0:0:
15,206,54911,2,0,L|119:221,1,105,6|0,0:0|0:0,0:0:0:0:
175,83,55172,2,0,P|203:175|117:221,1,210.000008010865,6|0,0:0|0:0,0:0:0:0:
23,110,55563,1,8,0:0:0:0:
117,221,55694,6,0,L|246:243,1,131.25,2|0,0:0|0:0,0:0:0:0:
350,258,55955,2,0,L|246:243,1,105,6|0,0:0|0:0,0:0:0:0:
190,381,56216,2,0,P|161:288|247:242,1,210.000008010865,6|2,0:0|0:0,0:0:0:0:
357,360,56607,1,8,0:0:0:0:
508,225,56737,6,0,P|465:232|412:203,1,87.5,2|8,0:0|0:0,0:0:0:0:
330,64,56998,1,2,0:0:0:0:
168,216,57129,6,0,P|221:225|275:193,1,87.5,8|6,0:0|0:0,0:0:0:0:
330,64,57389,1,0,0:0:0:0:
202,150,57520,1,14,0:0:0:0:
432,223,57650,1,8,0:0:0:0:
432,223,57716,1,0,0:0:0:0:
432,223,57781,6,0,L|422:31,1,175,6|2,0:0|0:0,0:0:0:0:
281,128,58172,1,8,0:0:0:0:
432,223,58303,2,0,P|475:226|515:199,1,87.5,2|8,0:0|0:0,0:0:0:0:
343,293,58563,2,0,P|398:222|441:225,1,131.25,2|0,0:0|0:0,0:0:0:0:
511,203,58824,6,0,L|500:105,1,87.5,2|8,0:0|0:0,0:0:0:0:
397,27,59085,1,2,0:0:0:0:
271,215,59216,6,0,L|283:111,1,87.5,8|2,0:0|0:0,0:0:0:0:
397,27,59477,1,8,0:0:0:0:
430,179,59607,2,0,P|381:196|322:182,1,87.5,2|8,0:0|0:0,0:0:0:0:
511,203,59868,2,0,P|372:179|345:192,1,175,2|2,0:0|0:0,0:0:0:0:
239,327,60259,1,8,0:0:0:0:
121,209,60389,2,0,L|139:123,1,87.5,2|8,0:0|0:0,0:0:0:0:
145,337,60650,2,0,L|113:170,1,131.25,2|0,0:0|0:0,0:0:0:0:
138,123,60911,6,0,P|204:119|241:149,1,87.5,12|2,0:0|0:0,0:0:0:0:
340,269,61172,1,0,0:0:0:0:
379,124,61303,5,12,0:0:0:0:
239,327,61433,1,2,0:0:0:0:
220,128,61563,1,8,0:0:0:0:
340,269,61694,2,0,P|391:286|458:243,1,131.25,4|0,0:0|0:0,0:0:0:0:
452,165,61955,6,0,P|465:207|454:249,1,87.5,6|0,0:0|0:0,0:0:0:0:
349,358,62216,1,2,0:0:0:0:
246,166,62346,6,0,P|233:207|244:249,1,87.5,8|0,0:0|0:0,0:0:0:0:
349,358,62607,1,10,0:0:0:0:
136,347,62737,2,0,L|230:339,1,87.5,0|8,0:0|0:0,0:0:0:0:
49,321,62998,6,0,L|223:339,1,175,2|2,0:0|0:0,0:0:0:0:
349,358,63389,1,8,0:0:0:0:
246,166,63520,2,0,P|233:207|244:249,1,87.5,0|10,0:0|0:0,0:0:0:0:
248,44,63781,2,0,P|267:118|240:171,1,131.25,0|0,0:0|0:0,0:0:0:0:
243,248,64042,6,0,L|346:255,1,87.5,12|2,0:0|0:0,0:0:0:0:
449,165,64303,1,0,0:0:0:0:
247,44,64433,6,0,P|195:115|261:166,1,175,12|0,0:0|0:0,0:0:0:0:
449,165,64824,5,12,0:0:0:0:
243,248,64955,1,2,0:0:0:0:
356,79,65085,5,10,0:0:0:0:
330,253,65216,2,0,B|310:376|310:376|283:326,1,175,4|0,0:0|0:0,0:0:0:0:
343,166,65607,2,0,L|329:252,1,87.5,12|2,0:0|0:0,0:0:0:0:
356,79,65868,2,0,L|342:165,1,87.5,12|2,0:0|0:0,0:0:0:0:
163,233,66129,6,0,B|176:298|176:298|236:324,1,131.25,6|0,0:0|0:0,0:0:0:0:
253,158,66389,2,0,B|188:171|188:171|162:231,1,131.25,8|0,0:0|0:0,0:0:0:0:
325,250,66650,2,0,B|312:184|312:184|252:158,1,131.25,0|0,0:0|0:0,0:0:0:0:
235,323,66911,2,0,B|300:310|300:310|326:250,1,131.25,8|0,0:0|0:0,0:0:0:0:
162,232,67172,6,0,L|151:350,1,87.5,2|0,0:0|0:0,0:0:0:0:
253,158,67433,1,8,0:0:0:0:
144,57,67563,2,0,L|162:238,1,175,0|2,0:0|0:0,0:0:0:0:
336,159,67955,2,0,P|273:150|237:168,1,87.5,8|0,0:0|0:0,0:0:0:0:
304,324,68216,6,0,P|367:333|403:315,1,87.5,2|0,0:0|0:0,0:0:0:0:
499,241,68476,2,0,L|493:345,1,87.5,8|0,0:0|0:0,0:0:0:0:
304,324,68737,2,0,P|262:312|220:322,1,87.5,0|2,0:0|0:0,0:0:0:0:
499,241,68998,2,0,L|505:137,1,87.5,8|0,0:0|0:0,0:0:0:0:
268,157,69259,6,0,P|310:197|412:148,1,175,2|8,0:0|0:0,0:0:0:0:
259,69,69650,2,0,L|271:190,1,87.5,0|0,0:0|0:0,0:0:0:0:
195,246,69911,1,2,0:0:0:0:
284,319,70042,1,8,0:0:0:0:
267,156,70172,1,0,0:0:0:0:
357,229,70303,6,0,B|344:294|344:294|284:320,1,131.25,6|0,0:0|0:0,0:0:0:0:
267,156,70563,2,0,B|332:169|332:169|358:229,1,131.25,8|0,0:0|0:0,0:0:0:0:
195,246,70824,2,0,B|208:180|208:180|268:154,1,131.25,0|0,0:0|0:0,0:0:0:0:
285,319,71085,2,0,B|220:306|220:306|194:246,1,131.25,8|0,0:0|0:0,0:0:0:0:
357,228,71346,6,0,L|368:346,1,87.5,2|0,0:0|0:0,0:0:0:0:
461,190,71607,1,8,0:0:0:0:
374,53,71737,2,0,L|356:234,1,175,0|2,0:0|0:0,0:0:0:0:
473,276,72129,2,0,L|461:190,1,87.5,8|0,0:0|0:0,0:0:0:0:
278,145,72389,6,0,P|260:210|280:253,1,87.5,2|0,0:0|0:0,0:0:0:0:
363,312,72650,2,0,L|275:309,1,87.5,8|0,0:0|0:0,0:0:0:0:
277,145,72911,2,0,P|295:105|291:62,1,87.5,0|2,0:0|0:0,0:0:0:0:
363,312,73172,2,0,L|450:314,1,87.5,8|0,0:0|0:0,0:0:0:0:
506,139,73433,6,0,L|416:143,1,87.5,2|0,0:0|0:0,0:0:0:0:
277,145,73694,1,8,0:0:0:0:
418,142,73824,1,0,0:0:0:0:
418,142,73889,1,0,0:0:0:0:
418,142,73955,1,8,0:0:0:0:
321,237,74085,1,2,0:0:0:0:
450,65,74216,2,0,P|383:40|329:71,1,131.25,8|0,0:0|0:0,0:0:0:0:
277,145,74476,6,0,L|163:140,1,87.5,12|2,0:0|0:0,0:0:0:0:
60,222,74737,1,0,0:0:0:0:
207,351,74868,2,0,P|232:301|232:261,1,87.5,12|2,0:0|0:0,0:0:0:0:
189,141,75129,1,0,0:0:0:0:
145,291,75259,1,12,0:0:0:0:
133,69,75389,1,2,0:0:0:0:
321,237,75520,5,12,0:0:0:0:
321,237,76042,6,0,P|368:221|285:209,1,245,2|0,0:0|0:0,0:0:0:0:
347,322,76563,6,0,B|263:314|263:314|232:330|221:362|221:362|177:306|189:242|189:242|145:262|88:235,1,367.500014019013,4|0,0:0|0:0,0:0:0:0:
58,170,77607,6,0,P|69:212|102:241,1,87.5,8|2,0:0|0:0,0:0:0:0:
114,327,77868,2,0,P|105:284|101:240,1,87.5,8|2,0:0|0:0,0:0:0:0:
101,99,78129,6,0,P|68:128|58:170,1,87.5,8|2,0:0|0:0,0:0:0:0:
114,326,78389,2,0,L|202:333,1,87.5,8|2,0:0|0:0,0:0:0:0:
220,65,78650,6,0,L|213:240,1,175,6|2,0:0|0:0,0:0:0:0:
107,142,79041,1,8,0:0:0:0:
220,65,79172,2,0,P|265:57|303:74,1,87.5,2|8,0:0|0:0,0:0:0:0:
138,74,79432,2,0,P|183:82|221:65,1,87.5,2|8,0:0|0:0,0:0:0:0:
423,157,79694,6,0,P|399:94|283:85,1,175,2|2,0:0|0:0,0:0:0:0:
137,156,80085,1,8,0:0:0:0:
291,221,80216,2,0,P|375:225|423:157,1,175,2|2,0:0|0:0,0:0:0:0:
414,10,80607,1,8,0:0:0:0:
302,75,80737,2,0,P|255:144|291:221,1,175,2|2,0:0|0:0,0:0:0:0:
407,147,81129,1,8,0:0:0:0:
302,75,81259,2,0,P|261:123|256:165,1,87.5,2|8,0:0|0:0,0:0:0:0:
291,221,81520,2,0,P|262:185|259:136,1,87.5,2|8,0:0|0:0,0:0:0:0:
117,101,81781,6,0,P|199:84|257:144,1,175,2|2,0:0|0:0,0:0:0:0:
157,264,82172,2,0,L|171:166,1,87.5,8|2,0:0|0:0,0:0:0:0:
168,176,82433,2,0,L|184:351,1,175,8|8,0:0|0:0,0:0:0:0:
291,218,82824,6,0,P|345:251|455:199,1,175,6|2,0:0|0:0,0:0:0:0:
390,86,83216,1,8,0:0:0:0:
291,218,83346,2,0,P|278:267|300:321,1,87.5,2|8,0:0|0:0,0:0:0:0:
286,134,83607,2,0,P|299:183|277:237,1,87.5,2|8,0:0|0:0,0:0:0:0:
141,140,83868,6,0,P|214:179|285:134,1,175,2|2,0:0|0:0,0:0:0:0:
362,5,84259,1,8,0:0:0:0:
208,10,84390,2,0,P|137:55|140:138,1,175,2|2,0:0|0:0,0:0:0:0:
219,275,84781,1,8,0:0:0:0:
285,134,84912,6,0,P|282:50|208:11,1,175,6|2,0:0|0:0,0:0:0:0:
140,138,85303,1,8,0:0:0:0:
285,134,85433,2,0,P|293:84|275:41,1,87.5,2|8,0:0|0:0,0:0:0:0:
208,10,85694,2,0,P|256:24|284:57,1,87.5,2|8,0:0|0:0,0:0:0:0:
438,209,85955,6,0,P|384:186|343:196,1,87.5,12|0,0:0|0:0,0:0:0:0:
219,275,86216,1,2,0:0:0:0:
65,101,86346,6,0,P|116:113|143:144,1,87.5,12|0,0:0|0:0,0:0:0:0:
219,275,86607,1,2,0:0:0:0:
274,92,86737,1,12,0:0:0:0:
219,275,86868,1,0,0:0:0:0:
274,92,86998,6,0,L|363:84,1,87.5,12|0,0:0|0:0,0:0:0:0:
472,120,87259,1,2,0:0:0:0:
186,69,87389,2,0,L|376:85,1,175,12|0,0:0|0:0,0:0:0:0:
472,120,87781,1,12,0:0:0:0:
252,179,87911,1,2,0:0:0:0:
497,191,88042,6,0,P|463:280|446:172,1,262.5,12|0,0:0|0:0,0:0:0:0:
472,120,88563,6,0,P|458:64|417:106,1,140,4|0,0:0|0:0,0:0:0:0:
