osu file format v14

[General]
AudioFilename: audio.mp3
AudioLeadIn: 0
PreviewTime: 48473
Countdown: 0
SampleSet: Soft
StackLeniency: 0.7
Mode: 3
LetterboxInBreaks: 0
SpecialStyle: 0
WidescreenStoryboard: 1

[Editor]
DistanceSpacing: 0.5
BeatDivisor: 4
GridSize: 32
TimelineZoom: 1.8

[Metadata]
Title:DREAMxSCRAMBLE!
TitleUnicode:DREAM×SCRAMBLE!
Artist:AiRI
ArtistUnicode:AiRI
Creator:Lyz-
Version:Cry's Normal
Source:Keijo!!!!!!!!
Tags:keijo opening anime tv size chordjack bonus sv xd 230BPM
BeatmapID:2171002
BeatmapSetID:1038568

[Difficulty]
HPDrainRate:7.5
CircleSize:4
OverallDifficulty:7.5
ApproachRate:5
SliderMultiplier:1.4
SliderTickRate:1

[Events]
//Background and Video events
0,0,"BG.png",0,0
//Break Periods
//Storyboard Layer 0 (Background)
//Storyboard Layer 1 (Fail)
//Storyboard Layer 2 (Pass)
//Storyboard Layer 3 (Foreground)
//Storyboard Layer 4 (Overlay)
//Storyboard Sound Samples

[TimingPoints]
82,260.869565217391,4,2,0,30,1,0
49125,-100,4,2,0,30,0,1
74168,-100,4,2,0,30,0,0

[HitObjects]
192,192,82,5,0,0:0:0:0:
192,192,342,1,0,0:0:0:0:
448,192,603,1,0,0:0:0:0:
64,192,864,1,0,0:0:0:0:
192,192,1125,1,0,0:0:0:0:
192,192,1255,1,0,0:0:0:0:
448,192,1516,128,0,1908:0:0:0:0:
64,192,1908,128,0,2168:0:0:0:0:
320,192,2168,1,0,0:0:0:0:
192,192,2299,1,0,0:0:0:0:
64,192,2560,128,0,2951:0:0:0:0:
320,192,2951,128,0,3212:0:0:0:0:
64,192,3212,1,0,0:0:0:0:
448,192,3342,1,0,0:0:0:0:
192,192,3603,128,0,3995:0:0:0:0:
448,192,3995,128,0,4255:0:0:0:0:
64,192,4255,1,0,0:0:0:0:
192,192,4516,1,0,0:0:0:0:
448,192,4777,1,0,0:0:0:0:
320,192,5038,1,0,0:0:0:0:
64,192,5299,1,0,0:0:0:0:
320,192,5429,1,0,0:0:0:0:
320,192,5690,128,0,6081:0:0:0:0:
64,192,6081,128,0,6342:0:0:0:0:
448,192,6342,1,0,0:0:0:0:
320,192,6473,1,0,0:0:0:0:
192,192,6734,128,0,7125:0:0:0:0:
448,192,7125,128,0,7386:0:0:0:0:
192,192,7386,1,0,0:0:0:0:
64,192,7516,1,0,0:0:0:0:
192,192,7777,128,0,8168:0:0:0:0:
64,192,8168,128,0,8429:0:0:0:0:
448,192,8429,128,0,8560:0:0:0:0:
192,192,8690,128,0,8821:0:0:0:0:
320,192,8951,128,0,9081:0:0:0:0:
64,192,9212,128,0,9342:0:0:0:0:
320,192,9473,1,0,0:0:0:0:
448,192,9473,1,0,0:0:0:0:
192,192,9603,1,0,0:0:0:0:
64,192,9603,1,0,0:0:0:0:
64,192,9864,1,0,0:0:0:0:
448,192,9864,1,0,0:0:0:0:
192,192,10125,1,0,0:0:0:0:
448,192,10125,1,0,0:0:0:0:
64,192,10386,1,0,0:0:0:0:
320,192,10386,1,0,0:0:0:0:
192,192,10647,1,0,0:0:0:0:
64,192,10647,1,0,0:0:0:0:
192,192,10908,1,0,0:0:0:0:
448,192,10908,1,0,0:0:0:0:
320,192,11168,1,0,0:0:0:0:
448,192,11168,1,0,0:0:0:0:
64,192,11429,1,0,0:0:0:0:
320,192,11429,1,0,0:0:0:0:
192,192,11690,1,0,0:0:0:0:
448,192,11690,1,0,0:0:0:0:
64,192,11951,1,0,0:0:0:0:
320,192,11951,1,0,0:0:0:0:
192,192,12212,1,0,0:0:0:0:
64,192,12212,1,0,0:0:0:0:
448,192,12473,1,0,0:0:0:0:
320,192,12473,1,0,0:0:0:0:
64,192,12734,1,0,0:0:0:0:
448,192,12734,1,0,0:0:0:0:
192,192,12995,1,0,0:0:0:0:
320,192,12995,1,0,0:0:0:0:
448,192,13255,1,0,0:0:0:0:
320,192,13255,1,0,0:0:0:0:
64,192,13516,1,0,0:0:0:0:
192,192,13516,1,0,0:0:0:0:
320,192,13647,1,0,0:0:0:0:
448,192,13647,1,0,0:0:0:0:
192,192,13777,1,0,0:0:0:0:
64,192,13777,1,0,0:0:0:0:
320,192,14038,1,0,0:0:0:0:
448,192,14038,1,0,0:0:0:0:
64,192,14299,1,0,0:0:0:0:
192,192,14299,1,0,0:0:0:0:
64,192,14560,1,0,0:0:0:0:
448,192,14560,1,0,0:0:0:0:
192,192,14821,1,0,0:0:0:0:
448,192,14821,1,0,0:0:0:0:
320,192,15081,1,0,0:0:0:0:
64,192,15081,1,0,0:0:0:0:
320,192,15342,1,0,0:0:0:0:
448,192,15342,1,0,0:0:0:0:
64,192,15603,1,0,0:0:0:0:
192,192,15603,1,0,0:0:0:0:
448,192,15864,1,0,0:0:0:0:
64,192,15864,1,0,0:0:0:0:
320,192,16125,1,0,0:0:0:0:
448,192,16125,1,0,0:0:0:0:
320,192,16386,1,0,0:0:0:0:
64,192,16386,1,0,0:0:0:0:
192,192,16647,1,0,0:0:0:0:
64,192,16777,128,0,17038:0:0:0:0:
448,192,16777,1,0,0:0:0:0:
192,192,17038,128,0,17168:0:0:0:0:
320,192,17168,128,0,17429:0:0:0:0:
448,192,17429,128,0,17821:0:0:0:0:
64,192,17821,1,0,0:0:0:0:
192,192,18081,1,0,0:0:0:0:
320,192,18342,1,0,0:0:0:0:
64,192,18473,5,0,0:0:0:0:
320,192,18603,1,0,0:0:0:0:
192,192,18734,1,0,0:0:0:0:
448,192,18864,1,0,0:0:0:0:
64,192,18864,128,0,19125:0:0:0:0:
448,192,19386,5,0,0:0:0:0:
448,192,19647,1,0,0:0:0:0:
448,192,19908,1,0,0:0:0:0:
64,192,19908,1,0,0:0:0:0:
192,192,20168,1,0,0:0:0:0:
320,192,20168,1,0,0:0:0:0:
64,192,20429,1,0,0:0:0:0:
448,192,20429,1,0,0:0:0:0:
320,192,20560,1,0,0:0:0:0:
192,192,20690,1,0,0:0:0:0:
64,192,20690,1,0,0:0:0:0:
448,192,20821,1,0,0:0:0:0:
320,192,21081,1,0,0:0:0:0:
64,192,21212,1,0,0:0:0:0:
192,192,21212,1,0,0:0:0:0:
192,192,21473,1,0,0:0:0:0:
320,192,21603,1,0,0:0:0:0:
64,192,21734,1,0,0:0:0:0:
448,192,21734,1,0,0:0:0:0:
192,192,21864,1,0,0:0:0:0:
320,192,21995,1,0,0:0:0:0:
64,192,22255,1,0,0:0:0:0:
192,192,22255,1,0,0:0:0:0:
320,192,22516,1,0,0:0:0:0:
64,192,22647,1,0,0:0:0:0:
192,192,22777,1,0,0:0:0:0:
448,192,22777,1,0,0:0:0:0:
320,192,22908,1,0,0:0:0:0:
192,192,23168,1,0,0:0:0:0:
64,192,23299,1,0,0:0:0:0:
448,192,23299,1,0,0:0:0:0:
64,192,23560,1,0,0:0:0:0:
192,192,23690,1,0,0:0:0:0:
320,192,23821,1,0,0:0:0:0:
448,192,23821,1,0,0:0:0:0:
64,192,24081,1,0,0:0:0:0:
448,192,24081,1,0,0:0:0:0:
64,192,24342,1,0,0:0:0:0:
192,192,24342,1,0,0:0:0:0:
192,192,24603,1,0,0:0:0:0:
320,192,24734,1,0,0:0:0:0:
448,192,24864,1,0,0:0:0:0:
64,192,24864,1,0,0:0:0:0:
192,192,24995,1,0,0:0:0:0:
320,192,25255,1,0,0:0:0:0:
192,192,25386,1,0,0:0:0:0:
64,192,25386,1,0,0:0:0:0:
64,192,25647,1,0,0:0:0:0:
320,192,25777,1,0,0:0:0:0:
192,192,25908,1,0,0:0:0:0:
448,192,25908,1,0,0:0:0:0:
448,192,26168,1,0,0:0:0:0:
64,192,26168,128,0,26429:0:0:0:0:
320,192,26168,1,0,0:0:0:0:
320,192,26429,128,0,26690:0:0:0:0:
64,192,26690,128,0,26951:0:0:0:0:
192,192,26951,128,0,27212:0:0:0:0:
320,192,27212,1,0,0:0:0:0:
448,192,27212,1,0,0:0:0:0:
192,192,27473,128,0,27603:0:0:0:0:
192,192,27734,128,0,28255:0:0:0:0:
64,192,28255,1,0,0:0:0:0:
320,192,28255,1,0,0:0:0:0:
320,192,28516,1,0,0:0:0:0:
448,192,28516,1,0,0:0:0:0:
64,192,28777,1,0,0:0:0:0:
320,192,28908,1,0,0:0:0:0:
192,192,29038,1,0,0:0:0:0:
64,192,29038,1,0,0:0:0:0:
320,192,29168,1,0,0:0:0:0:
192,192,29429,1,0,0:0:0:0:
320,192,29560,1,0,0:0:0:0:
448,192,29560,1,0,0:0:0:0:
64,192,29821,1,0,0:0:0:0:
192,192,29951,1,0,0:0:0:0:
448,192,30081,1,0,0:0:0:0:
64,192,30081,1,0,0:0:0:0:
320,192,30342,1,0,0:0:0:0:
192,192,30603,1,0,0:0:0:0:
448,192,30603,1,0,0:0:0:0:
320,192,30864,1,0,0:0:0:0:
192,192,30995,1,0,0:0:0:0:
448,192,31125,1,0,0:0:0:0:
64,192,31125,1,0,0:0:0:0:
320,192,31255,1,0,0:0:0:0:
64,192,31516,1,0,0:0:0:0:
192,192,31647,1,0,0:0:0:0:
448,192,31647,1,0,0:0:0:0:
192,192,31908,1,0,0:0:0:0:
448,192,31908,1,0,0:0:0:0:
64,192,32168,1,0,0:0:0:0:
320,192,32168,1,0,0:0:0:0:
64,192,32429,1,0,0:0:0:0:
448,192,32429,1,0,0:0:0:0:
192,192,32690,1,0,0:0:0:0:
320,192,32690,1,0,0:0:0:0:
64,192,32951,1,0,0:0:0:0:
192,192,33081,1,0,0:0:0:0:
320,192,33212,1,0,0:0:0:0:
448,192,33212,1,0,0:0:0:0:
64,192,33342,1,0,0:0:0:0:
320,192,33603,1,0,0:0:0:0:
192,192,33734,1,0,0:0:0:0:
448,192,33734,1,0,0:0:0:0:
320,192,33995,1,0,0:0:0:0:
192,192,34125,1,0,0:0:0:0:
64,192,34255,1,0,0:0:0:0:
448,192,34255,1,0,0:0:0:0:
320,192,34516,1,0,0:0:0:0:
64,192,34777,1,0,0:0:0:0:
448,192,34777,1,0,0:0:0:0:
192,192,35038,1,0,0:0:0:0:
320,192,35168,1,0,0:0:0:0:
64,192,35299,1,0,0:0:0:0:
192,192,35299,1,0,0:0:0:0:
448,192,35429,1,0,0:0:0:0:
192,192,35690,1,0,0:0:0:0:
448,192,35821,1,0,0:0:0:0:
64,192,35821,1,0,0:0:0:0:
320,192,35951,1,0,0:0:0:0:
192,192,35951,1,0,0:0:0:0:
64,192,36081,1,0,0:0:0:0:
448,192,36212,1,0,0:0:0:0:
320,192,36342,1,0,0:0:0:0:
192,192,36342,1,0,0:0:0:0:
64,192,36603,1,0,0:0:0:0:
448,192,36603,1,0,0:0:0:0:
64,192,36864,1,0,0:0:0:0:
448,192,36864,1,0,0:0:0:0:
192,192,37125,128,0,37647:0:0:0:0:
320,192,37125,1,0,0:0:0:0:
448,192,37647,1,0,0:0:0:0:
64,192,37908,1,0,0:0:0:0:
320,192,37908,1,0,0:0:0:0:
64,192,38168,128,0,38690:0:0:0:0:
448,192,38168,1,0,0:0:0:0:
320,192,38690,1,0,0:0:0:0:
64,192,38951,1,0,0:0:0:0:
448,192,38951,1,0,0:0:0:0:
192,192,39212,1,0,0:0:0:0:
320,192,39212,128,0,39734:0:0:0:0:
64,192,39734,1,0,0:0:0:0:
192,192,39995,1,0,0:0:0:0:
64,192,40125,1,0,0:0:0:0:
448,192,40125,1,0,0:0:0:0:
320,192,40386,1,0,0:0:0:0:
192,192,40516,1,0,0:0:0:0:
64,192,40647,1,0,0:0:0:0:
448,192,40777,128,0,41038:0:0:0:0:
320,192,41038,128,0,41299:0:0:0:0:
64,192,41299,128,0,41821:0:0:0:0:
192,192,41299,1,0,0:0:0:0:
320,192,41821,128,0,42081:0:0:0:0:
192,192,42081,128,0,42342:0:0:0:0:
448,192,42342,128,0,42864:0:0:0:0:
64,192,42342,1,0,0:0:0:0:
64,192,42864,128,0,43125:0:0:0:0:
192,192,43125,128,0,43386:0:0:0:0:
320,192,43386,128,0,43908:0:0:0:0:
448,192,43386,1,0,0:0:0:0:
64,192,43908,1,0,0:0:0:0:
192,192,44299,1,0,0:0:0:0:
448,192,44299,1,0,0:0:0:0:
320,192,44690,1,0,0:0:0:0:
64,192,44951,1,0,0:0:0:0:
448,192,44951,1,0,0:0:0:0:
192,192,45212,1,0,0:0:0:0:
320,192,45212,1,0,0:0:0:0:
448,192,45473,1,0,0:0:0:0:
64,192,45734,1,0,0:0:0:0:
448,192,45734,1,0,0:0:0:0:
192,192,45995,1,0,0:0:0:0:
192,192,46255,1,0,0:0:0:0:
320,192,46255,1,0,0:0:0:0:
64,192,46516,128,0,46777:0:0:0:0:
448,192,46777,1,0,0:0:0:0:
192,192,47038,1,0,0:0:0:0:
320,192,47038,1,0,0:0:0:0:
64,192,47429,1,0,0:0:0:0:
448,192,47429,1,0,0:0:0:0:
192,192,47821,1,0,0:0:0:0:
320,192,47821,1,0,0:0:0:0:
64,192,48081,5,0,0:0:0:0:
448,192,48081,128,0,48603:0:0:0:0:
64,192,49125,5,0,0:0:0:0:
192,192,49125,1,0,0:0:0:0:
320,192,49255,1,0,0:0:0:0:
448,192,49255,1,0,0:0:0:0:
64,192,49516,1,0,0:0:0:0:
320,192,49516,1,0,0:0:0:0:
192,192,49777,1,0,0:0:0:0:
448,192,49777,1,0,0:0:0:0:
64,192,50038,1,0,0:0:0:0:
192,192,50038,1,0,0:0:0:0:
320,192,50299,1,0,0:0:0:0:
448,192,50299,1,0,0:0:0:0:
192,192,50560,1,0,0:0:0:0:
448,192,50560,1,0,0:0:0:0:
64,192,50821,1,0,0:0:0:0:
320,192,50821,1,0,0:0:0:0:
192,192,51081,1,0,0:0:0:0:
64,192,51081,1,0,0:0:0:0:
320,192,51342,1,0,0:0:0:0:
448,192,51342,1,0,0:0:0:0:
64,192,51603,1,0,0:0:0:0:
320,192,51603,1,0,0:0:0:0:
64,192,51864,1,0,0:0:0:0:
448,192,51864,1,0,0:0:0:0:
192,192,52125,1,0,0:0:0:0:
320,192,52125,1,0,0:0:0:0:
64,192,52386,1,0,0:0:0:0:
192,192,52386,1,0,0:0:0:0:
320,192,52647,1,0,0:0:0:0:
448,192,52647,1,0,0:0:0:0:
64,192,52908,1,0,0:0:0:0:
448,192,52908,1,0,0:0:0:0:
192,192,53168,1,0,0:0:0:0:
320,192,53168,1,0,0:0:0:0:
64,192,53299,1,0,0:0:0:0:
320,192,53429,1,0,0:0:0:0:
448,192,53429,1,0,0:0:0:0:
64,192,53690,1,0,0:0:0:0:
448,192,53690,1,0,0:0:0:0:
64,192,53951,1,0,0:0:0:0:
192,192,53951,1,0,0:0:0:0:
192,192,54212,1,0,0:0:0:0:
448,192,54212,1,0,0:0:0:0:
320,192,54473,1,0,0:0:0:0:
448,192,54473,1,0,0:0:0:0:
64,192,54734,1,0,0:0:0:0:
192,192,54734,1,0,0:0:0:0:
64,192,54995,1,0,0:0:0:0:
320,192,54995,1,0,0:0:0:0:
192,192,55255,1,0,0:0:0:0:
448,192,55255,1,0,0:0:0:0:
64,192,55516,1,0,0:0:0:0:
192,192,55516,1,0,0:0:0:0:
320,192,55777,1,0,0:0:0:0:
448,192,55777,1,0,0:0:0:0:
192,192,56038,1,0,0:0:0:0:
64,192,56038,1,0,0:0:0:0:
448,192,56429,128,0,56690:0:0:0:0:
320,192,56690,1,0,0:0:0:0:
64,192,56821,128,0,57081:0:0:0:0:
192,192,57081,1,0,0:0:0:0:
320,192,57212,1,0,0:0:0:0:
448,192,57342,1,0,0:0:0:0:
64,192,57473,1,0,0:0:0:0:
192,192,57473,1,0,0:0:0:0:
320,192,57603,1,0,0:0:0:0:
448,192,57603,1,0,0:0:0:0:
192,192,57864,1,0,0:0:0:0:
64,192,57864,1,0,0:0:0:0:
64,192,58125,1,0,0:0:0:0:
448,192,58125,1,0,0:0:0:0:
320,192,58386,1,0,0:0:0:0:
448,192,58386,1,0,0:0:0:0:
64,192,58647,1,0,0:0:0:0:
320,192,58647,1,0,0:0:0:0:
192,192,58908,1,0,0:0:0:0:
64,192,58908,1,0,0:0:0:0:
192,192,59168,1,0,0:0:0:0:
448,192,59168,1,0,0:0:0:0:
320,192,59429,1,0,0:0:0:0:
64,192,59429,1,0,0:0:0:0:
320,192,59690,1,0,0:0:0:0:
448,192,59690,1,0,0:0:0:0:
64,192,59951,1,0,0:0:0:0:
192,192,59951,1,0,0:0:0:0:
192,192,60212,1,0,0:0:0:0:
448,192,60212,1,0,0:0:0:0:
320,192,60473,1,0,0:0:0:0:
64,192,60473,1,0,0:0:0:0:
64,192,60734,1,0,0:0:0:0:
192,192,60734,1,0,0:0:0:0:
320,192,60995,1,0,0:0:0:0:
448,192,60995,1,0,0:0:0:0:
64,192,61255,1,0,0:0:0:0:
192,192,61255,1,0,0:0:0:0:
64,192,61516,1,0,0:0:0:0:
192,192,61647,1,0,0:0:0:0:
448,192,61777,1,0,0:0:0:0:
320,192,61777,1,0,0:0:0:0:
320,192,62038,1,0,0:0:0:0:
448,192,62038,1,0,0:0:0:0:
64,192,62299,1,0,0:0:0:0:
192,192,62299,1,0,0:0:0:0:
192,192,62560,1,0,0:0:0:0:
64,192,62560,1,0,0:0:0:0:
320,192,62821,1,0,0:0:0:0:
448,192,62821,1,0,0:0:0:0:
64,192,63081,1,0,0:0:0:0:
448,192,63081,1,0,0:0:0:0:
192,192,63342,1,0,0:0:0:0:
64,192,63342,1,0,0:0:0:0:
320,192,63473,1,0,0:0:0:0:
448,192,63734,128,0,64125:0:0:0:0:
64,192,64125,128,0,64516:0:0:0:0:
192,192,64516,128,0,64908:0:0:0:0:
448,192,64908,128,0,65168:0:0:0:0:
320,192,65168,1,0,0:0:0:0:
64,192,65560,128,0,65821:0:0:0:0:
192,192,65821,1,0,0:0:0:0:
320,192,66081,1,0,0:0:0:0:
448,192,66081,1,0,0:0:0:0:
64,192,66342,1,0,0:0:0:0:
192,192,66603,1,0,0:0:0:0:
320,192,66603,1,0,0:0:0:0:
448,192,66864,1,0,0:0:0:0:
192,192,67125,1,0,0:0:0:0:
64,192,67125,1,0,0:0:0:0:
320,192,67386,1,0,0:0:0:0:
64,192,67647,1,0,0:0:0:0:
448,192,67647,1,0,0:0:0:0:
320,192,67908,1,0,0:0:0:0:
192,192,68168,1,0,0:0:0:0:
320,192,68168,1,0,0:0:0:0:
64,192,68429,1,0,0:0:0:0:
64,192,68690,1,0,0:0:0:0:
448,192,68690,1,0,0:0:0:0:
192,192,68951,1,0,0:0:0:0:
192,192,69212,1,0,0:0:0:0:
448,192,69212,1,0,0:0:0:0:
320,192,69473,1,0,0:0:0:0:
64,192,69734,1,0,0:0:0:0:
192,192,69734,1,0,0:0:0:0:
320,192,69995,1,0,0:0:0:0:
448,192,69995,1,0,0:0:0:0:
320,192,70255,1,0,0:0:0:0:
448,192,70255,1,0,0:0:0:0:
64,192,70516,1,0,0:0:0:0:
192,192,70777,1,0,0:0:0:0:
448,192,70777,1,0,0:0:0:0:
192,192,71038,1,0,0:0:0:0:
64,192,71299,1,0,0:0:0:0:
320,192,71299,1,0,0:0:0:0:
448,192,71560,1,0,0:0:0:0:
320,192,71821,1,0,0:0:0:0:
192,192,71821,1,0,0:0:0:0:
192,192,72081,1,0,0:0:0:0:
64,192,72342,1,0,0:0:0:0:
448,192,72342,1,0,0:0:0:0:
448,192,72603,1,0,0:0:0:0:
192,192,72864,1,0,0:0:0:0:
320,192,72864,1,0,0:0:0:0:
192,192,73125,1,0,0:0:0:0:
64,192,73386,128,0,73647:0:0:0:0:
448,192,73386,1,0,0:0:0:0:
320,192,73647,128,0,73908:0:0:0:0:
192,192,73908,128,0,74168:0:0:0:0:
448,192,74168,1,0,0:0:0:0:
320,192,74560,1,0,0:0:0:0:
192,192,74951,1,0,0:0:0:0:
64,192,75212,1,0,0:0:0:0:
448,192,75212,1,0,0:0:0:0:
192,192,75734,128,0,76255:0:0:0:0:
448,192,76255,128,0,77299:0:0:0:0:
64,192,76255,1,0,0:0:0:0:
192,192,77299,1,0,0:0:0:0:
192,192,77560,1,0,0:0:0:0:
64,192,77821,1,0,0:0:0:0:
64,192,78081,1,0,0:0:0:0:
448,192,78342,1,0,0:0:0:0:
192,192,78473,1,0,0:0:0:0:
320,192,78473,1,0,0:0:0:0:
64,192,78734,1,0,0:0:0:0:
448,192,78734,1,0,0:0:0:0:
192,192,78995,1,0,0:0:0:0:
64,192,78995,1,0,0:0:0:0:
320,192,79255,1,0,0:0:0:0:
448,192,79255,1,0,0:0:0:0:
64,192,79516,1,0,0:0:0:0:
320,192,79516,1,0,0:0:0:0:
192,192,79777,1,0,0:0:0:0:
448,192,79777,1,0,0:0:0:0:
320,192,80038,1,0,0:0:0:0:
64,192,80038,1,0,0:0:0:0:
192,192,80299,1,0,0:0:0:0:
64,192,80299,1,0,0:0:0:0:
192,192,80560,1,0,0:0:0:0:
320,192,80560,1,0,0:0:0:0:
320,192,80821,1,0,0:0:0:0:
448,192,80821,1,0,0:0:0:0:
64,192,81081,1,0,0:0:0:0:
448,192,81081,1,0,0:0:0:0:
320,192,81342,1,0,0:0:0:0:
64,192,81342,1,0,0:0:0:0:
192,192,81603,1,0,0:0:0:0:
448,192,81603,1,0,0:0:0:0:
320,192,81864,1,0,0:0:0:0:
448,192,81864,1,0,0:0:0:0:
64,192,82125,128,0,82516:0:0:0:0:
448,192,82516,1,0,0:0:0:0:
320,192,82647,1,0,0:0:0:0:
192,192,82647,1,0,0:0:0:0:
64,192,82908,1,0,0:0:0:0:
448,192,82908,1,0,0:0:0:0:
192,192,83168,1,0,0:0:0:0:
64,192,83168,1,0,0:0:0:0:
320,192,83429,1,0,0:0:0:0:
448,192,83429,1,0,0:0:0:0:
64,192,83690,1,0,0:0:0:0:
320,192,83690,1,0,0:0:0:0:
192,192,83951,1,0,0:0:0:0:
448,192,83951,1,0,0:0:0:0:
320,192,84212,1,0,0:0:0:0:
64,192,84212,1,0,0:0:0:0:
192,192,84473,1,0,0:0:0:0:
64,192,84603,1,0,0:0:0:0:
320,192,84734,1,0,0:0:0:0:
448,192,84734,1,0,0:0:0:0:
192,192,84995,1,0,0:0:0:0:
448,192,84995,1,0,0:0:0:0:
320,192,85255,1,0,0:0:0:0:
64,192,85255,1,0,0:0:0:0:
448,192,85647,128,0,85908:0:0:0:0:
320,192,85908,1,0,0:0:0:0:
192,192,86038,1,0,0:0:0:0:
64,192,86299,128,0,86690:0:0:0:0:
192,192,86690,1,0,0:0:0:0:
320,192,86951,1,0,0:0:0:0:
192,192,87212,1,0,0:0:0:0:
448,192,87473,1,0,0:0:0:0:
320,192,87734,1,0,0:0:0:0:
64,192,87734,1,0,0:0:0:0:
192,192,88255,128,0,88777:0:0:0:0:
