osu file format v14

[General]
AudioFilename: audio.mp3
AudioLeadIn: 0
PreviewTime: 48899
Countdown: 0
SampleSet: Soft
StackLeniency: 0.3
Mode: 0
LetterboxInBreaks: 0
WidescreenStoryboard: 0

[Editor]
Bookmarks: 9769,20204,36899,45247,49421,66117,76551,88551
DistanceSpacing: 1.5
BeatDivisor: 4
GridSize: 4
TimelineZoom: 1.7

[Metadata]
Title:DREAMxSCRAMBLE! [TV Size]
TitleUnicode:DREAM×SCRAMBLE! [TV Size]
Artist:AiRI
ArtistUnicode:AiRI
Creator:Atheneon
Version:Insane
Source:競女!!!!!!!!
Tags:Keijo!!!!!!!! Anime Opening TV Size Atsuro AiRI Japanese
BeatmapID:1108160
BeatmapSetID:519017

[Difficulty]
HPDrainRate:7
CircleSize:4
OverallDifficulty:7
ApproachRate:9
SliderMultiplier:1.4
SliderTickRate:1

[Events]
//Background and Video events
Video,-150,"op.avi"
0,0,"bg.jpg",0,0
//Break Periods
//Storyboard Layer 0 (Background)
//Storyboard Layer 1 (Fail)
//Storyboard Layer 2 (Pass)
//Storyboard Layer 3 (Foreground)
//Storyboard Sound Samples

[TimingPoints]
378,260.869565217391,4,2,1,60,1,0
378,-111.111111111111,4,2,1,60,0,0
4747,-100,4,2,1,15,0,0
4812,-100,4,2,1,60,0,0
5008,-100,4,2,1,15,0,0
5073,-100,4,2,1,60,0,0
5269,-100,4,2,1,15,0,0
5334,-100,4,2,1,60,0,0
5530,-100,4,2,1,15,0,0
5595,-100,4,2,1,60,0,0
19682,-100,4,2,1,60,0,0
20204,-100,4,2,1,60,0,0
49421,-100,4,2,1,60,0,1
66117,-100,4,2,1,60,0,0
76030,-100,4,2,1,60,0,0
76551,-100,4,2,1,60,0,0

[Colours]
Combo1 : 245,92,136
Combo2 : 13,214,234
Combo3 : 253,252,1
Combo4 : 18,53,173

[HitObjects]
136,120,378,6,0,P|128:168|144:208,1,62.9999980773926,8|2,0:0|0:3,0:0:0:0:
244,244,638,2,0,P|252:196|236:156,1,62.9999980773926,8|2,0:0|0:3,0:0:0:0:
96,260,899,2,0,P|144:268|184:252,1,62.9999980773926,8|2,0:0|0:3,0:0:0:0:
284,104,1160,2,0,P|236:96|196:112,1,62.9999980773926,8|2,0:0|0:3,0:0:0:0:
136,192,1421,5,8,0:0:0:0:
136,192,1551,1,2,0:3:0:0:
244,244,1812,2,0,B|244:192|244:192|296:208|348:200|384:140,1,188.999994232178,2|0,0:0|0:0,0:0:0:0:
288,92,2464,5,8,0:0:0:0:
288,92,2594,1,2,0:3:0:0:
160,32,2855,2,0,B|160:84|160:84|108:68|56:76|20:136,1,188.999994232178,2|0,0:0|0:0,0:0:0:0:
120,204,3508,5,8,0:0:0:0:
120,204,3638,1,2,0:3:0:0:
216,136,3899,2,0,B|216:188|216:188|268:172|320:180|356:240,1,188.999994232178,2|0,0:0|0:0,0:0:0:0:
260,284,4551,5,6,0:0:0:0:
292,104,4812,5,6,0:0:0:0:
144,264,5073,5,6,0:0:0:0:
176,84,5334,5,6,0:0:0:0:
20,244,5595,5,8,0:0:0:0:
20,244,5725,1,2,0:3:0:0:
116,168,5986,2,0,B|184:200|220:148|304:176,1,188.999994232178,2|0,0:0|0:0,0:0:0:0:
440,144,6638,5,8,0:0:0:0:
440,144,6768,1,2,0:3:0:0:
344,68,7029,2,0,B|276:100|240:48|156:76,1,188.999994232178,2|0,0:0|0:0,0:0:0:0:
44,120,7682,5,8,0:0:0:0:
44,120,7812,1,2,0:3:0:0:
140,196,8073,2,0,B|208:164|244:216|328:188,1,188.999994232178,2|0,0:0|0:0,0:0:0:0:
420,220,8725,6,0,L|436:192,2,31.4999990386963,8|8|2,0:0|0:3|0:3,0:0:0:0:
336,280,8986,2,0,L|316:312,2,31.4999990386963,8|8|2,0:0|0:3|0:3,0:0:0:0:
312,160,9247,2,0,L|328:132,2,31.4999990386963,8|8|2,0:0|0:3|0:3,0:0:0:0:
228,220,9508,2,0,L|208:252,2,31.4999990386963,8|8|2,0:0|0:3|0:3,0:0:0:0:
216,100,9769,6,0,P|172:112|124:176,1,125.999996154785,4|2,0:0|0:3,0:0:0:0:
124,276,10160,1,8,0:0:0:0:
212,328,10291,2,0,P|256:332|296:320,1,62.9999980773926,2|8,0:3|0:0,0:0:0:0:
332,188,10551,2,0,P|288:184|248:196,1,62.9999980773926,2|8,0:3|0:0,0:0:0:0:
416,228,10812,6,0,P|424:192|412:152,1,62.9999980773926,2|8,0:3|0:0,0:0:0:0:
376,88,11073,1,2,0:3:0:0:
288,68,11204,1,8,0:0:0:0:
204,100,11334,2,0,P|192:132|200:172,1,62.9999980773926,2|8,0:3|0:0,0:0:0:0:
216,244,11595,1,2,0:3:0:0:
292,288,11725,1,8,0:0:0:0:
380,292,11856,6,0,B|400:236|360:212|388:156,1,125.999996154785,4|2,0:0|0:3,0:0:0:0:
480,200,12247,1,8,0:0:0:0:
456,108,12377,2,0,P|436:83|408:69,1,62.9999980773926,2|8,0:3|0:0,0:0:0:0:
255,119,12638,2,0,P|274:143|302:157,1,62.9999980773926,2|8,0:3|0:0,0:0:0:0:
300,36,12899,6,0,P|260:24|232:32,1,62.9999980773926,2|8,0:3|0:0,0:0:0:0:
168,76,13160,1,2,0:3:0:0:
152,164,13291,2,0,P|168:192|216:220,1,62.9999980773926,8|2,0:0|0:3,0:0:0:0:
302,157,13551,2,0,P|326:185|334:217,1,62.9999980773926,8|2,0:0|0:3,0:0:0:0:
312,300,13812,1,8,0:0:0:0:
228,336,13943,6,0,B|168:312|152:352|92:328,1,125.999996154785,4|2,0:0|0:3,0:0:0:0:
124,240,14334,1,8,0:0:0:0:
36,268,14464,2,0,P|32:216|56:188,1,62.9999980773926,2|8,0:3|0:0,0:0:0:0:
208,208,14725,2,0,P|212:260|188:288,1,62.9999980773926,2|8,0:3|0:0,0:0:0:0:
148,144,14986,6,0,P|192:124|216:124,1,62.9999980773926,2|8,0:3|0:0,0:0:0:0:
292,164,15247,1,2,0:3:0:0:
324,76,15377,1,8,0:0:0:0:
404,128,15508,2,0,P|416:184|404:208,1,62.9999980773926,2|8,0:3|0:0,0:0:0:0:
356,264,15769,1,2,0:3:0:0:
324,176,15899,1,8,0:0:0:0:
248,236,16030,6,0,B|184:208|176:256|116:228,1,125.999996154785,4|2,0:0|0:3,0:0:0:0:
152,140,16421,1,8,0:0:0:0:
60,168,16551,2,0,P|36:208|40:232,1,62.9999980773926,2|8,0:3|0:0,0:0:0:0:
225,290,16812,2,0,P|245:266|247:235,1,62.9999980773926,2|8,0:3|0:0,0:0:0:0:
152,140,17073,6,0,L|224:140,1,62.9999980773926,12|0,0:0|0:0,0:0:0:0:
308,140,17334,1,2,0:3:0:0:
260,60,17464,2,0,P|304:40|336:52,1,62.9999980773926,12|0,0:0|0:0,0:0:0:0:
360,216,17725,2,0,P|316:236|284:224,1,62.9999980773926,2|12,0:3|0:0,0:0:0:0:
216,196,17986,1,0,0:0:0:0:
220,292,18117,6,0,P|176:284|160:268,1,62.9999980773926,12|0,0:0|0:0,0:0:0:0:
116,192,18377,1,2,0:3:0:0:
56,328,18508,2,0,L|88:260,1,62.9999980773926,12|2,0:0|0:3,0:0:0:0:
148,120,18769,1,2,0:3:0:0:
28,48,18899,2,0,L|88:84,1,62.9999980773926,6|2,0:3|0:3,0:0:0:0:
224,164,19160,1,12,0:0:0:0:
416,72,19682,5,2,0:0:0:0:
396,92,19943,5,0,0:0:0:0:
376,112,20204,6,0,B|312:92|312:136|240:116,1,140,4|8,0:0|0:0,0:0:0:0:
272,16,20595,2,0,P|220:12|196:20,1,70,2|0,0:3|0:0,0:0:0:0:
200,216,20856,2,0,P|252:220|276:212,1,70,2|8,0:3|0:0,0:0:0:0:
120,148,21117,2,0,P|96:196|112:280,1,140,2|2,0:3|0:3,0:0:0:0:
204,332,21508,1,8,0:0:0:0:
396,248,21769,5,2,0:3:0:0:
396,248,21899,1,2,0:3:0:0:
360,148,22030,1,8,0:0:0:0:
284,216,22160,1,0,0:0:0:0:
252,116,22291,6,0,P|216:132|192:164,1,70,2|0,0:3|0:0,0:0:0:0:
196,260,22551,1,8,0:0:0:0:
96,232,22682,2,0,P|88:268|100:304,1,70,2|0,0:3|0:0,0:0:0:0:
292,292,22943,2,0,P|300:256|288:220,1,70,2|8,0:3|0:0,0:0:0:0:
224,360,23204,2,0,P|280:380|368:360,1,140,2|2,0:3|0:3,0:0:0:0:
408,276,23595,1,8,0:0:0:0:
336,80,23856,5,2,0:3:0:0:
336,80,23986,1,2,0:3:0:0:
308,184,24117,1,8,0:0:0:0:
404,144,24247,1,0,0:0:0:0:
244,112,24377,6,0,P|220:144|212:172,1,70,4|0,0:0|0:0,0:0:0:0:
268,264,24638,1,8,0:0:0:0:
164,260,24769,2,0,P|128:228|120:196,1,70,2|0,0:3|0:0,0:0:0:0:
201,60,25030,2,0,P|237:92|245:124,1,70,2|8,0:3|0:0,0:0:0:0:
56,152,25291,2,0,B|32:84|84:84|60:12,1,140,2|2,0:3|0:3,0:0:0:0:
132,116,25682,1,8,0:0:0:0:
128,328,25943,5,2,0:3:0:0:
128,328,26073,1,2,0:3:0:0:
84,232,26204,1,8,0:0:0:0:
188,248,26334,1,2,0:3:0:0:
144,148,26464,6,0,L|128:108,2,35,8|4|2,0:0|0:3|0:3,0:0:0:0:
276,240,26725,2,0,L|292:280,2,35,8|4|2,0:0|0:3|0:3,0:0:0:0:
284,96,26986,2,0,L|268:56,2,35,8|4|2,0:0|0:3|0:3,0:0:0:0:
416,188,27247,2,0,L|432:228,2,35,8|4|2,0:0|0:3|0:3,0:0:0:0:
416,48,27508,1,8,0:0:0:0:
264,192,27769,5,2,0:2:0:0:
196,96,28030,2,0,P|152:140|148:220,1,140,2|0,0:2|0:1,0:0:0:0:
340,296,28551,6,0,B|280:268|264:320|196:288,1,140,4|8,0:0|0:0,0:0:0:0:
146,214,28943,2,0,P|182:198|222:198,1,70,2|0,0:3|0:0,0:0:0:0:
104,296,29204,2,0,P|68:264|56:232,1,70,2|8,0:3|0:0,0:0:0:0:
192,108,29464,2,0,P|244:116|304:204,1,140,2|2,0:3|0:3,0:0:0:0:
323,291,29856,1,8,0:0:0:0:
396,92,30117,5,2,0:3:0:0:
396,92,30247,1,2,0:3:0:0:
468,168,30377,1,8,0:0:0:0:
368,196,30508,1,0,0:0:0:0:
448,264,30638,6,0,P|424:288|368:296,1,70,2|0,0:3|0:0,0:0:0:0:
296,248,30899,1,8,0:0:0:0:
296,352,31030,2,0,P|252:344|228:320,1,70,2|0,0:3|0:0,0:0:0:0:
296,148,31291,2,0,P|340:156|364:180,1,70,2|8,0:3|0:0,0:0:0:0:
176,272,31551,2,0,P|144:228|132:140,1,140,2|2,0:3|0:3,0:0:0:0:
152,52,31943,5,12,0:0:0:0:
232,152,32073,1,2,0:3:0:0:
292,68,32204,1,12,0:0:0:0:
284,228,32334,1,2,0:3:0:0:
376,168,32464,2,0,P|396:216|392:240,1,70,8|0,0:0|0:0,0:0:0:0:
184,304,32725,6,0,P|164:264|180:164,1,140,4|8,0:0|0:0,0:0:0:0:
260,120,33117,2,0,P|276:160|268:192,1,70,2|0,0:3|0:0,0:0:0:0:
84,212,33377,2,0,P|68:172|76:140,1,70,2|8,0:3|0:0,0:0:0:0:
248,40,33638,2,0,B|312:20|320:72|396:36,1,140,2|2,0:3|0:3,0:0:0:0:
468,24,34030,1,8,0:0:0:0:
404,224,34291,5,2,0:3:0:0:
404,224,34421,1,2,0:3:0:0:
452,132,34551,1,8,0:0:0:0:
504,224,34682,1,0,0:0:0:0:
368,144,34812,6,0,P|332:164|320:200,1,70,2|0,0:3|0:0,0:0:0:0:
360,288,35073,1,8,0:0:0:0:
256,268,35204,2,0,P|220:228|216:200,1,70,2|2,0:3|0:3,0:0:0:0:
240,112,35464,1,2,0:3:0:0:
140,144,35595,1,8,0:0:0:0:
148,40,35725,2,0,P|84:52|32:120,1,140,2|2,0:3|0:3,0:0:0:0:
44,212,36117,5,8,0:0:0:0:
140,144,36247,1,8,0:0:0:0:
140,144,36377,1,8,0:3:0:0:
192,260,36508,1,8,0:0:0:0:
268,188,36638,2,0,P|296:228|296:260,1,70,8|2,0:3|0:3,0:0:0:0:
288,352,36899,5,12,0:3:0:0:
400,312,37160,1,12,0:3:0:0:
448,196,37421,2,0,P|392:180|324:228,1,140,4|0,0:0|0:0,0:0:0:0:
224,352,37943,5,12,0:3:0:0:
112,312,38204,1,12,0:3:0:0:
64,196,38465,2,0,P|120:180|188:228,1,140,4|0,0:0|0:0,0:0:0:0:
256,328,38986,5,12,0:3:0:0:
256,192,39247,1,12,0:3:0:0:
256,52,39508,2,0,L|256:196,1,140,4|0,0:0|0:0,0:0:0:0:
256,304,40030,5,12,0:0:0:0:
200,172,40291,1,6,0:3:0:0:
320,100,40421,1,12,0:0:0:0:
248,60,40551,2,0,P|208:76|188:104,1,70,2|8,0:3|0:0,0:0:0:0:
263,216,40812,2,0,P|303:200|323:172,1,70,8|4,0:3|0:3,0:0:0:0:
324,24,41073,5,12,0:3:0:0:
436,64,41334,1,12,0:3:0:0:
484,180,41595,2,0,P|428:196|360:148,1,140,4|0,0:0|0:0,0:0:0:0:
188,24,42117,5,12,0:3:0:0:
76,64,42378,1,12,0:3:0:0:
28,180,42639,2,0,P|84:196|152:148,1,140,4|0,0:0|0:0,0:0:0:0:
256,56,43160,5,12,0:3:0:0:
256,192,43421,1,12,0:3:0:0:
256,332,43682,2,0,L|256:188,1,140,4|0,0:0|0:0,0:0:0:0:
256,80,44204,5,12,0:0:0:0:
380,248,44464,1,2,0:3:0:0:
396,144,44595,2,0,L|312:172,1,70,12|2,0:0|0:3,0:0:0:0:
124,216,44986,1,2,0:3:0:0:
128,220,45247,6,0,B|196:240|196:200|272:224,1,140,4|8,0:0|0:0,0:0:0:0:
220,316,45638,1,2,0:3:0:0:
324,304,45769,2,0,P|368:268|368:232,1,70,0|2,0:0|0:3,0:0:0:0:
336,160,46030,2,0,P|376:148|408:156,1,70,8|2,0:0|0:3,0:0:0:0:
264,224,46291,6,0,P|240:184|264:92,1,140,2|8,0:3|0:0,0:0:0:0:
312,24,46682,1,2,0:3:0:0:
192,32,46812,1,2,0:3:0:0:
192,32,46943,1,2,0:3:0:0:
160,144,47073,2,0,P|124:128|104:104,1,70,8|0,0:0|0:0,0:0:0:0:
48,16,47334,5,12,0:0:0:0:
28,156,47464,1,4,0:3:0:0:
28,156,47595,1,2,0:3:0:0:
160,144,47725,5,12,0:0:0:0:
240,260,47855,1,4,0:3:0:0:
240,260,47986,1,2,0:3:0:0:
360,188,48117,1,12,0:0:0:0:
420,312,48247,1,4,0:3:0:0:
480,168,48377,1,12,0:0:0:0:
132,84,48899,5,2,0:0:0:0:
216,168,49030,1,0,0:0:0:0:
252,56,49160,1,2,0:0:0:0:
164,276,49421,6,0,B|232:308|244:260|308:284,1,140,4|2,0:0|0:3,0:0:0:0:
216,196,49812,1,8,0:0:0:0:
316,164,49943,2,0,P|292:124|264:108,1,70,2|8,0:3|0:0,0:0:0:0:
121,223,50204,2,0,P|145:263|173:279,1,70,2|8,0:3|0:0,0:0:0:0:
160,116,50464,6,0,P|120:108|84:116,1,70,2|8,0:3|0:0,0:0:0:0:
44,208,50725,1,2,0:3:0:0:
216,196,50856,2,0,P|244:168|256:128,1,70,8|0,0:0|0:0,0:0:0:0:
232,40,51117,1,8,0:0:0:0:
352,160,51247,2,0,P|384:172|436:164,1,70,2|8,0:3|0:0,0:0:0:0:
332,268,51508,6,0,B|272:244|256:292|184:268,1,140,2|2,0:3|0:3,0:0:0:0:
228,156,51899,1,8,0:0:0:0:
352,160,52030,2,0,P|360:120|348:80,1,70,2|8,0:3|0:0,0:0:0:0:
112,144,52291,2,0,P|104:184|116:224,1,70,2|8,0:3|0:0,0:0:0:0:
196,64,52551,6,0,P|160:36|124:32,1,70,2|8,0:3|0:0,0:0:0:0:
40,88,52812,1,2,0:3:0:0:
228,156,52943,2,0,P|260:140|284:108,1,70,8|2,0:0|0:3,0:0:0:0:
304,8,53204,1,8,0:0:0:0:
352,168,53334,2,0,P|384:192|424:200,1,70,2|8,0:3|0:0,0:0:0:0:
440,40,53595,6,0,L|368:40,1,70,4|8,0:0|0:0,0:0:0:0:
260,36,53856,1,2,0:3:0:0:
304,128,53986,1,8,0:0:0:0:
184,136,54117,2,0,L|228:200,1,70,2|8,0:3|0:0,0:0:0:0:
284,276,54377,1,2,0:3:0:0:
352,200,54508,1,8,0:0:0:0:
432,280,54638,6,0,L|432:196,1,70,4|8,0:0|0:0,0:0:0:0:
432,80,54899,1,2,0:3:0:0:
504,148,55030,1,8,0:0:0:0:
360,152,55160,2,0,L|284:152,1,70,2|8,0:3|0:0,0:0:0:0:
152,152,55421,1,2,0:3:0:0:
224,88,55551,1,8,0:0:0:0:
224,216,55682,6,0,L|224:292,1,70,4|8,0:0|0:0,0:0:0:0:
224,376,55943,1,2,0:3:0:0:
144,296,56073,1,8,0:0:0:0:
56,376,56204,2,0,L|56:292,1,70,2|8,0:3|0:0,0:0:0:0:
56,176,56464,2,0,P|88:196|128:196,1,70,2|8,0:3|0:0,0:0:0:0:
164,64,56725,6,0,P|128:88|116:124,1,70,12|2,0:0|0:3,0:0:0:0:
216,160,56986,1,2,0:3:0:0:
276,56,57117,1,12,0:0:0:0:
340,156,57247,1,2,0:3:0:0:
392,48,57377,1,2,0:3:0:0:
456,148,57508,2,0,L|488:96,2,35,8|6|6,0:0|0:3|0:3,0:0:0:0:
408,256,57769,6,0,B|344:236|336:284|268:256,1,140,4|2,0:0|0:3,0:0:0:0:
304,144,58160,1,8,0:0:0:0:
196,196,58291,2,0,P|176:152|184:116,1,70,2|8,0:3|0:0,0:0:0:0:
271,257,58551,2,0,P|231:297|207:301,1,70,2|8,0:3|0:0,0:0:0:0:
126,174,58812,6,0,P|166:134|190:130,1,70,2|8,0:3|0:0,0:0:0:0:
152,264,59073,1,2,0:3:0:0:
32,176,59204,2,0,P|36:136|64:100,1,70,8|2,0:0|0:3,0:0:0:0:
64,268,59464,1,8,0:0:0:0:
220,200,59595,2,0,P|248:240|248:276,1,70,2|8,0:3|0:0,0:0:0:0:
177,131,59856,6,0,B|241:103|257:147|329:127,1,140,2|2,0:3|0:3,0:0:0:0:
284,16,60247,1,8,0:0:0:0:
396,56,60377,2,0,P|432:104|432:112,1,70,2|8,0:3|0:0,0:0:0:0:
368,264,60638,2,0,P|332:216|332:208,1,70,2|8,0:3|0:0,0:0:0:0:
456,288,60899,6,0,P|416:340|400:340,1,70,2|8,0:3|0:0,0:0:0:0:
288,288,61160,1,2,0:3:0:0:
180,376,61291,2,0,P|152:344|152:304,1,70,8|2,0:0|0:3,0:0:0:0:
208,184,61551,1,8,0:0:0:0:
88,120,61682,2,0,P|128:72|160:64,1,70,2|8,0:3|0:0,0:0:0:0:
324,184,61943,6,0,P|300:260|244:292,1,140,6|2,0:0|0:3,0:0:0:0:
264,100,62334,2,0,P|328:84|400:120,1,140,10|8,0:0|0:0,0:0:0:0:
216,156,62725,2,0,P|188:116|184:88,1,70,2|8,0:0|0:0,0:0:0:0:
440,44,62986,2,0,P|468:84|448:176,1,140,6|2,0:0|0:3,0:0:0:0:
372,260,63377,1,8,0:0:0:0:
348,144,63508,2,0,P|308:156|288:180,1,70,2|8,0:3|0:0,0:0:0:0:
252,288,63769,2,0,P|216:272|192:244,1,70,6|8,0:0|0:0,0:0:0:0:
208,120,64030,6,0,B|136:100|148:140|68:116,1,140,12|2,0:0|0:3,0:0:0:0:
176,200,64421,2,0,P|224:208|296:144,1,140,12|2,0:0|0:3,0:0:0:0:
280,36,64812,1,12,0:0:0:0:
368,116,64943,1,2,0:3:0:0:
416,8,65073,6,0,P|468:64|476:148,1,140,2|2,0:3|0:3,0:0:0:0:
444,240,65464,2,0,P|408:248|372:240,2,70,2|12|2,0:3|0:0|0:3,0:0:0:0:
308,184,65856,2,0,P|272:216|268:240,1,70,12|2,0:0|0:3,0:0:0:0:
404,152,66117,6,0,P|392:112|364:88,1,70,4|0,0:0|0:3,0:0:0:0:
296,20,66377,2,0,P|268:60|268:96,1,70,8|0,0:0|0:0,0:0:0:0:
308,184,66638,2,0,P|272:192|240:184,1,70,2|2,0:3|0:3,0:0:0:0:
144,120,66899,2,0,P|124:160|124:192,1,70,8|0,0:0|0:0,0:0:0:0:
76,296,67160,6,0,P|124:304|212:272,1,140,2|8,0:3|0:0,0:0:0:0:
305,315,67551,2,0,P|325:267|305:179,1,140,2|2,0:3|0:3,0:0:0:0:
360,76,67943,1,8,0:0:0:0:
428,172,68073,1,0,0:0:0:0:
280,104,68204,6,0,P|240:128|228:156,1,70,2|0,0:3|0:0,0:0:0:0:
152,108,68464,2,0,P|140:153|151:181,1,70,8|0,0:0|0:0,0:0:0:0:
64,208,68725,2,0,P|88:248|115:260,1,70,2|2,0:3|0:3,0:0:0:0:
68,340,68986,2,0,P|113:351|141:340,1,70,8|0,0:0|0:0,0:0:0:0:
224,264,69247,6,0,B|292:292|292:248|368:272,1,140,2|8,0:3|0:0,0:0:0:0:
336,356,69638,2,0,P|396:352|444:272,1,140,2|2,0:3|0:3,0:0:0:0:
388,184,70030,1,8,0:0:0:0:
508,192,70160,1,0,0:0:0:0:
452,88,70291,6,0,L|420:20,1,70,4|0,0:0|0:0,0:0:0:0:
340,108,70551,2,0,L|308:40,1,70,8|0,0:0|0:0,0:0:0:0:
220,124,70812,2,0,L|188:56,1,70,2|2,0:3|0:3,0:0:0:0:
108,148,71072,2,0,L|76:80,1,70,8|0,0:0|0:0,0:0:0:0:
24,192,71334,6,0,P|60:236|152:224,1,140,2|8,0:3|0:0,0:0:0:0:
220,124,71725,2,0,B|288:104|308:144|368:116,1,140,2|2,0:3|0:3,0:0:0:0:
316,8,72117,1,8,0:0:0:0:
432,32,72247,1,0,0:0:0:0:
468,144,72377,6,0,P|456:184|432:204,1,70,2|0,0:3|0:3,0:0:0:0:
468,316,72638,2,0,P|400:316|384:304,1,70,8|0,0:0|0:0,0:0:0:0:
336,216,72899,2,0,P|304:248|296:276,1,70,2|2,0:3|0:3,0:0:0:0:
176,256,73160,2,0,P|184:312|204:336,1,70,8|0,0:0|0:0,0:0:0:0:
244,172,73421,6,0,P|200:152|100:180,1,140,2|8,0:3|0:0,0:0:0:0:
40,252,73812,2,0,P|8:192|20:116,1,140,2|2,0:3|0:3,0:0:0:0:
100,36,74204,1,8,0:0:0:0:
168,136,74334,1,0,0:0:0:0:
252,52,74464,6,0,P|284:84|288:112,1,70,4|2,0:0|0:3,0:0:0:0:
272,232,74725,1,2,0:3:0:0:
272,232,74856,1,12,0:3:0:0:
444,156,74986,2,0,P|428:188|396:204,1,70,2|2,0:3|0:3,0:0:0:0:
208,152,75247,1,12,0:3:0:0:
208,152,75377,1,2,0:3:0:0:
328,300,75508,1,12,0:0:0:0:
256,68,76030,5,0,0:0:0:0:
368,156,76551,6,0,P|408:168|296:192,1,420,6|0,0:0|0:0,0:0:0:0:
280,96,77595,6,0,L|304:56,2,35,8|2|2,0:0|0:3|0:3,0:0:0:0:
286,210,77856,2,0,L|310:250,2,35,8|2|2,0:0|0:3|0:3,0:0:0:0:
396,124,78117,2,0,L|414:94,2,35,8|2|2,0:0|0:3|0:3,0:0:0:0:
420,236,78377,2,0,L|438:266,2,35,8|8|8,0:0|0:0|0:0,0:0:0:0:
396,124,78638,6,0,B|348:148|304:104|248:128,1,140,4|2,0:0|0:3,0:0:0:0:
286,210,79030,1,8,0:0:0:0:
192,192,79160,2,0,P|184:240|200:264,1,70,2|8,0:3|0:0,0:0:0:0:
388,256,79421,2,0,P|396:208|380:184,1,70,2|8,0:3|0:0,0:0:0:0:
312,328,79682,6,0,P|356:352|388:348,1,70,2|8,0:3|0:0,0:0:0:0:
468,300,79943,1,2,0:3:0:0:
476,196,80073,1,8,0:0:0:0:
408,116,80204,2,0,P|368:104|336:112,1,70,2|8,0:3|0:0,0:0:0:0:
228,136,80464,1,2,0:3:0:0:
200,248,80595,1,8,0:0:0:0:
260,332,80725,6,0,P|296:292|284:204,1,140,4|2,0:0|0:3,0:0:0:0:
228,136,81117,1,8,0:0:0:0:
348,132,81247,2,0,P|324:96|296:76,1,70,2|8,0:3|0:0,0:0:0:0:
155,195,81508,2,0,P|179:231|207:251,1,70,2|8,0:3|0:0,0:0:0:0:
168,92,81769,6,0,P|124:92|92:108,1,70,2|8,0:3|0:0,0:0:0:0:
44,200,82030,1,2,0:3:0:0:
240,168,82160,2,0,P|264:136|268:96,1,70,8|2,0:0|0:3,0:0:0:0:
368,92,82421,2,0,P|364:52|324:20,1,70,8|2,0:0|0:3,0:0:0:0:
240,20,82682,1,8,0:0:0:0:
324,176,82812,6,0,P|388:180|456:124,1,140,4|2,0:0|0:3,0:0:0:0:
368,92,83204,1,8,0:0:0:0:
256,120,83334,2,0,P|236:156|236:188,1,70,2|8,0:3|0:0,0:0:0:0:
320,320,83595,2,0,P|340:284|340:252,1,70,2|8,0:3|0:0,0:0:0:0:
140,216,83856,6,0,P|164:256|196:268,1,70,2|8,0:3|0:0,0:0:0:0:
236,184,84117,1,2,0:3:0:0:
340,256,84247,1,8,0:0:0:0:
356,136,84377,2,0,P|336:100|300:84,1,70,2|8,0:3|0:0,0:0:0:0:
208,64,84638,1,2,0:3:0:0:
236,184,84769,1,8,0:0:0:0:
104,184,84899,6,0,P|108:224|176:296,1,140,4|2,0:0|0:3,0:0:0:0:
280,300,85291,1,8,0:0:0:0:
364,236,85421,2,0,P|384:272|384:304,1,70,2|8,0:3|0:0,0:0:0:0:
172,296,85682,2,0,P|180:252|200:228,1,70,2|8,0:3|0:0,0:0:0:0:
324,148,85943,6,0,P|300:116|268:104,1,70,12|2,0:0|0:3,0:0:0:0:
172,132,86204,1,2,2:3:0:0:
296,245,86334,2,0,P|344:245|376:225,1,70,12|2,2:0|2:3,0:0:0:0:
460,88,86595,2,0,P|412:88|380:108,1,70,2|12,2:3|0:0,0:0:0:0:
440,184,86856,1,2,0:3:0:0:
316,160,86986,6,0,P|296:128|292:92,1,70,12|2,0:0|0:3,0:0:0:0:
364,236,87247,1,4,0:3:0:0:
224,184,87377,6,0,P|204:152|200:116,1,70,12|2,0:0|0:3,0:0:0:0:
288,284,87638,1,4,0:3:0:0:
120,208,87769,6,0,P|100:176|96:140,1,70,12|4,0:3|0:3,0:0:0:0:
192,328,88030,1,12,0:0:0:0:
176,94,88551,6,0,B|256:46|256:46|256:142|256:142|352:94,1,280,4|0,1:0|0:0,0:0:0:0:
