osu file format v14

[General]
AudioFilename: audio.mp3
AudioLeadIn: 0
PreviewTime: 60738
Countdown: 0
SampleSet: Soft
StackLeniency: 0.7
Mode: 0
LetterboxInBreaks: 0
WidescreenStoryboard: 1

[Editor]
DistanceSpacing: 1
BeatDivisor: 4
GridSize: 32
TimelineZoom: 1.6

[Metadata]
Title:Forever Friends
TitleUnicode:Forever Friends
Artist:AiRBLUE
ArtistUnicode:AiRBLUE
Creator:Ninjaking311
Version:RoniX's Insane
Source:CUE!
Tags:EnuHQ NakaRoniX Female Vocals Idols Japanese Pop J-Pop JPop Haruna Mutsuishi 六石陽菜 Yurina Uchiyama 内山悠里菜 Maika Takatori 鷹取舞花 Nene Hieda 稗田寧々 Shiho Kano 鹿野志穂 Kyoka Moriya Kyouka 亨香守屋 Honoka Tsukii 月居ほのか Yuna Ogata 佑奈緒方 Yuuki Tendo Tendou 天童悠希 Ayaka Takamura 彩花鷹村 Chisa Akagawa 赤川千紗 Satsuki Miyahara 宮原颯希 Airi Eniwa 恵庭あいり Mayu Iizuka 麻結飯塚 Yuzuha Kujo Kujou 九条柚葉 Manatsu Murakami まなつ村上 Miharu Yomine 夜峰美晴 Yukari Anzai 由香里安齋 Aya Kamuro 神室絢 Sakii Matsuda 彩希松田 Mahoro Miyaji 宮路まほろ Megumi Yamaguchi 愛山口 Riko Hinakura 日名倉莉子 Arisa Tsuruno 鶴野有紗 Rie Maruyama 丸山利恵 Hina Tachibana 橘陽菜 Satori Utsugi 宇津木聡里 Ami Komine 愛未小峯 Rinne Myojin Myoujin 明神凛音 Mai Sato Satou 舞佐藤 Mei Toomi 遠見鳴 Rio Tsuchiya 李央土屋 flower bird wind moon dialogue+ short cut ver version pv CUE! キュー! video game
BeatmapID:3582493
BeatmapSetID:1747658

[Difficulty]
HPDrainRate:5
CircleSize:3.8
OverallDifficulty:8
ApproachRate:9
SliderMultiplier:1.62
SliderTickRate:1

[Events]
//Background and Video events
Video,-50,"vid.mp4"
0,0,"bg.jpg",0,0
//Break Periods
//Storyboard Layer 0 (Background)
//Storyboard Layer 1 (Fail)
//Storyboard Layer 2 (Pass)
//Storyboard Layer 3 (Foreground)
//Storyboard Layer 4 (Overlay)
//Storyboard Sound Samples

[TimingPoints]
7388,340.909090909091,4,2,1,52,1,0
7388,-192.307692307692,4,2,1,52,0,0
15569,-312.5,4,2,1,42,0,0
16933,-138.888888888889,4,2,1,62,0,0
18297,-98.0392156862745,4,2,1,72,0,0
18978,-98.0392156862745,4,2,10,72,0,0
19660,-98.0392156862745,4,2,20,72,0,0
20342,-98.0392156862745,4,2,18,72,0,0
21706,-98.0392156862745,4,2,10,72,0,0
22388,-98.0392156862745,4,2,20,72,0,0
23070,-98.0392156862745,4,2,18,72,0,0
23410,-98.0392156862745,4,2,1,72,0,0
24430,-98.0392156862745,4,2,10,72,0,0
25112,-98.0392156862745,4,2,20,72,0,0
25285,-98.0392156862745,4,2,1,72,0,0
25794,-98.0392156862745,4,2,18,72,0,0
26478,-98.0392156862745,4,2,13,72,0,0
26649,-98.0392156862745,4,2,1,72,0,0
29206,-138.888888888889,4,2,1,52,0,0
37558,-108.695652173913,4,2,1,62,0,0
51024,-121.951219512195,4,2,1,62,0,0
59206,-98.0392156862744,4,2,1,72,0,0
60910,-138.888888888889,4,2,13,52,0,0
61251,-138.888888888889,4,2,14,52,0,0
61336,-138.888888888889,4,2,1,52,0,0
61507,-138.888888888889,4,2,12,52,0,0
61592,-138.888888888889,4,2,1,52,0,0
61763,-138.888888888889,4,2,10,52,0,0
61848,-138.888888888889,4,2,1,52,0,0
61933,-98.0392156862744,4,2,20,72,0,0
62274,-98.0392156862744,4,2,18,72,0,0
62618,-98.0392156862744,4,2,20,72,0,0
62959,-98.0392156862744,4,2,18,72,0,0
63290,-98.0392156862744,4,2,20,72,0,0
63631,-98.0392156862744,4,2,18,72,0,0
63978,-98.0392156862744,4,2,19,72,0,0
64319,-98.0392156862744,4,2,18,72,0,0
64660,-98.0392156862744,4,2,10,72,0,0
65513,-98.0392156862744,4,2,12,72,0,0
65853,-98.0392156862744,4,2,10,72,0,0
66194,-98.0392156862744,4,2,20,72,0,0
67047,-98.0392156862744,4,2,17,72,0,0
67388,-98.0392156862744,4,2,20,72,0,0
67728,-98.0392156862744,4,2,18,72,0,0
68069,-98.0392156862744,4,2,20,72,0,0
68409,-98.0392156862744,4,2,19,72,0,0
68751,-98.0392156862744,4,2,12,72,0,0
69092,-98.0392156862744,4,2,10,72,0,0
69433,-98.0392156862744,4,2,20,72,0,0
69774,-98.0392156862744,4,2,18,72,0,0
70115,-98.0392156862744,4,2,20,72,0,0
70967,-98.0392156862744,4,2,10,72,0,0
71308,-98.0392156862744,4,2,20,72,0,0
71649,-98.0392156862744,4,2,18,72,0,0
72501,-98.0392156862744,4,2,13,72,0,0
73183,-98.0392156862744,4,2,11,72,0,0
73694,-98.0392156862744,4,2,10,72,0,0
74206,-98.0392156862744,4,2,20,72,0,0
74547,-98.0392156862744,4,2,1,72,0,0
75228,-98.0392156862744,4,2,16,72,0,0
75910,-98.0392156862744,4,2,17,72,0,0
76422,-98.0392156862744,4,2,12,72,0,0
76933,-98.0392156862744,4,2,10,72,0,0
77274,-98.0392156862744,4,2,1,72,0,0
78638,-98.0392156862744,4,2,18,72,0,0
78978,-98.0392156862744,4,2,14,72,0,0
79319,-98.0392156862744,4,2,18,72,0,0
80001,-98.0392156862744,4,2,16,72,0,0
80342,-98.0392156862744,4,2,18,72,0,0
80683,-98.0392156862744,4,2,20,72,0,0
81024,-98.0392156862744,4,2,10,72,0,0
81535,-98.0392156862744,4,2,20,72,0,0
82047,-98.0392156862744,4,2,12,72,0,0
82728,-98.0392156862745,4,2,13,72,0,0
83069,-98.0392156862744,4,2,14,72,0,0
83325,-98.0392156862744,4,2,12,72,0,0
83581,-98.0392156862744,4,2,10,72,0,0
83751,-98.0392156862744,4,2,20,72,0,0
84092,-98.0392156862744,4,2,18,72,0,0
84436,-98.0392156862744,4,2,20,72,0,0
84777,-98.0392156862744,4,2,18,72,0,0
85108,-98.0392156862744,4,2,20,72,0,0
85449,-98.0392156862744,4,2,18,72,0,0
85796,-98.0392156862744,4,2,19,72,0,0
86137,-98.0392156862744,4,2,18,72,0,0
86478,-98.0392156862744,4,2,10,72,0,0
87331,-98.0392156862744,4,2,12,72,0,0
87671,-98.0392156862744,4,2,10,72,0,0
88012,-98.0392156862744,4,2,20,72,0,0
88865,-98.0392156862744,4,2,17,72,0,0
89206,-98.0392156862744,4,2,20,72,0,0
89546,-98.0392156862744,4,2,18,72,0,0
89887,-98.0392156862744,4,2,20,72,0,0
90227,-98.0392156862744,4,2,19,72,0,0
90569,-98.0392156862744,4,2,12,72,0,0
90910,-98.0392156862744,4,2,10,72,0,0
91251,-98.0392156862744,4,2,20,72,0,0
91592,-98.0392156862744,4,2,18,72,0,0
92274,-98.0392156862744,4,2,20,72,0,0
92530,-98.0392156862744,4,2,18,72,0,0
92785,-98.0392156862744,4,2,14,72,0,0
93126,-98.0392156862744,4,2,10,72,0,0
93467,-98.0392156862744,4,2,20,72,0,0
93638,-98.0392156862744,4,2,18,72,0,0
94319,-98.0392156862744,4,2,13,72,0,0
95001,-98.0392156862744,4,2,11,72,0,0
95513,-98.0392156862744,4,2,10,72,0,0
96024,-98.0392156862744,4,2,20,72,0,0
96365,-98.0392156862744,4,2,1,72,0,0
97047,-98.0392156862744,4,2,17,72,0,0
97388,-98.0392156862744,4,2,21,72,0,0
97728,-98.0392156862744,4,2,10,72,0,0
97899,-98.0392156862744,4,2,20,72,0,0
98240,-98.0392156862744,4,2,10,72,0,0
98581,-98.0392156862744,4,2,20,72,0,0
98922,-98.0392156862744,4,2,18,72,0,0
99092,-98.0392156862744,4,2,1,72,0,0
100285,-98.0392156862744,4,2,12,72,0,0
100626,-98.0392156862744,4,2,10,72,0,0
100797,-98.0392156862744,4,2,12,72,0,0
101138,-98.0392156862744,4,2,10,72,0,0
101309,-98.0392156862744,4,2,12,72,0,0
101649,-98.0392156862744,4,2,10,72,0,0
101819,-98.0392156862744,4,2,18,72,0,0
102672,-98.0392156862744,4,2,14,72,0,0
104547,-98.0392156862744,4,2,13,72,0,0
104888,-98.0392156862744,4,2,12,72,0,0
104973,-98.0392156862744,4,2,1,72,0,0
105058,-161.290322580645,4,2,1,52,0,0
105228,-161.290322580645,4,2,20,52,0,0
105314,-161.290322580645,4,2,1,52,0,0
105569,-98.0392156862744,4,2,12,72,0,0
106251,-98.0392156862744,4,2,10,72,0,0
106933,-98.0392156862744,4,2,20,72,0,0
107615,-98.0392156862744,4,2,18,72,0,0
108979,-98.0392156862744,4,2,10,72,0,0
109661,-98.0392156862744,4,2,20,72,0,0
110343,-98.0392156862744,4,2,18,72,0,0
110683,-98.0392156862744,4,2,1,72,0,0
111703,-98.0392156862744,4,2,10,72,0,0
112385,-98.0392156862744,4,2,20,72,0,0
112558,-98.0392156862744,4,2,1,72,0,0
113067,-98.0392156862744,4,2,18,72,0,0
113751,-98.0392156862744,4,2,13,72,0,0
113922,-98.0392156862744,4,2,1,72,0,0
116478,-238.095238095238,4,2,1,42,0,0
118865,-238.095238095238,4,2,1,62,0,0

[Colours]
Combo1 : 164,100,240
Combo2 : 230,110,150
Combo3 : 100,200,200
Combo4 : 130,120,255

[HitObjects]
69,226,7388,6,0,B|158:196|147:274|232:256,2,168.47999897168,6|2|2,1:2|0:0|0:0,0:0:0:0:
69,226,9433,1,2,0:0:0:0:
268,156,10115,2,0,P|259:237|252:333,2,168.47999897168,6|2|2,1:2|0:0|0:0,0:0:0:0:
461,83,12160,2,0,P|423:99|338:43,1,147.41999910022,10|0,0:3|0:0,0:0:0:0:
330,16,12842,2,0,P|245:28|155:41,2,168.47999897168,6|2|2,1:2|0:0|0:0,0:0:0:0:
330,16,14888,1,2,0:0:0:0:
235,173,15569,2,0,P|208:136|104:142,1,155.52,6|0,1:2|0:0,0:0:0:0:
44,263,16933,6,0,L|107:248,1,58.3200014238282,4|8,0:3|0:0,0:0:0:0:
131,240,17189,1,8,0:0:0:0:
131,240,17274,1,8,0:0:0:0:
287,292,17444,1,8,0:3:0:0:
184,346,17615,2,0,L|195:294,1,29.1600007119141,8|8,0:0|0:0,0:0:0:0:
268,210,17785,2,0,L|257:158,1,29.1600007119141,8|8,0:0|0:0,0:0:0:0:
201,91,17956,1,8,0:0:0:0:
188,98,18041,1,4,0:3:0:0:
180,110,18126,1,4,0:3:0:0:
177,125,18212,1,8,0:3:0:0:
180,139,18297,6,0,B|280:116|250:192|360:171,2,165.240001008545,4|8|2,1:2|0:0|1:2,0:0:0:0:
260,35,19149,1,0,0:0:0:0:
105,182,19319,2,0,P|93:134|83:92,1,82.6200005042725,8|0,0:0|0:0,0:0:0:0:
0,278,19660,2,0,P|81:288|200:309,1,165.240001008545,2|8,1:2|0:0,0:0:0:0:
280,198,20172,2,0,P|226:198|191:230,1,82.6200005042725,0|2,0:0|1:2,0:0:0:0:
336,339,20513,1,0,0:0:0:0:
407,240,20683,2,0,P|398:202|385:138,1,82.6200005042725,8|0,0:0|0:0,0:0:0:0:
299,10,21024,6,0,P|363:62|445:35,2,165.240001008545,0|8|2,1:0|0:0|1:2,0:0:0:0:
389,159,21876,1,0,0:0:0:0:
280,198,22047,2,0,P|287:156|293:102,1,82.6200005042725,8|0,0:0|0:0,0:0:0:0:
168,17,22388,2,0,P|178:100|190:206,1,165.240001008545,2|8,1:2|0:0,0:0:0:0:
300,298,22899,2,0,P|258:289|207:281,1,82.6200005042725,4|6,0:3|1:3,0:0:0:0:
311,216,23240,1,8,0:3:0:0:
206,360,23410,5,10,0:0:0:0:
188,370,23495,1,2,0:0:0:0:
168,374,23580,1,2,0:0:0:0:
147,371,23665,1,2,0:0:0:0:
129,362,23751,2,0,P|144:278|158:189,2,165.240001008545,2|8|2,1:2|0:0|1:2,0:0:0:0:
233,253,24603,1,0,0:0:0:0:
122,162,24774,2,0,P|79:174|19:185,1,82.6200005042725,8|0,0:0|0:0,0:0:0:0:
210,131,25115,6,0,P|268:122|356:204,1,165.240001008545,2|10,1:2|0:0,0:0:0:0:
435,312,25626,2,0,P|394:303|344:295,1,82.6200005042725,2|2,0:0|1:2,0:0:0:0:
212,357,25967,1,0,0:0:0:0:
275,210,26138,2,0,P|264:250|256:294,1,82.6200005042725,8|0,0:0|0:0,0:0:0:0:
101,199,26478,6,0,P|141:191|181:180,1,82.6200005042725,2|0,1:2|3:0,0:0:0:0:
264,74,26819,1,8,0:0:0:0:
264,74,26990,1,0,3:0:0:0:
161,32,27160,1,0,1:0:0:0:
257,182,27331,1,0,3:0:0:0:
421,94,27501,1,8,0:0:0:0:
337,37,27672,6,0,P|348:118|365:232,1,165.240001008545,4|0,1:2|1:0,0:0:0:0:
428,313,28098,1,0,1:0:0:0:
428,313,28183,2,0,P|391:303|328:291,1,82.6200005042725,12|0,0:0|0:0,0:0:0:0:
223,233,28524,1,4,0:3:0:0:
338,179,28694,2,0,L|330:228,1,41.3100002521362,8|8,0:0|0:0,0:0:0:0:
276,346,28865,2,0,L|268:297,1,41.3100002521362,8|8,0:0|0:0,0:0:0:0:
198,215,29035,5,8,0:0:0:0:
198,215,29120,1,8,0:0:0:0:
198,215,29206,2,0,P|166:219|115:222,1,58.3200014238282,0|2,1:0|0:0,0:0:0:0:
73,303,29547,2,0,P|41:298|-10:296,1,58.3200014238282,2|2,1:2|0:0,0:0:0:0:
31,158,29888,2,0,P|62:162|114:165,1,58.3200014238282,2|2,1:2|0:0,0:0:0:0:
176,106,30228,1,2,1:2:0:0:
176,106,30399,6,0,P|169:164|164:236,1,116.640002847656,2|2,0:0|0:0,0:0:0:0:
242,322,30910,1,2,1:2:0:0:
242,322,31081,2,0,P|272:315|312:311,1,58.3200014238282,2|0,0:0|1:2,0:0:0:0:
417,231,31422,2,0,P|388:227|359:220,1,58.3200014238282,2|2,0:0|1:2,0:0:0:0:
247,165,31763,2,0,P|253:195|258:235,1,58.3200014238282,2|0,0:0|1:2,0:0:0:0:
404,149,32103,1,2,0:0:0:0:
333,39,32274,6,0,P|328:97|321:165,2,116.640002847656,2|0|0,1:2|1:2|1:2,0:0:0:0:
235,143,33297,2,0,P|206:157|176:156,1,58.3200014238282,0|0,1:2|0:0,0:0:0:0:
140,13,33638,2,0,P|169:-1|199:0,1,58.3200014238282,0|0,1:2|0:0,0:0:0:0:
187,82,33978,2,0,P|128:86|61:94,1,116.640002847656,2|0,1:2|1:2,0:0:0:0:
119,248,34660,6,0,P|124:216|128:185,1,58.3200014238282,4|2,1:2|0:0,0:0:0:0:
226,85,35001,2,0,P|229:113|234:142,1,58.3200014238282,2|2,1:2|0:0,0:0:0:0:
285,245,35342,2,0,P|253:239|222:236,1,58.3200014238282,2|0,1:2|0:0,0:0:0:0:
292,343,35683,1,2,1:2:0:0:
292,343,35853,2,0,P|354:334|418:327,1,116.640002847656,2|2,0:0|0:0,0:0:0:0:
369,192,36365,2,0,P|364:221|357:269,1,58.3200014238282,2|0,1:2|0:0,0:0:0:0:
467,189,36706,2,0,P|461:160|455:112,1,58.3200014238282,2|8,1:2|0:1,0:0:0:0:
456,97,36961,1,2,0:1:0:0:
456,97,37047,1,2,1:2:0:0:
446,70,37388,5,8,0:0:0:0:
298,158,37558,2,0,P|244:129|174:156,1,111.77999624762,6|0,1:3|0:0,0:0:0:0:
146,129,37899,2,0,P|153:166|163:219,1,74.5199974984132,8|0,0:0|0:0,0:0:0:0:
70,299,38240,1,4,0:3:0:0:
70,299,38325,1,6,0:3:0:0:
70,299,38410,2,0,P|76:262|83:225,1,74.5199974984132,10|0,0:3|0:0,0:0:0:0:
188,367,38751,6,0,P|242:323|326:344,1,149.039994996826,6|8,1:2|0:3,0:0:0:0:
437,200,39263,2,0,B|348:191|382:244|280:233,1,149.039994996826,12|8,0:0|0:3,0:0:0:0:
373,74,39774,2,0,L|389:123,1,37.2599987492066,8|8,0:0|0:0,0:0:0:0:
257,62,39944,2,0,L|291:23,1,37.2599987492066,8|8,0:0|0:0,0:0:0:0:
298,158,40115,6,0,P|254:163|211:170,1,74.5199974984132,4|2,1:2|3:2,0:0:0:0:
117,256,40456,2,0,P|80:250|43:246,1,74.5199974984132,2|2,1:2|3:0,0:0:0:0:
61,118,40797,2,0,P|97:123|134:127,1,74.5199974984132,2|0,1:2|3:0,0:0:0:0:
279,64,41138,1,2,1:2:0:0:
195,17,41308,2,0,P|200:60|207:104,1,74.5199974984132,2|0,3:0|1:2,0:0:0:0:
305,214,41649,6,0,P|310:170|317:127,1,74.5199974984132,14|0,0:0|1:2,0:0:0:0:
294,297,41990,2,0,P|288:340|282:384,1,74.5199974984132,10|0,0:3|1:2,0:0:0:0:
143,248,42331,1,6,0:3:0:0:
143,248,42501,1,2,1:3:0:0:
217,165,42672,2,0,P|223:208|229:252,1,74.5199974984132,10|4,3:3|1:2,0:0:0:0:
138,374,43013,5,2,3:3:0:0:
266,330,43183,2,0,P|229:322|181:313,1,74.5199974984132,2|0,1:2|3:0,0:0:0:0:
55,236,43524,2,0,P|91:228|128:221,1,74.5199974984132,2|0,1:2|3:0,0:0:0:0:
231,91,43865,2,0,P|223:128|214:176,1,74.5199974984132,2|0,1:2|3:0,0:0:0:0:
339,282,44206,2,0,P|331:245|324:208,1,74.5199974984132,2|2,1:2|0:1,0:0:0:0:
390,131,44547,1,2,1:2:0:0:
390,131,44717,1,2,0:1:0:0:
247,66,44888,1,10,0:2:0:0:
386,20,45058,1,10,0:3:0:0:
304,181,45228,5,2,1:2:0:0:
286,161,45313,1,0,1:2:0:0:
263,149,45398,1,10,0:0:0:0:
238,144,45483,1,8,0:0:0:0:
212,147,45569,2,0,P|218:186|222:236,1,74.5199974984132,4|2,1:2|0:0,0:0:0:0:
177,346,45910,1,2,1:2:0:0:
300,278,46081,2,0,P|226:263|153:248,1,149.039994996826,2|2,0:0|0:0,0:0:0:0:
42,150,46592,1,2,1:2:0:0:
151,93,46763,2,0,P|141:132|135:184,1,74.5199974984132,2|4,0:0|1:2,0:0:0:0:
299,65,47103,5,6,0:3:0:0:
186,4,47274,1,8,0:3:0:0:
263,149,47444,2,0,P|324:163|402:110,1,149.039994996826,14|10,0:0|0:3,0:0:0:0:
455,287,47956,2,0,L|417:269,1,37.2599987492066,10|8,0:0|0:0,0:0:0:0:
313,207,48126,2,0,L|331:245,1,37.2599987492066,10|8,0:0|0:0,0:0:0:0:
375,371,48297,6,0,P|380:328|383:288,1,74.5199974984132,4|2,1:2|0:0,0:0:0:0:
479,190,48638,1,2,1:2:0:0:
479,190,48808,2,0,P|441:193|404:197,1,74.5199974984132,2|0,0:0|1:2,0:0:0:0:
269,112,49149,1,2,0:0:0:0:
368,67,49319,2,0,P|356:106|346:161,1,74.5199974984132,2|2,1:2|0:0,0:0:0:0:
237,217,49660,5,14,0:0:0:0:
223,113,49831,1,0,1:2:0:0:
209,9,50001,1,2,1:2:0:0:
73,185,50172,2,0,P|149:169|212:229,1,149.039994996826,8|4,0:0|0:3,0:0:0:0:
74,101,50683,1,10,0:3:0:0:
74,101,50853,1,8,0:3:0:0:
159,29,51024,6,0,P|179:72|134:164,1,132.840002026978,6|0,1:2|3:0,0:0:0:0:
0,246,51535,2,0,P|67:251|148:263,1,132.840002026978,2|2,1:2|3:0,0:0:0:0:
325,317,52217,1,2,0:0:0:0:
325,317,52388,1,0,1:2:0:0:
228,192,52558,2,0,P|235:231|239:266,1,66.4200010134888,8|2,0:0|1:2,0:0:0:0:
360,138,52899,2,0,P|353:177|349:212,1,66.4200010134888,8|6,0:0|1:3,0:0:0:0:
230,95,53240,1,4,0:3:0:0:
336,35,53410,2,0,P|371:42|430:53,1,66.4200010134888,10|8,1:3|0:3,0:0:0:0:
254,5,53751,6,0,P|186:20|103:36,1,132.840002026978,6|0,1:2|3:0,0:0:0:0:
21,144,54263,2,0,P|74:156|136:104,1,132.840002026978,2|2,1:2|3:0,0:0:0:0:
78,268,54944,1,2,0:0:0:0:
185,332,55115,2,0,L|265:308,1,66.4200010134888,6|8,0:3|0:0,0:0:0:0:
282,303,55370,1,8,0:0:0:0:
282,303,55456,1,8,0:0:0:0:
400,375,55626,2,0,P|392:335|387:298,1,66.4200010134888,12|0,0:0|1:2,0:0:0:0:
321,162,55967,2,0,P|313:201|308:239,1,66.4200010134888,8|10,0:3|0:0,0:0:0:0:
203,96,56308,5,8,0:0:0:0:
203,96,56393,1,8,0:0:0:0:
203,96,56478,2,0,P|235:90|292:82,1,66.4200010134888,6|0,1:2|3:0,0:0:0:0:
107,168,56819,2,0,P|74:162|18:154,1,66.4200010134888,2|0,1:2|3:0,0:0:0:0:
180,247,57160,2,0,P|185:214|194:158,1,66.4200010134888,2|0,1:2|3:0,0:0:0:0:
312,327,57501,2,0,P|306:294|298:238,1,66.4200010134888,2|0,1:2|3:0,0:0:0:0:
359,192,57842,5,2,1:2:0:0:
224,336,58013,1,8,0:0:0:0:
207,347,58098,1,8,0:0:0:0:
189,354,58183,1,10,0:0:0:0:
169,356,58268,1,8,0:0:0:0:
149,353,58353,1,8,0:0:0:0:
131,345,58439,1,8,0:0:0:0:
115,333,58524,2,0,P|122:296|127:252,1,66.4200010134888,10|4,0:0|0:3,0:0:0:0:
199,127,58865,1,10,0:3:0:0:
199,127,59035,1,8,0:3:0:0:
38,216,59206,6,0,P|94:186|178:221,1,123.930000756409,6|0,1:2|0:0,0:0:0:0:
179,212,59547,1,0,1:2:0:0:
297,72,59717,2,0,P|285:138|274:221,1,123.930000756409,12|0,0:0|0:0,0:0:0:0:
271,224,60058,1,0,1:2:0:0:
445,39,60228,1,12,0:0:0:0:
445,39,60910,6,0,P|395:19|360:41,1,87.4800021357422,2|0,0:0|0:0,0:0:0:0:
288,14,61251,2,0,L|298:80,1,58.3200014238282,2|2,0:0|0:0,0:0:0:0:
322,142,61507,2,0,L|312:208,1,58.3200014238282,2|2,0:0|0:0,0:0:0:0:
344,303,61763,1,2,0:0:0:0:
506,174,61933,6,0,P|440:136|386:165,1,123.930000756409,6|0,1:2|0:0,0:0:0:0:
390,198,62274,2,0,P|345:213|312:199,1,82.6200005042725,10|0,0:0|0:0,0:0:0:0:
172,92,62615,2,0,P|216:79|262:96,1,82.6200005042725,2|0,1:2|0:0,0:0:0:0:
133,207,62956,1,10,0:0:0:0:
235,262,63126,1,0,1:2:0:0:
235,262,63211,1,0,1:2:0:0:
235,262,63297,2,0,P|226:216|219:167,1,82.6200005042725,2|0,1:2|0:0,0:0:0:0:
170,326,63638,5,10,0:0:0:0:
309,229,63808,1,0,0:0:0:0:
220,180,63978,1,2,1:2:0:0:
349,329,64149,1,0,0:0:0:0:
447,177,64319,2,0,P|387:164|337:199,1,123.930000756409,10|0,0:0|0:0,0:0:0:0:
309,229,64660,6,0,B|410:208|382:276|483:258,2,165.240001008545,2|8|0,1:2|0:0|1:2,0:0:0:0:
157,274,65513,2,0,P|166:314|176:355,1,82.6200005042725,2|8,0:0|0:0,0:0:0:0:
84,351,65853,1,2,0:0:0:0:
245,299,66024,2,0,P|286:304|326:309,1,82.6200005042725,0|2,1:2|0:0,0:0:0:0:
182,150,66365,2,0,P|138:156|88:162,1,82.6200005042725,8|0,0:0|1:2,0:0:0:0:
67,166,66620,1,0,1:2:0:0:
67,166,66706,1,0,1:2:0:0:
131,67,66876,1,8,0:3:0:0:
157,232,67047,2,0,P|167:294|179:377,1,123.930000756409,14|0,0:0|0:0,0:0:0:0:
71,374,67388,6,0,P|67:331|105:294,1,82.6200005042725,6|0,1:2|0:0,0:0:0:0:
200,172,67728,2,0,P|194:212|190:261,1,82.6200005042725,10|0,0:0|0:0,0:0:0:0:
315,381,68069,2,0,P|309:341|305:292,1,82.6200005042725,2|0,1:2|0:0,0:0:0:0:
198,384,68410,1,10,0:0:0:0:
392,337,68581,1,0,1:2:0:0:
392,337,68666,1,0,1:2:0:0:
392,337,68751,2,0,P|433:342|509:355,1,82.6200005042725,2|0,1:2|0:0,0:0:0:0:
339,215,69092,5,10,0:0:0:0:
226,314,69263,1,0,0:0:0:0:
315,381,69433,1,2,1:2:0:0:
207,228,69603,1,0,0:0:0:0:
87,361,69774,2,0,P|148:347|212:342,1,123.930000756409,10|0,0:0|0:0,0:0:0:0:
285,381,70115,6,0,P|306:335|303:284,1,82.6200005042725,2|0,1:2|3:0,0:0:0:0:
178,226,70456,1,8,0:0:0:0:
178,226,70626,1,0,3:0:0:0:
267,185,70797,1,0,1:2:0:0:
103,333,70967,2,0,P|96:288|88:245,1,82.6200005042725,2|8,3:0|0:0,0:0:0:0:
126,74,71308,1,2,3:0:0:0:
0,192,71478,6,0,L|104:169,1,82.6200005042725,4|2,0:3|0:0,0:0:0:0:
118,171,71734,1,0,1:2:0:0:
118,171,71819,1,12,0:0:0:0:
45,77,71990,1,8,0:3:0:0:
198,0,72160,2,0,L|183:110,1,82.6200005042725,4|8,0:3|0:0,0:0:0:0:
185,120,72416,1,8,0:0:0:0:
185,120,72501,2,0,L|189:173,1,41.3100002521362,10|8,0:0|0:0,0:0:0:0:
299,210,72672,2,0,L|303:157,1,41.3100002521362,8|8,0:0|0:0,0:0:0:0:
171,319,72842,6,0,P|253:306|349:295,1,165.240001008545,6|10,1:2|0:0,0:0:0:0:
454,187,73353,2,0,P|445:227|439:279,1,82.6200005042725,2|0,0:0|1:2,0:0:0:0:
299,210,73694,2,0,P|307:169|314:118,1,82.6200005042725,2|8,0:0|0:0,0:0:0:0:
361,294,74035,1,2,0:0:0:0:
242,384,74206,2,0,P|203:340|101:361,1,165.240001008545,2|10,1:2|0:0,0:0:0:0:
200,221,74717,1,2,1:2:0:0:
200,221,74802,1,0,1:2:0:0:
200,221,74888,1,0,1:2:0:0:
66,149,75058,2,0,P|73:190|82:231,1,82.6200005042725,2|10,0:0|0:0,0:0:0:0:
161,118,75399,1,0,0:0:0:0:
26,0,75569,6,0,P|62:44|175:24,1,165.240001008545,2|10,1:2|0:0,0:0:0:0:
332,0,76081,2,0,P|336:45|344:88,1,82.6200005042725,2|0,0:0|1:2,0:0:0:0:
233,213,76422,2,0,P|239:172|243:131,1,82.6200005042725,2|8,0:0|0:0,0:0:0:0:
326,255,76763,1,2,0:0:0:0:
162,161,76933,2,0,B|68:146|97:210|-6:200,1,165.240001008545,2|10,1:2|0:0,0:0:0:0:
149,307,77444,1,2,1:2:0:0:
149,307,77530,1,0,1:2:0:0:
149,307,77615,1,0,1:2:0:0:
252,192,77786,2,0,P|243:151|237:110,1,82.6200005042725,6|8,0:3|0:0,0:0:0:0:
297,271,78126,5,2,1:2:0:0:
297,271,78211,1,2,1:2:0:0:
297,271,78297,2,0,P|341:264|382:257,1,82.6200005042725,6|0,1:2|3:0,0:0:0:0:
162,161,78638,2,0,P|118:154|77:147,1,82.6200005042725,10|0,0:0|3:0,0:0:0:0:
270,311,78978,2,0,P|262:267|256:226,1,82.6200005042725,2|0,1:2|3:0,0:0:0:0:
99,301,79319,2,0,P|106:344|113:386,1,82.6200005042725,10|0,0:0|3:0,0:0:0:0:
180,247,79660,5,2,1:2:0:0:
25,163,79831,1,0,3:0:0:0:
153,78,80001,2,0,L|134:170,1,82.6200005042725,10|4,0:0|3:3,0:0:0:0:
131,191,80257,1,4,0:3:0:0:
131,191,80342,1,2,1:2:0:0:
322,102,80513,1,8,0:3:0:0:
229,39,80683,1,10,0:0:0:0:
287,208,80853,1,0,0:0:0:0:
469,106,81024,6,0,P|456:67|443:12,1,82.6200005042725,14|4,0:0|0:3,0:0:0:0:
434,0,81280,1,4,0:3:0:0:
434,0,81365,1,8,1:3:0:0:
287,208,81535,2,0,P|300:169|313:114,1,82.6200005042725,14|4,0:0|0:3,0:0:0:0:
322,102,81791,1,4,0:3:0:0:
322,102,81876,1,8,1:3:0:0:
440,324,82047,1,14,0:0:0:0:
440,324,82728,5,2,0:0:0:0:
299,230,82899,1,0,1:2:0:0:
299,230,82984,1,0,1:2:0:0:
299,230,83069,2,0,P|338:208|390:216,1,82.6200005042725,10|4,0:0|0:3,0:0:0:0:
301,356,83410,1,12,0:0:0:0:
178,281,83581,5,10,0:0:0:0:
178,281,83666,1,8,0:0:0:0:
178,281,83751,2,0,P|120:291|46:302,1,123.930000756409,6|0,1:2|0:0,0:0:0:0:
0,349,84092,2,0,P|9:300|21:241,1,82.6200005042725,10|0,0:0|0:0,0:0:0:0:
91,137,84433,2,0,P|43:140|5:180,1,82.6200005042725,2|0,1:2|0:0,0:0:0:0:
139,236,84774,1,10,0:0:0:0:
199,131,84944,1,0,1:2:0:0:
199,131,85030,1,0,1:2:0:0:
199,131,85115,2,0,P|189:92|182:44,1,82.6200005042725,2|0,1:2|0:0,0:0:0:0:
110,143,85456,5,10,0:0:0:0:
246,236,85626,1,0,0:0:0:0:
298,65,85797,1,2,1:2:0:0:
199,131,85967,1,0,0:0:0:0:
344,212,86138,2,0,P|399:219|464:183,1,123.930000756409,10|0,0:0|0:0,0:0:0:0:
502,132,86478,6,0,P|492:223|488:301,2,165.240001008545,2|8|0,1:2|0:0|1:2,0:0:0:0:
379,256,87331,2,0,P|343:281|294:274,1,82.6200005042725,2|8,0:0|0:0,0:0:0:0:
167,165,87672,2,0,P|212:159|276:142,1,82.6200005042725,2|0,0:0|1:2,0:0:0:0:
115,52,88013,1,2,0:0:0:0:
55,149,88183,2,0,P|64:187|74:244,1,82.6200005042725,8|0,0:0|1:2,0:0:0:0:
77,262,88439,1,0,1:2:0:0:
77,262,88524,1,0,1:2:0:0:
18,366,88694,1,8,0:3:0:0:
160,242,88865,2,0,P|215:225|273:285,1,123.930000756409,14|0,0:0|0:0,0:0:0:0:
263,350,89206,6,0,P|309:370|362:352,1,82.6200005042725,6|0,1:2|0:0,0:0:0:0:
317,181,89547,2,0,P|308:226|301:265,1,82.6200005042725,10|0,0:0|0:0,0:0:0:0:
456,339,89888,2,0,P|447:298|440:257,1,82.6200005042725,2|0,1:2|0:0,0:0:0:0:
390,108,90228,1,10,0:0:0:0:
500,187,90399,1,0,1:2:0:0:
500,187,90484,1,0,1:2:0:0:
500,187,90569,2,0,P|457:181|406:177,1,82.6200005042725,2|0,1:2|0:0,0:0:0:0:
271,90,90910,5,10,0:0:0:0:
371,29,91081,1,0,0:0:0:0:
317,181,91251,1,2,1:2:0:0:
154,100,91422,1,0,0:0:0:0:
252,0,91592,2,0,P|241:66|237:152,1,123.930000756409,10|0,0:0|0:0,0:0:0:0:
288,199,91933,6,0,P|245:220|204:222,1,82.6200005042725,0|0,1:2|3:0,0:0:0:0:
44,161,92274,2,0,P|87:140|128:138,1,82.6200005042725,10|0,0:0|3:0,0:0:0:0:
156,134,92530,1,2,1:2:0:0:
156,134,92615,1,0,1:2:0:0:
196,304,92785,2,0,P|204:256|212:212,1,82.6200005042725,2|8,3:0|0:0,0:0:0:0:
317,382,93126,2,0,P|308:334|301:290,1,82.6200005042725,2|8,3:0|0:3,0:0:0:0:
421,238,93467,1,2,0:0:0:0:
352,113,93638,2,0,P|347:152|339:211,1,82.6200005042725,10|4,0:0|0:3,0:0:0:0:
337,232,93893,1,4,0:3:0:0:
337,232,93978,1,4,0:3:0:0:
492,95,94149,5,8,0:0:0:0:
462,108,94234,1,8,0:0:0:0:
429,111,94319,1,10,0:0:0:0:
397,103,94404,1,8,0:0:0:0:
370,85,94489,1,8,0:0:0:0:
350,58,94575,1,8,0:0:0:0:
341,26,94660,6,0,P|263:41|172:59,1,165.240001008545,6|10,1:2|0:0,0:0:0:0:
69,161,95172,2,0,P|77:103|80:58,1,82.6200005042725,2|0,0:0|1:2,0:0:0:0:
220,140,95513,2,0,P|211:197|209:243,1,82.6200005042725,2|8,0:0|0:0,0:0:0:0:
122,356,95853,1,2,0:0:0:0:
265,290,96024,2,0,P|186:302|117:236,1,165.240001008545,2|10,1:2|0:0,0:0:0:0:
220,140,96535,1,2,1:2:0:0:
220,140,96620,1,0,1:2:0:0:
220,140,96706,1,0,1:2:0:0:
79,79,96876,2,0,P|87:120|96:174,1,82.6200005042725,2|10,0:0|0:0,0:0:0:0:
169,69,97217,1,0,0:0:0:0:
56,266,97388,6,0,P|155:219|243:232,1,165.240001008545,2|10,1:2|0:0,0:0:0:0:
314,322,97899,2,0,P|305:284|293:219,1,82.6200005042725,2|0,0:0|1:2,0:0:0:0:
427,139,98240,2,0,P|418:176|406:242,1,82.6200005042725,2|8,0:0|0:0,0:0:0:0:
323,123,98581,1,2,0:0:0:0:
483,35,98751,2,0,P|399:53|345:-13,1,165.240001008545,0|8,1:2|0:0,0:0:0:0:
427,139,99263,1,2,1:2:0:0:
427,139,99348,1,0,1:2:0:0:
427,139,99433,1,0,1:2:0:0:
296,241,99603,2,0,P|258:232|184:222,1,82.6200005042725,2|8,0:0|0:0,0:0:0:0:
337,154,99944,5,2,0:0:0:0:
337,154,100030,1,2,0:0:0:0:
337,154,100115,1,6,1:2:0:0:
196,23,100285,2,0,P|200:63|206:137,1,82.6200005042725,2|8,3:0|0:0,0:0:0:0:
215,225,100626,1,6,3:3:0:0:
74,94,100797,2,0,P|78:134|84:208,1,82.6200005042725,10|0,1:3|3:0,0:0:0:0:
188,337,101138,1,10,0:0:0:0:
49,282,101308,6,0,P|99:241|200:260,1,165.240001008545,2|2,3:0|1:2,0:0:0:0:
352,350,101819,2,0,P|378:314|368:265,1,82.6200005042725,10|2,0:0|1:2,0:0:0:0:
389,201,102075,1,0,1:2:0:0:
389,201,102160,2,0,P|348:211|297:220,1,82.6200005042725,8|6,0:0|1:3,0:0:0:0:
148,316,102501,2,0,P|188:323|228:333,1,82.6200005042725,8|10,0:0|0:3,0:0:0:0:
134,121,102842,6,0,P|141:162|147:225,1,82.6200005042725,12|4,0:0|0:3,0:0:0:0:
151,235,103098,1,4,0:3:0:0:
151,235,103183,1,0,1:2:0:0:
278,30,103353,2,0,P|270:71|265:134,1,82.6200005042725,12|4,0:0|0:3,0:0:0:0:
261,144,103609,1,4,0:3:0:0:
261,144,103694,1,0,1:2:0:0:
143,26,103865,5,12,0:0:0:0:
344,112,104035,1,0,1:2:0:0:
151,235,104206,1,12,0:0:0:0:
80,174,105058,5,2,1:2:0:0:
80,174,105143,1,2,1:2:0:0:
80,174,105228,2,0,L|67:88,1,75.3299970114442,14|2,0:0|0:0,0:0:0:0:
30,29,105569,6,0,P|79:77|192:41,2,165.240001008545,6|8|2,1:2|0:0|1:2,0:0:0:0:
112,185,106422,1,0,0:0:0:0:
0,229,106592,2,0,P|3:184|4:145,1,82.6200005042725,8|0,0:0|0:0,0:0:0:0:
83,329,106933,2,0,P|149:344|241:284,1,165.240001008545,2|8,1:2|0:0,0:0:0:0:
330,192,107444,2,0,P|325:236|320:299,1,82.6200005042725,0|2,0:0|1:2,0:0:0:0:
209,159,107785,1,0,0:0:0:0:
306,81,107956,2,0,P|350:85|413:91,1,82.6200005042725,8|0,0:0|0:0,0:0:0:0:
196,50,108297,6,0,P|109:62|19:72,2,165.240001008545,0|8|2,1:0|0:0|1:2,0:0:0:0:
105,179,109149,1,0,0:0:0:0:
222,237,109319,2,0,P|223:191|186:136,1,82.6200005042725,8|0,0:0|0:0,0:0:0:0:
128,339,109660,2,0,P|179:318|287:389,1,165.240001008545,2|8,1:2|0:0,0:0:0:0:
412,272,110172,2,0,P|404:312|395:374,1,82.6200005042725,4|6,0:3|1:3,0:0:0:0:
324,247,110513,1,8,0:3:0:0:
436,141,110683,5,10,0:0:0:0:
456,140,110768,1,2,0:0:0:0:
476,147,110853,1,2,0:0:0:0:
492,159,110938,1,2,0:0:0:0:
504,176,111024,2,0,P|489:260|475:349,2,165.240001008545,2|8|2,1:2|0:0|1:2,0:0:0:0:
405,31,111876,1,0,0:0:0:0:
298,143,112047,2,0,P|339:156|391:138,1,82.6200005042725,8|0,0:0|0:0,0:0:0:0:
246,54,112388,6,0,B|150:40|182:98|73:85,1,165.240001008545,2|10,1:2|0:0,0:0:0:0:
206,226,112899,2,0,P|208:182|217:138,1,82.6200005042725,2|2,0:0|1:2,0:0:0:0:
112,250,113240,1,0,0:0:0:0:
209,337,113410,2,0,P|249:330|290:327,1,82.6200005042725,8|0,0:0|0:0,0:0:0:0:
414,218,113751,6,0,P|370:215|326:207,1,82.6200005042725,2|0,1:2|3:0,0:0:0:0:
215,144,114092,1,8,0:0:0:0:
215,144,114263,1,0,3:0:0:0:
312,85,114433,1,0,1:0:0:0:
206,226,114603,1,0,3:0:0:0:
52,133,114774,1,8,0:0:0:0:
145,47,114944,6,0,L|120:240,1,165.240001008545,4|0,1:2|1:0,0:0:0:0:
148,300,115370,1,0,1:0:0:0:
148,300,115456,2,0,P|197:291|229:259,1,82.6200005042725,12|0,0:0|0:0,0:0:0:0:
297,125,115797,1,4,0:3:0:0:
211,55,115967,2,0,L|220:119,1,41.3100002521362,8|8,0:0|0:0,0:0:0:0:
321,247,116138,2,0,L|330:183,1,41.3100002521362,8|8,0:0|0:0,0:0:0:0:
431,115,116308,5,8,0:0:0:0:
437,97,116393,1,8,0:0:0:0:
442,78,116478,2,0,B|350:10|177:66|283:184|150:268|40:192,1,476.279985465088,4|8,1:2|0:0,0:0:0:0:
148,300,119035,5,0,1:2:0:0:
