osu file format v14

[General]
AudioFilename: audio.mp3
AudioLeadIn: 0
PreviewTime: 60738
Countdown: 0
SampleSet: Soft
StackLeniency: 0.7
Mode: 0
LetterboxInBreaks: 0
WidescreenStoryboard: 1

[Editor]
DistanceSpacing: 1
BeatDivisor: 4
GridSize: 32
TimelineZoom: 1.1

[Metadata]
Title:Forever Friends
TitleUnicode:Forever Friends
Artist:AiRBLUE
ArtistUnicode:AiRBLUE
Creator:Ninjaking311
Version:Normal
Source:CUE!
Tags:EnuHQ NakaRoniX Female Vocals Idols Japanese Pop J-Pop JPop Haruna Mutsuishi 六石陽菜 Yurina Uchiyama 内山悠里菜 Maika Takatori 鷹取舞花 Nene Hieda 稗田寧々 Shiho Kano 鹿野志穂 Kyoka Moriya Kyouka 亨香守屋 Honoka Tsukii 月居ほのか Yuna Ogata 佑奈緒方 Yuuki Tendo Tendou 天童悠希 Ayaka Takamura 彩花鷹村 Chisa Akagawa 赤川千紗 Satsuki Miyahara 宮原颯希 Airi Eniwa 恵庭あいり Mayu Iizuka 麻結飯塚 Yuzuha Kujo Kujou 九条柚葉 Manatsu Murakami まなつ村上 Miharu Yomine 夜峰美晴 Yukari Anzai 由香里安齋 Aya Kamuro 神室絢 Sakii Matsuda 彩希松田 Mahoro Miyaji 宮路まほろ Megumi Yamaguchi 愛山口 Riko Hinakura 日名倉莉子 Arisa Tsuruno 鶴野有紗 Rie Maruyama 丸山利恵 Hina Tachibana 橘陽菜 Satori Utsugi 宇津木聡里 Ami Komine 愛未小峯 Rinne Myojin Myoujin 明神凛音 Mai Sato Satou 舞佐藤 Mei Toomi 遠見鳴 Rio Tsuchiya 李央土屋 flower bird wind moon dialogue+ short cut ver version pv CUE! キュー! video game
BeatmapID:3576314
BeatmapSetID:1747658

[Difficulty]
HPDrainRate:3
CircleSize:3.2
OverallDifficulty:4
ApproachRate:5.5
SliderMultiplier:1.04
SliderTickRate:1

[Events]
//Background and Video events
Video,-50,"vid.mp4"
0,0,"bg.jpg",0,0
//Break Periods
//Storyboard Layer 0 (Background)
//Storyboard Layer 1 (Fail)
//Storyboard Layer 2 (Pass)
//Storyboard Layer 3 (Foreground)
//Storyboard Layer 4 (Overlay)
//Storyboard Sound Samples

[TimingPoints]
7388,340.909090909091,4,2,1,60,1,0
7388,-111.111111111111,4,2,1,60,0,0
18297,-100,4,2,1,80,0,0
18978,-100,4,2,10,80,0,0
19660,-100,4,2,20,80,0,0
20342,-100,4,2,18,80,0,0
21706,-100,4,2,10,80,0,0
22388,-100,4,2,20,80,0,0
23070,-100,4,2,18,80,0,0
23410,-100,4,2,1,80,0,0
24430,-100,4,2,10,80,0,0
25112,-100,4,2,20,80,0,0
25285,-100,4,2,1,80,0,0
25794,-100,4,2,18,80,0,0
26478,-100,4,2,13,80,0,0
26649,-100,4,2,1,80,0,0
29206,-117.647058823529,4,2,1,60,0,0
40115,-105.263157894737,4,2,1,70,0,0
51024,-111.111111111111,4,2,1,65,0,0
56478,-111.111111111111,4,2,1,75,0,0
59206,-111.111111111111,4,2,1,85,0,0
60910,-111.111111111111,4,2,13,60,0,0
61251,-111.111111111111,4,2,14,60,0,0
61336,-111.111111111111,4,2,1,60,0,0
61507,-111.111111111111,4,2,12,60,0,0
61592,-111.111111111111,4,2,1,60,0,0
61763,-111.111111111111,4,2,10,60,0,0
61848,-111.111111111111,4,2,1,60,0,0
61933,-100,4,2,20,85,0,0
62274,-100,4,2,18,85,0,0
62618,-100,4,2,20,85,0,0
62959,-100,4,2,18,85,0,0
63290,-100,4,2,20,85,0,0
63631,-100,4,2,18,85,0,0
63978,-100,4,2,19,85,0,0
64319,-100,4,2,18,85,0,0
64660,-100,4,2,10,85,0,0
65513,-100,4,2,12,85,0,0
65853,-100,4,2,10,85,0,0
66194,-100,4,2,20,85,0,0
67047,-100,4,2,17,85,0,0
67388,-100,4,2,20,85,0,0
67728,-100,4,2,18,85,0,0
68069,-100,4,2,20,85,0,0
68409,-100,4,2,19,85,0,0
68751,-100,4,2,12,85,0,0
69092,-100,4,2,10,85,0,0
69433,-100,4,2,20,85,0,0
69774,-100,4,2,18,85,0,0
70115,-100,4,2,20,85,0,0
70967,-100,4,2,10,85,0,0
71308,-100,4,2,20,85,0,0
71649,-100,4,2,18,85,0,0
72501,-100,4,2,13,85,0,0
73183,-100,4,2,11,85,0,0
73694,-100,4,2,10,85,0,0
74206,-100,4,2,20,85,0,0
74547,-100,4,2,1,85,0,0
75228,-100,4,2,16,85,0,0
75910,-100,4,2,17,85,0,0
76422,-100,4,2,12,85,0,0
76933,-100,4,2,10,85,0,0
77274,-100,4,2,1,85,0,0
78638,-100,4,2,18,85,0,0
78978,-100,4,2,14,85,0,0
79319,-100,4,2,18,85,0,0
80001,-100,4,2,16,85,0,0
80342,-100,4,2,18,85,0,0
80683,-100,4,2,20,85,0,0
81024,-100,4,2,10,90,0,0
81535,-100,4,2,20,90,0,0
82047,-100,4,2,12,90,0,0
82728,-100,4,2,13,70,0,0
83069,-100,4,2,14,70,0,0
83325,-100,4,2,12,70,0,0
83581,-100,4,2,10,70,0,0
83751,-100,4,2,20,85,0,0
84092,-100,4,2,18,85,0,0
84436,-100,4,2,20,85,0,0
84777,-100,4,2,18,85,0,0
85108,-100,4,2,20,85,0,0
85449,-100,4,2,18,85,0,0
85796,-100,4,2,19,85,0,0
86137,-100,4,2,18,85,0,0
86478,-100,4,2,10,85,0,0
87331,-100,4,2,12,85,0,0
87671,-100,4,2,10,85,0,0
88012,-100,4,2,20,85,0,0
88865,-100,4,2,17,85,0,0
89206,-100,4,2,20,85,0,0
89546,-100,4,2,18,85,0,0
89887,-100,4,2,20,85,0,0
90227,-100,4,2,19,85,0,0
90569,-100,4,2,12,85,0,0
90910,-100,4,2,10,85,0,0
91251,-100,4,2,20,85,0,0
91592,-100,4,2,18,85,0,0
92274,-100,4,2,20,85,0,0
92530,-100,4,2,18,85,0,0
92785,-100,4,2,14,85,0,0
93126,-100,4,2,10,85,0,0
93467,-100,4,2,20,85,0,0
93638,-100,4,2,18,85,0,0
94319,-100,4,2,13,85,0,0
95001,-100,4,2,11,85,0,0
95513,-100,4,2,10,85,0,0
96024,-100,4,2,20,85,0,0
96365,-100,4,2,1,85,0,0
97047,-100,4,2,17,85,0,0
97388,-100,4,2,21,85,0,0
97728,-100,4,2,10,85,0,0
97899,-100,4,2,20,85,0,0
98240,-100,4,2,10,85,0,0
98581,-100,4,2,20,85,0,0
98922,-100,4,2,18,85,0,0
99092,-100,4,2,1,85,0,0
100285,-100,4,2,12,85,0,0
100626,-100,4,2,10,85,0,0
100797,-100,4,2,12,85,0,0
101138,-100,4,2,10,85,0,0
101309,-100,4,2,12,85,0,0
101649,-100,4,2,10,85,0,0
101819,-100,4,2,18,85,0,0
102672,-100,4,2,14,85,0,0
102842,-100,4,2,14,90,0,0
104547,-100,4,2,13,60,0,0
104888,-100,4,2,12,60,0,0
104973,-100,4,2,1,60,0,0
105228,-100,4,2,20,60,0,0
105314,-100,4,2,1,60,0,0
105569,-100,4,2,12,80,0,0
106251,-100,4,2,10,80,0,0
106933,-100,4,2,20,80,0,0
107615,-100,4,2,18,80,0,0
108979,-100,4,2,10,80,0,0
109661,-100,4,2,20,80,0,0
110343,-100,4,2,18,80,0,0
110683,-100,4,2,1,80,0,0
111703,-100,4,2,10,80,0,0
112385,-100,4,2,20,80,0,0
112558,-100,4,2,1,80,0,0
113067,-100,4,2,18,80,0,0
113751,-100,4,2,13,80,0,0
113922,-100,4,2,1,80,0,0
116478,-142.857142857143,4,2,1,80,0,0

[Colours]
Combo1 : 164,100,240
Combo2 : 230,110,150
Combo3 : 100,200,200
Combo4 : 130,120,255

[HitObjects]
0,0,7388,5,6,1:2:0:0:
90,224,8751,2,0,L|277:186,1,187.199994287109,2|2,0:0|0:0,0:0:0:0:
365,23,10115,5,6,1:2:0:0:
512,201,11478,2,0,L|474:388,1,187.199994287109,2|10,0:0|0:3,0:0:0:0:
318,280,12842,5,6,1:2:0:0:
101,384,14206,2,0,L|63:200,1,187.199994287109,2|2,0:0|0:0,0:0:0:0:
228,112,15569,5,6,1:2:0:0:
347,281,16933,6,0,L|334:325,2,46.7999985717774,4|8|8,0:3|0:0|0:0,0:0:0:0:
385,253,17444,2,0,L|372:208,2,46.7999985717774,8|8|8,0:3|0:0|0:0,0:0:0:0:
427,274,17956,1,8,0:0:0:0:
488,189,18297,6,0,L|513:83,1,104,4|8,1:2|0:0,0:0:0:0:
448,5,18978,2,0,L|342:30,1,104,2|8,1:2|0:0,0:0:0:0:
324,78,19490,1,0,0:0:0:0:
324,78,19660,2,0,L|215:42,1,104,2|8,1:2|0:0,0:0:0:0:
179,32,20172,1,0,0:0:0:0:
179,32,20342,1,2,1:2:0:0:
109,109,20683,1,8,0:0:0:0:
20,54,21024,6,0,P|-10:90|3:148,1,104,0|8,1:0|0:0,0:0:0:0:
82,205,21706,2,0,P|85:255|56:298,1,104,2|8,1:2|0:0,0:0:0:0:
42,350,22217,1,0,0:0:0:0:
42,350,22388,2,0,P|91:362|152:381,1,104,2|8,1:2|0:0,0:0:0:0:
187,350,22899,1,4,0:3:0:0:
187,350,23069,2,0,L|176:293,2,52,6|8|10,1:3|0:3|0:0,0:0:0:0:
240,372,23581,5,2,0:0:0:0:
240,372,23751,2,0,P|300:368|335:328,1,104,2|8,1:2|0:0,0:0:0:0:
405,267,24433,2,0,L|383:163,1,104,2|8,1:2|0:0,0:0:0:0:
374,118,24944,1,0,0:0:0:0:
374,118,25115,2,0,L|270:140,1,104,2|10,1:2|0:0,0:0:0:0:
225,130,25626,1,2,0:0:0:0:
225,130,25797,1,2,1:2:0:0:
143,194,26138,1,8,0:0:0:0:
91,104,26478,6,0,P|80:54|112:16,1,104,2|8,1:2|0:0,0:0:0:0:
216,22,27160,2,0,L|266:35,1,52,0|0,1:0|3:0,0:0:0:0:
303,79,27501,1,8,0:0:0:0:
303,79,27672,2,0,L|411:49,1,104,4|0,1:2|1:0,0:0:0:0:
455,45,28183,1,12,0:0:0:0:
511,132,28524,2,0,L|495:182,1,52,4|8,0:3|0:0,0:0:0:0:
458,218,28865,2,0,L|473:267,1,52,8|8,0:0|0:0,0:0:0:0:
488,309,29206,6,0,P|454:336|410:335,1,88.4000016860962,0|2,1:0|1:2,0:0:0:0:
341,280,29888,1,2,1:2:0:0:
275,338,30228,1,2,1:2:0:0:
275,338,30399,2,0,P|225:296|161:302,1,132.600002529144,2|2,0:0|1:2,0:0:0:0:
126,328,31081,1,2,0:0:0:0:
126,328,31251,1,0,1:2:0:0:
62,265,31592,1,2,1:2:0:0:
0,201,31933,6,0,L|12:138,1,44.2000008430481,0|2,1:2|0:0,0:0:0:0:
38,125,32274,2,0,P|30:92|17:36,2,88.4000016860962,2|0|0,1:2|1:2|1:2,0:0:0:0:
116,166,33297,1,0,1:2:0:0:
68,240,33638,1,0,1:2:0:0:
130,302,33978,2,0,P|173:299|204:269,1,88.4000016860962,2|0,1:2|1:2,0:0:0:0:
291,253,34660,6,0,P|277:210|268:167,1,88.4000016860962,4|2,1:2|1:2,0:0:0:0:
297,84,35342,1,2,1:2:0:0:
221,45,35683,1,2,1:2:0:0:
221,45,35853,2,0,P|171:58|122:70,1,88.4000016860962,2|2,0:0|0:0,0:0:0:0:
92,79,36365,1,2,1:2:0:0:
16,125,36706,2,0,P|5:166|29:202,1,88.4000016860962,2|2,1:2|1:2,0:0:0:0:
79,281,37388,5,8,0:0:0:0:
79,281,37558,2,0,L|120:267,1,44.2000008430481,6|2,1:3|0:0,0:0:0:0:
149,228,37899,2,0,P|193:240|237:252,1,88.4000016860962,8|4,0:0|0:3,0:0:0:0:
276,264,38410,1,10,0:3:0:0:
350,215,38751,2,0,L|342:171,2,44.2000008430481,6|4|8,1:2|0:3|0:3,0:0:0:0:
388,237,39263,1,12,0:0:0:0:
499,165,39774,2,0,L|506:121,1,44.2000008430481,8|8,0:0|0:0,0:0:0:0:
512,72,40115,6,0,P|471:45|424:53,1,98.7999973617554,4|2,1:2|1:2,0:0:0:0:
384,79,40626,1,2,3:0:0:0:
384,79,40797,2,0,L|403:184,1,98.7999973617554,2|2,1:2|1:2,0:0:0:0:
411,224,41308,1,2,3:0:0:0:
348,300,41649,1,14,0:0:0:0:
265,246,41990,1,10,0:3:0:0:
188,308,42331,2,0,L|200:368,2,49.3999986808777,6|2|10,0:3|1:3|3:3,0:0:0:0:
144,284,42842,6,0,P|96:291|57:262,1,98.7999973617554,4|2,1:2|1:2,0:0:0:0:
29,167,43524,1,2,1:2:0:0:
109,109,43865,1,2,1:2:0:0:
50,36,44206,1,2,1:2:0:0:
50,36,44376,2,0,L|1:47,2,49.3999986808777,2|2|2,0:1|1:2|0:1,0:0:0:0:
84,0,44888,1,10,0:2:0:0:
168,53,45228,2,0,L|152:108,1,49.3999986808777,2|10,1:2|0:0,0:0:0:0:
118,134,45569,6,0,L|145:250,1,98.7999973617554,4|2,1:2|1:2,0:0:0:0:
174,266,46081,1,2,0:0:0:0:
252,206,46422,2,0,L|311:220,1,49.3999986808777,2|2,0:0|1:2,0:0:0:0:
352,232,46763,1,2,0:0:0:0:
352,232,46933,2,0,L|340:280,2,49.3999986808777,4|6|8,1:2|0:3|0:3,0:0:0:0:
395,209,47444,1,14,0:0:0:0:
481,162,47785,1,10,0:3:0:0:
481,162,47956,2,0,L|470:93,1,49.3999986808777,10|10,0:0|0:0,0:0:0:0:
463,64,48297,6,0,P|415:55|372:78,1,98.7999973617554,4|2,1:2|1:2,0:0:0:0:
343,118,48808,1,2,0:0:0:0:
260,63,49149,2,0,L|272:-5,2,49.3999986808777,2|2|2,0:0|1:2|0:0,0:0:0:0:
219,90,49660,2,0,L|227:138,1,49.3999986808777,14|0,0:0|1:2,0:0:0:0:
257,178,50001,1,2,1:2:0:0:
210,265,50342,2,0,L|162:252,1,49.3999986808777,6|4,0:3|0:3,0:0:0:0:
132,212,50683,2,0,L|84:224,1,49.3999986808777,10|8,0:3|0:3,0:0:0:0:
40,242,51024,6,0,P|0:187|19:122,1,140.399995715332,6|2,1:2|1:2,0:0:0:0:
85,56,51876,1,2,3:0:0:0:
167,113,52217,1,2,0:0:0:0:
167,113,52388,2,0,L|212:101,1,46.7999985717774,0|8,1:2|0:0,0:0:0:0:
238,62,52728,2,0,L|283:74,1,46.7999985717774,2|8,1:2|0:0,0:0:0:0:
328,85,53069,1,6,1:3:0:0:
405,33,53410,1,10,1:3:0:0:
473,97,53751,6,0,P|489:162|447:215,1,140.399995715332,6|2,1:2|1:2,0:0:0:0:
362,175,54603,1,2,3:0:0:0:
295,240,54944,1,2,0:0:0:0:
295,240,55115,2,0,L|306:298,2,46.7999985717774,6|8|8,0:3|0:0|0:0,0:0:0:0:
253,218,55626,1,12,0:0:0:0:
177,163,55967,1,8,0:3:0:0:
177,163,56138,2,0,L|185:117,1,46.7999985717774,10|8,0:0|0:0,0:0:0:0:
183,70,56478,6,0,P|228:61|274:48,1,93.5999971435548,6|2,1:2|1:2,0:0:0:0:
301,11,56990,1,0,3:0:0:0:
301,11,57160,2,0,L|365:30,1,46.7999985717774,2|0,1:2|3:0,0:0:0:0:
390,39,57501,1,2,1:2:0:0:
471,86,57842,2,0,L|457:149,1,46.7999985717774,2|8,1:2|0:0,0:0:0:0:
425,162,58183,2,0,L|439:225,1,46.7999985717774,10|8,0:0|0:0,0:0:0:0:
472,236,58524,2,0,L|458:299,1,46.7999985717774,10|4,0:0|0:3,0:0:0:0:
432,318,58865,1,10,0:3:0:0:
355,264,59206,6,0,P|309:262|273:291,1,93.5999971435548,6|0,1:2|1:2,0:0:0:0:
246,329,59717,2,0,P|200:330|164:301,1,93.5999971435548,12|0,0:0|1:2,0:0:0:0:
140,261,60228,1,12,0:0:0:0:
73,91,61251,6,0,L|5:110,2,70.1999978576661,2|2|2,0:0|0:0|0:0,0:0:0:0:
101,47,61933,6,0,L|159:62,1,52,6|0,1:2|0:0,0:0:0:0:
176,105,62274,2,0,L|234:89,1,52,10|0,0:0|0:0,0:0:0:0:
276,77,62615,2,0,P|308:115|302:165,1,104,2|10,1:2|0:0,0:0:0:0:
274,210,63126,1,0,0:0:0:0:
274,210,63297,1,2,1:2:0:0:
344,286,63638,1,10,0:0:0:0:
430,228,63978,2,0,L|417:177,1,52,2|0,1:2|0:0,0:0:0:0:
374,147,64319,2,0,L|388:96,1,52,10|0,0:0|0:0,0:0:0:0:
407,48,64660,6,0,P|450:75|500:66,2,104,2|8|0,1:2|0:0|1:2,0:0:0:0:
374,6,65513,2,0,P|324:-3|280:24,1,104,2|2,0:0|0:0,0:0:0:0:
244,61,66024,1,0,1:2:0:0:
313,138,66365,1,8,0:0:0:0:
248,219,66706,2,0,L|265:286,1,52,0|8,1:2|0:3,0:0:0:0:
277,318,67047,1,14,0:0:0:0:
198,384,67388,6,0,L|148:371,1,52,6|0,1:2|0:0,0:0:0:0:
125,323,67728,2,0,L|75:337,1,52,10|0,0:0|0:0,0:0:0:0:
24,350,68069,2,0,P|-4:308|6:258,1,104,2|10,1:2|0:0,0:0:0:0:
49,227,68581,1,0,0:0:0:0:
49,227,68751,2,0,L|38:175,1,52,2|0,1:2|0:0,0:0:0:0:
3,137,69092,2,0,L|14:85,1,52,10|0,0:0|0:0,0:0:0:0:
45,44,69433,1,2,1:2:0:0:
134,97,69774,1,10,0:0:0:0:
220,39,70115,6,0,P|269:24|319:7,2,104,2|8|0,1:2|0:0|1:2,0:0:0:0:
218,91,70967,2,0,P|233:140|234:159,1,52,2|8,3:0|0:0,0:0:0:0:
232,192,71308,1,2,3:0:0:0:
134,170,71649,1,2,0:0:0:0:
134,170,71819,2,0,P|84:159|42:188,1,104,12|4,0:0|0:3,0:0:0:0:
20,236,72331,1,8,0:0:0:0:
20,236,72501,2,0,L|33:286,1,52,10|8,0:0|0:0,0:0:0:0:
71,320,72842,6,0,P|122:328|171:344,1,104,6|10,1:2|0:0,0:0:0:0:
211,378,73353,1,2,0:0:0:0:
288,309,73694,1,2,0:0:0:0:
382,364,74035,1,2,0:0:0:0:
382,364,74206,2,0,P|441:354|467:306,1,104,2|10,1:2|0:0,0:0:0:0:
505,287,74717,2,0,P|488:237|472:183,1,104,2|2,0:0|0:0,0:0:0:0:
453,139,75228,1,10,0:0:0:0:
358,181,75569,6,0,P|308:197|258:212,1,104,2|10,1:2|0:0,0:0:0:0:
207,225,76081,1,2,0:0:0:0:
130,154,76422,1,2,0:0:0:0:
176,62,76763,1,2,0:0:0:0:
176,62,76933,2,0,P|225:78|275:93,1,104,2|10,1:2|0:0,0:0:0:0:
310,138,77444,1,2,0:0:0:0:
310,138,77615,2,0,P|334:128|358:120,1,52,0|6,1:2|0:3,0:0:0:0:
408,103,77956,2,0,P|441:140|435:190,1,104,8|6,0:0|1:2,0:0:0:0:
433,295,78638,6,0,P|380:281|317:270,1,104,10|2,0:0|1:2,0:0:0:0:
287,255,79149,1,0,3:0:0:0:
287,255,79319,2,0,L|296:203,1,52,10|0,0:0|3:0,0:0:0:0:
334,167,79660,2,0,L|324:115,1,52,2|0,1:2|3:0,0:0:0:0:
309,65,80001,1,10,0:0:0:0:
210,98,80342,2,0,L|160:114,1,52,2|8,1:2|0:3,0:0:0:0:
110,128,80683,1,10,0:0:0:0:
58,218,81024,6,0,L|7:207,2,52,14|4|8,0:0|0:3|1:3,0:0:0:0:
83,263,81535,2,0,L|133:252,1,52,14|4,0:0|0:3,0:0:0:0:
171,216,81876,1,8,1:3:0:0:
171,216,82047,1,14,0:0:0:0:
335,334,82899,5,0,1:2:0:0:
335,334,83069,2,0,L|323:385,2,52,10|4|12,0:0|0:3|0:0,0:0:0:0:
383,310,83581,5,10,0:0:0:0:
383,310,83751,2,0,L|371:260,1,52,6|0,1:2|0:0,0:0:0:0:
326,232,84092,2,0,L|338:182,1,52,10|0,0:0|0:0,0:0:0:0:
353,131,84433,2,0,P|402:119|444:146,1,104,2|10,1:2|0:0,0:0:0:0:
474,195,84944,1,0,0:0:0:0:
474,195,85115,1,2,1:2:0:0:
411,278,85456,1,10,0:0:0:0:
329,213,85797,2,0,L|280:229,1,52,2|0,1:2|0:0,0:0:0:0:
245,268,86138,2,0,L|196:252,1,52,10|0,0:0|0:0,0:0:0:0:
144,240,86478,6,0,P|113:280|123:330,2,104,2|8|0,1:2|0:0|1:2,0:0:0:0:
124,191,87331,2,0,P|110:142|85:94,1,104,2|2,0:0|0:0,0:0:0:0:
57,51,87842,1,0,1:2:0:0:
145,0,88183,1,8,0:0:0:0:
212,79,88524,2,0,L|262:61,1,52,0|8,1:2|0:3,0:0:0:0:
310,44,88865,1,14,0:0:0:0:
390,109,89206,6,0,L|380:161,1,52,6|0,1:2|0:0,0:0:0:0:
338,191,89547,2,0,L|348:243,1,52,10|0,0:0|0:0,0:0:0:0:
359,292,89888,2,0,P|408:303|452:279,1,104,2|10,1:2|0:0,0:0:0:0:
494,245,90399,1,0,0:0:0:0:
494,245,90569,2,0,L|479:196,1,52,2|0,1:2|0:0,0:0:0:0:
461,145,90910,2,0,L|447:96,1,52,10|0,0:0|0:0,0:0:0:0:
429,45,91251,1,2,1:2:0:0:
345,106,91592,2,0,P|294:109|252:80,1,104,10|0,0:0|1:2,0:0:0:0:
147,76,92274,6,0,L|162:-1,2,78,10|2|2,0:0|0:0|3:0,0:0:0:0:
107,108,92956,1,8,0:0:0:0:
107,108,93126,2,0,L|119:159,1,52,2|8,3:0|0:3,0:0:0:0:
136,213,93467,1,2,0:0:0:0:
136,213,93638,1,10,0:0:0:0:
228,259,93978,2,0,L|216:310,1,52,4|8,0:3|0:0,0:0:0:0:
210,361,94319,2,0,L|159:374,1,52,10|8,0:0|0:0,0:0:0:0:
107,380,94660,6,0,L|76:281,1,104,6|10,1:2|0:0,0:0:0:0:
57,231,95172,1,2,0:0:0:0:
129,156,95513,1,2,0:0:0:0:
48,90,95853,1,2,0:0:0:0:
48,90,96024,2,0,P|53:39|92:7,1,104,2|10,1:2|0:0,0:0:0:0:
143,3,96535,2,0,P|192:17|246:30,1,104,2|2,0:0|0:0,0:0:0:0:
294,42,97047,1,10,0:0:0:0:
346,131,97388,6,0,P|386:99|436:104,1,104,2|10,1:2|0:0,0:0:0:0:
478,133,97899,1,2,0:0:0:0:
427,224,98240,1,2,0:0:0:0:
511,293,98581,1,2,0:0:0:0:
511,293,98751,2,0,P|516:344|485:384,1,104,0|8,1:2|0:0,0:0:0:0:
434,371,99263,2,0,L|383:358,1,52,2|0,0:0|1:2,0:0:0:0:
338,346,99603,1,6,0:3:0:0:
338,346,99774,1,8,0:0:0:0:
299,254,100115,5,4,1:2:0:0:
299,254,100286,2,0,P|249:268|198:280,1,104,2|2,0:2|0:0,0:0:0:0:
171,325,100797,2,0,P|121:309|70:297,1,104,10|10,1:3|0:0,0:0:0:0:
21,281,101308,2,0,P|9:232|38:187,1,104,2|2,3:0|1:2,0:0:0:0:
84,165,101819,1,10,0:0:0:0:
84,165,101990,1,2,1:2:0:0:
69,62,102331,2,0,L|119:49,1,52,6|8,1:3|0:0,0:0:0:0:
175,66,102672,5,10,0:3:0:0:
175,66,102842,2,0,L|163:117,2,52,12|4|0,0:0|0:3|1:2,0:0:0:0:
225,50,103353,2,0,L|213:0,2,52,12|4|0,0:0|0:3|1:2,0:0:0:0:
269,77,103865,2,0,L|320:65,1,52,12|0,0:0|1:2,0:0:0:0:
370,54,104206,1,12,0:0:0:0:
498,285,105058,5,2,1:2:0:0:
498,285,105228,1,14,0:0:0:0:
440,371,105569,6,0,L|334:346,1,104,6|8,1:2|0:0,0:0:0:0:
283,258,106250,2,0,P|232:274|182:287,1,104,2|8,1:2|0:0,0:0:0:0:
135,299,106763,1,0,0:0:0:0:
135,299,106932,2,0,P|107:256|115:206,1,104,2|8,1:2|0:0,0:0:0:0:
155,171,107444,1,0,0:0:0:0:
155,171,107615,1,2,1:2:0:0:
76,102,107956,1,8,0:0:0:0:
0,173,108297,6,0,L|24:286,1,104,0|8,1:0|0:0,0:0:0:0:
45,375,108978,2,0,P|95:378|135:346,1,104,2|8,1:2|0:0,0:0:0:0:
162,302,109490,1,0,0:0:0:0:
162,302,109660,2,0,P|212:299|252:331,1,104,2|8,1:2|0:0,0:0:0:0:
308,332,110171,1,4,0:3:0:0:
308,332,110341,2,0,L|299:384,2,52,6|8|10,1:3|0:3|0:0,0:0:0:0:
357,309,110853,5,2,0:0:0:0:
357,309,111023,2,0,P|407:294|455:274,1,104,2|8,1:2|0:0,0:0:0:0:
504,182,111706,2,0,P|489:130|469:84,1,104,2|8,1:2|0:0,0:0:0:0:
455,39,112217,1,0,0:0:0:0:
455,39,112388,2,0,P|404:31|362:60,1,104,2|10,1:2|0:0,0:0:0:0:
338,108,112899,1,2,0:0:0:0:
338,108,113069,1,2,1:2:0:0:
246,58,113410,1,8,0:0:0:0:
180,138,113751,6,0,P|176:188|208:228,1,104,2|8,1:2|0:0,0:0:0:0:
241,322,114432,2,0,L|291:308,1,52,0|0,1:0|3:0,0:0:0:0:
323,268,114773,1,8,0:0:0:0:
323,268,114944,2,0,P|378:280|431:290,1,104,4|0,1:2|1:0,0:0:0:0:
465,321,115455,1,12,0:0:0:0:
512,231,115796,2,0,L|496:181,1,52,4|8,0:3|0:0,0:0:0:0:
452,152,116137,2,0,L|467:103,1,52,8|8,0:0|0:0,0:0:0:0:
481,55,116478,6,0,B|339:-33|239:105|300:147|206:287|59:191,1,509.599984448243,4|8,1:2|0:0,0:0:0:0:
34,172,119035,5,0,1:2:0:0:
