osu file format v14

[General]
AudioFilename: audio.mp3
AudioLeadIn: 0
PreviewTime: 60738
Countdown: 0
SampleSet: Soft
StackLeniency: 0.7
Mode: 0
LetterboxInBreaks: 0
WidescreenStoryboard: 1

[Editor]
DistanceSpacing: 1.2
BeatDivisor: 4
GridSize: 32
TimelineZoom: 1.5

[Metadata]
Title:Forever Friends
TitleUnicode:Forever Friends
Artist:AiRBLUE
ArtistUnicode:AiRBLUE
Creator:Ninjaking311
Version:Enu's Hard
Source:CUE!
Tags:EnuHQ NakaRoniX Female Vocals Idols Japanese Pop J-Pop JPop Haruna Mutsuishi 六石陽菜 Yurina Uchiyama 内山悠里菜 Maika Takatori 鷹取舞花 Nene Hieda 稗田寧々 Shiho Kano 鹿野志穂 Kyoka Moriya Kyouka 亨香守屋 Honoka Tsukii 月居ほのか Yuna Ogata 佑奈緒方 Yuuki Tendo Tendou 天童悠希 Ayaka Takamura 彩花鷹村 Chisa Akagawa 赤川千紗 Satsuki Miyahara 宮原颯希 Airi Eniwa 恵庭あいり Mayu Iizuka 麻結飯塚 Yuzuha Kujo Kujou 九条柚葉 Manatsu Murakami まなつ村上 Miharu Yomine 夜峰美晴 Yukari Anzai 由香里安齋 Aya Kamuro 神室絢 Sakii Matsuda 彩希松田 Mahoro Miyaji 宮路まほろ Megumi Yamaguchi 愛山口 Riko Hinakura 日名倉莉子 Arisa Tsuruno 鶴野有紗 Rie Maruyama 丸山利恵 Hina Tachibana 橘陽菜 Satori Utsugi 宇津木聡里 Ami Komine 愛未小峯 Rinne Myojin Myoujin 明神凛音 Mai Sato Satou 舞佐藤 Mei Toomi 遠見鳴 Rio Tsuchiya 李央土屋 flower bird wind moon dialogue+ short cut ver version pv CUE! キュー! video game
BeatmapID:3585092
BeatmapSetID:1747658

[Difficulty]
HPDrainRate:4
CircleSize:3.6
OverallDifficulty:6.4
ApproachRate:8
SliderMultiplier:1.44
SliderTickRate:1

[Events]
//Background and Video events
Video,-50,"vid.mp4"
0,0,"bg.jpg",0,0
//Break Periods
//Storyboard Layer 0 (Background)
//Storyboard Layer 1 (Fail)
//Storyboard Layer 2 (Pass)
//Storyboard Layer 3 (Foreground)
//Storyboard Layer 4 (Overlay)
//Storyboard Sound Samples

[TimingPoints]
7388,340.909090909091,4,2,1,60,1,0
7388,-135.135135135135,4,2,1,60,0,0
15569,-185.185185185185,4,2,1,60,0,0
17615,-119.047619047619,4,2,1,60,0,0
18297,-96.1538461538461,4,2,1,80,0,0
18978,-96.1538461538461,4,2,10,80,0,0
19660,-96.1538461538461,4,2,20,80,0,0
20342,-96.1538461538461,4,2,18,80,0,0
21706,-96.1538461538461,4,2,10,80,0,0
22388,-96.1538461538461,4,2,20,80,0,0
23069,-96.1538461538461,4,2,18,80,0,0
23410,-96.1538461538461,4,2,1,80,0,0
24430,-96.1538461538461,4,2,10,80,0,0
24433,-96.1538461538461,4,2,10,80,0,0
25112,-96.1538461538461,4,2,20,80,0,0
25115,-96.1538461538461,4,2,20,80,0,0
25285,-96.1538461538461,4,2,1,80,0,0
25794,-96.1538461538461,4,2,18,80,0,0
25797,-96.1538461538461,4,2,18,80,0,0
26478,-96.1538461538461,4,2,13,80,0,0
26648,-96.1538461538461,4,2,1,80,0,0
29206,-119.047619047619,4,2,1,60,0,0
40115,-106.382978723404,4,2,1,70,0,0
51024,-119.047619047619,4,2,1,65,0,0
56478,-119.047619047619,4,2,1,75,0,0
59206,-119.047619047619,4,2,1,85,0,0
60910,-119.047619047619,4,2,13,60,0,0
61251,-119.047619047619,4,2,14,60,0,0
61336,-119.047619047619,4,2,1,60,0,0
61506,-119.047619047619,4,2,12,60,0,0
61592,-119.047619047619,4,2,1,60,0,0
61762,-119.047619047619,4,2,10,60,0,0
61847,-119.047619047619,4,2,1,60,0,0
61933,-96.1538461538461,4,2,20,85,0,0
62273,-96.1538461538461,4,2,18,85,0,0
62615,-96.1538461538461,4,2,18,85,0,0
62618,-96.1538461538461,4,2,20,85,0,0
62956,-96.1538461538461,4,2,20,85,0,0
62959,-96.1538461538461,4,2,18,85,0,0
63290,-96.1538461538461,4,2,20,85,0,0
63297,-96.1538461538461,4,2,20,85,0,0
63631,-96.1538461538461,4,2,18,85,0,0
63638,-96.1538461538461,4,2,18,85,0,0
63978,-96.1538461538461,4,2,19,85,0,0
64319,-96.1538461538461,4,2,18,85,0,0
64660,-96.1538461538461,4,2,10,85,0,0
65513,-96.1538461538461,4,2,12,85,0,0
65853,-96.1538461538461,4,2,10,85,0,0
66194,-96.1538461538461,4,2,20,85,0,0
67047,-96.1538461538461,4,2,17,85,0,0
67388,-96.1538461538461,4,2,20,85,0,0
67728,-96.1538461538461,4,2,18,85,0,0
68069,-96.1538461538461,4,2,20,85,0,0
68410,-96.1538461538461,4,2,19,85,0,0
68751,-96.1538461538461,4,2,12,85,0,0
69092,-96.1538461538461,4,2,10,85,0,0
69433,-96.1538461538461,4,2,20,85,0,0
69774,-96.1538461538461,4,2,18,85,0,0
70115,-96.1538461538461,4,2,20,85,0,0
70967,-96.1538461538461,4,2,10,85,0,0
71308,-96.1538461538461,4,2,20,85,0,0
71649,-96.1538461538461,4,2,18,85,0,0
72501,-96.1538461538461,4,2,13,85,0,0
73182,-96.1538461538461,4,2,11,85,0,0
73694,-96.1538461538461,4,2,10,85,0,0
74206,-96.1538461538461,4,2,20,85,0,0
74547,-96.1538461538461,4,2,1,85,0,0
75228,-96.1538461538461,4,2,16,85,0,0
75909,-96.1538461538461,4,2,17,85,0,0
76422,-96.1538461538461,4,2,12,85,0,0
76933,-96.1538461538461,4,2,10,85,0,0
77274,-96.1538461538461,4,2,1,85,0,0
78638,-96.1538461538461,4,2,18,85,0,0
78978,-96.1538461538461,4,2,14,85,0,0
79319,-96.1538461538461,4,2,18,85,0,0
80001,-96.1538461538461,4,2,16,85,0,0
80342,-96.1538461538461,4,2,18,85,0,0
80683,-96.1538461538461,4,2,20,85,0,0
81024,-96.1538461538461,4,2,10,90,0,0
81535,-96.1538461538461,4,2,20,90,0,0
82047,-96.1538461538461,4,2,12,90,0,0
82728,-96.1538461538461,4,2,13,70,0,0
83069,-96.1538461538461,4,2,14,70,0,0
83325,-96.1538461538461,4,2,12,70,0,0
83581,-96.1538461538461,4,2,10,70,0,0
83751,-96.1538461538461,4,2,20,85,0,0
84091,-96.1538461538461,4,2,18,85,0,0
84433,-96.1538461538461,4,2,18,85,0,0
84436,-96.1538461538461,4,2,20,85,0,0
84774,-96.1538461538461,4,2,20,85,0,0
84777,-96.1538461538461,4,2,18,85,0,0
85108,-96.1538461538461,4,2,20,85,0,0
85115,-96.1538461538461,4,2,20,85,0,0
85449,-96.1538461538461,4,2,18,85,0,0
85456,-96.1538461538461,4,2,18,85,0,0
85797,-96.1538461538461,4,2,19,85,0,0
86138,-96.1538461538461,4,2,18,85,0,0
86478,-96.1538461538461,4,2,10,85,0,0
87331,-96.1538461538461,4,2,12,85,0,0
87672,-96.1538461538461,4,2,10,85,0,0
88012,-96.1538461538461,4,2,20,85,0,0
88865,-96.1538461538461,4,2,17,85,0,0
89206,-96.1538461538461,4,2,20,85,0,0
89546,-96.1538461538461,4,2,18,85,0,0
89888,-96.1538461538461,4,2,20,85,0,0
90228,-96.1538461538461,4,2,19,85,0,0
90569,-96.1538461538461,4,2,12,85,0,0
90910,-96.1538461538461,4,2,10,85,0,0
91251,-96.1538461538461,4,2,20,85,0,0
91592,-96.1538461538461,4,2,18,85,0,0
92274,-96.1538461538461,4,2,20,85,0,0
92530,-96.1538461538461,4,2,18,85,0,0
92785,-96.1538461538461,4,2,14,85,0,0
93126,-96.1538461538461,4,2,10,85,0,0
93467,-96.1538461538461,4,2,20,85,0,0
93638,-96.1538461538461,4,2,18,85,0,0
94319,-96.1538461538461,4,2,13,85,0,0
95000,-96.1538461538461,4,2,11,85,0,0
95513,-96.1538461538461,4,2,10,85,0,0
96024,-96.1538461538461,4,2,20,85,0,0
96364,-96.1538461538461,4,2,1,85,0,0
97046,-96.1538461538461,4,2,17,85,0,0
97388,-96.1538461538461,4,2,21,85,0,0
97728,-96.1538461538461,4,2,10,85,0,0
97899,-96.1538461538461,4,2,20,85,0,0
98240,-96.1538461538461,4,2,10,85,0,0
98581,-96.1538461538461,4,2,20,85,0,0
98922,-96.1538461538461,4,2,18,85,0,0
99092,-96.1538461538461,4,2,1,85,0,0
99263,-96.1538461538461,4,2,1,85,0,0
100285,-96.1538461538461,4,2,12,85,0,0
100626,-96.1538461538461,4,2,10,85,0,0
100797,-96.1538461538461,4,2,12,85,0,0
101138,-96.1538461538461,4,2,10,85,0,0
101308,-96.1538461538461,4,2,12,85,0,0
101648,-96.1538461538461,4,2,10,85,0,0
101819,-96.1538461538461,4,2,18,85,0,0
102671,-96.1538461538461,4,2,14,85,0,0
102842,-96.1538461538461,4,2,14,90,0,0
104547,-96.1538461538461,4,2,13,60,0,0
104888,-96.1538461538461,4,2,12,60,0,0
104973,-96.1538461538461,4,2,1,60,0,0
105058,-96.1538461538461,4,2,1,60,0,0
105228,-96.1538461538461,4,2,20,60,0,0
105314,-96.1538461538461,4,2,1,60,0,0
105569,-96.1538461538461,4,2,12,80,0,0
106251,-96.1538461538461,4,2,10,80,0,0
106933,-96.1538461538461,4,2,20,80,0,0
107615,-96.1538461538461,4,2,18,80,0,0
108978,-96.1538461538461,4,2,10,80,0,0
109660,-96.1538461538461,4,2,20,80,0,0
110342,-96.1538461538461,4,2,18,80,0,0
110683,-96.1538461538461,4,2,1,80,0,0
111703,-96.1538461538461,4,2,10,80,0,0
111706,-96.1538461538461,4,2,10,80,0,0
112385,-96.1538461538461,4,2,20,80,0,0
112388,-96.1538461538461,4,2,20,80,0,0
112558,-96.1538461538461,4,2,1,80,0,0
113069,-96.1538461538461,4,2,18,80,0,0
113751,-96.1538461538461,4,2,13,80,0,0
113921,-96.1538461538461,4,2,1,80,0,0
116478,-208.333333333333,4,2,1,80,0,0

[Colours]
Combo1 : 164,100,240
Combo2 : 230,110,150
Combo3 : 100,200,200
Combo4 : 130,120,255

[HitObjects]
216,88,7388,6,0,P|108:58|10:32,2,213.12,6|2|2,1:2|0:0|0:0,0:0:0:0:
421,215,9433,1,2,0:0:0:0:
353,4,10115,6,0,P|324:106|297:209,2,213.12,6|2|2,1:2|0:0|0:0,0:0:0:0:
512,173,12160,1,10,0:3:0:0:
356,292,12842,6,0,B|268:320|268:320|255:353|255:353|166:379,2,213.12,6|2|2,1:2|0:0|0:0,0:0:0:0:
511,198,14888,1,2,0:0:0:0:
353,4,15569,6,0,P|190:45|46:86,1,311.04,6|4,1:2|0:3,0:0:0:0:
0,163,17103,1,8,0:0:0:0:
0,163,17189,1,8,0:0:0:0:
0,163,17274,1,8,0:0:0:0:
73,229,17444,1,8,0:3:0:0:
0,316,17615,2,0,L|32:323,3,30.24,8|8|8|8,0:0|0:0|0:0|0:0,0:0:0:0:
53,344,17956,2,0,L|85:336,3,30.24,8|4|4|8,0:0|0:3|0:3|0:3,0:0:0:0:
113,323,18297,6,0,P|185:341|258:359,1,149.76,4|8,1:2|0:0,0:0:0:0:
336,287,18808,1,0,0:0:0:0:
425,384,18978,2,0,P|432:345|441:311,1,74.88,2|0,1:2|0:0,0:0:0:0:
512,231,19319,2,0,P|505:192|495:158,1,74.88,8|0,0:0|0:0,0:0:0:0:
404,103,19660,6,0,P|348:112|294:128,1,112.319999314453,2|0,1:2|0:0,0:0:0:0:
273,156,20001,2,0,P|234:149|200:139,1,74.88,8|0,0:0|0:0,0:0:0:0:
108,80,20342,1,2,1:2:0:0:
108,80,20513,1,0,0:0:0:0:
40,165,20683,2,0,P|50:200|56:237,1,74.88,8|0,0:0|0:0,0:0:0:0:
132,324,21024,6,0,B|193:337|193:337|206:364|206:364|269:379,1,149.76,0|8,1:0|0:0,0:0:0:0:
350,301,21535,1,0,0:0:0:0:
267,226,21706,2,0,P|260:187|250:153,1,74.88,2|0,1:2|0:0,0:0:0:0:
152,106,22047,2,0,P|159:67|169:33,1,74.88,8|0,0:0|0:0,0:0:0:0:
274,0,22388,6,0,P|314:59|385:52,1,149.76,2|8,1:2|0:0,0:0:0:0:
481,103,22899,1,4,0:3:0:0:
400,190,23069,1,6,1:3:0:0:
400,190,23240,1,8,0:3:0:0:
478,261,23410,2,0,P|468:296|462:333,1,74.8799995429687,10|2,0:0|0:0,0:0:0:0:
451,366,23666,5,2,0:0:0:0:
451,366,23751,2,0,B|353:332|353:332|334:353|316:374,1,149.76,2|8,1:2|0:0,0:0:0:0:
237,280,24263,1,0,0:0:0:0:
154,384,24433,2,0,P|147:347|137:311,1,74.88,2|0,1:2|0:0,0:0:0:0:
53,248,24774,2,0,P|63:212|69:175,1,74.88,8|0,0:0|0:0,0:0:0:0:
106,47,25115,6,0,P|148:102|222:89,1,149.76,2|10,1:2|0:0,0:0:0:0:
291,9,25626,1,2,0:0:0:0:
364,92,25797,2,0,P|353:127|347:164,1,74.88,2|0,1:2|0:0,0:0:0:0:
450,175,26138,2,0,P|439:210|433:247,1,74.88,8|0,0:0|0:0,0:0:0:0:
512,333,26478,6,0,P|475:336|445:357,1,74.88,2|0,1:2|3:0,0:0:0:0:
342,310,26819,2,0,P|305:306|275:285,1,74.88,8|0,0:0|3:0,0:0:0:0:
214,193,27160,1,0,1:0:0:0:
214,193,27331,1,0,3:0:0:0:
139,273,27501,1,8,0:0:0:0:
54,210,27672,6,0,P|38:146|17:65,1,149.76,4|0,1:2|1:0,0:0:0:0:
48,37,28098,1,0,1:0:0:0:
48,37,28183,2,0,P|83:26|120:20,1,74.88,12|0,0:0|0:0,0:0:0:0:
208,71,28524,1,4,0:3:0:0:
297,8,28694,1,8,0:0:0:0:
297,8,28780,1,8,0:0:0:0:
297,8,28865,2,0,L|309:56,3,37.44,8|8|8|8,0:0|0:0|0:0|0:0,0:0:0:0:
321,70,29206,6,0,P|363:25|417:35,2,120.96,0|2|2,1:0|1:2|1:2,0:0:0:0:
192,277,30228,5,2,1:2:0:0:
192,277,30399,2,0,P|177:213|163:159,1,120.96,2|2,0:0|0:0,0:0:0:0:
71,212,30910,1,2,1:2:0:0:
71,212,31081,2,0,P|56:148|42:94,1,120.96,2|2,0:0|0:0,0:0:0:0:
109,18,31592,5,2,1:2:0:0:
109,18,31763,2,0,B|157:29|157:29|169:51|169:51|218:61,1,120.96,2|2,0:0|0:0,0:0:0:0:
294,4,32274,1,2,1:2:0:0:
400,111,32615,1,0,1:2:0:0:
294,218,32956,1,0,1:2:0:0:
398,326,33297,6,0,P|366:332|339:339,1,60.48,0|0,1:2|0:0,0:0:0:0:
251,364,33638,2,0,P|219:357|192:350,1,60.48,0|0,1:2|0:0,0:0:0:0:
106,384,33978,2,0,P|77:333|101:280,1,120.96,2|0,1:2|1:2,0:0:0:0:
215,169,34660,6,0,P|185:161|155:155,1,60.48,4|2,1:2|0:0,0:0:0:0:
76,80,35001,2,0,P|105:74|135:66,1,60.48,2|2,1:2|0:0,0:0:0:0:
199,5,35342,2,0,P|263:20|317:34,1,120.96,2|2,1:2|1:2,0:0:0:0:
402,69,35853,6,0,P|378:122|407:172,1,120.96,2|2,0:0|0:0,0:0:0:0:
476,231,36365,2,0,P|468:260|462:289,1,60.48,2|0,1:2|0:0,0:0:0:0:
386,353,36706,2,0,P|328:337|269:321,1,120.959996308594,2|2,1:2|1:2,0:0:0:0:
136,364,37388,5,8,0:0:0:0:
65,295,37558,2,0,P|71:265|78:236,1,60.48,6|2,1:3|0:0,0:0:0:0:
149,176,37899,2,0,P|142:146|135:117,1,60.48,8|0,0:0|0:0,0:0:0:0:
69,59,38240,1,4,0:3:0:0:
69,59,38325,1,6,0:3:0:0:
69,59,38410,1,10,0:3:0:0:
233,0,38751,6,0,P|297:15|351:29,1,120.96,6|8,1:2|0:3,0:0:0:0:
449,103,39263,2,0,P|385:118|331:132,1,120.96,12|8,0:0|0:3,0:0:0:0:
242,95,39774,2,0,L|234:124,3,30.24,8|8|8|8,0:0|0:0|0:0|0:0,0:0:0:0:
214,150,40115,6,0,P|221:182|229:215,1,67.6800000000001,4|2,1:2|3:2,0:0:0:0:
256,243,40370,1,0,3:0:0:0:
256,243,40456,2,0,P|248:275|240:308,1,67.6800000000001,2|2,1:2|3:0,0:0:0:0:
301,379,40797,2,0,P|342:334|410:344,1,135.36,2|2,1:2|1:2,0:0:0:0:
490,308,41308,6,0,P|494:271|507:233,1,67.6800000000001,2|0,3:0|1:2,0:0:0:0:
438,176,41649,2,0,P|433:139|420:101,1,67.6800000000001,14|0,0:0|1:2,0:0:0:0:
344,68,41990,2,0,P|297:114|233:102,1,135.36,10|6,0:3|0:3,0:0:0:0:
148,34,42501,1,2,1:3:0:0:
93,123,42672,5,10,3:3:0:0:
93,123,42757,1,0,3:0:0:0:
93,123,42842,2,0,P|102:156|110:188,1,67.6799989672852,4|2,1:2|3:3,0:0:0:0:
20,257,43183,2,0,P|101:280|176:300,1,135.35999793457,2|2,1:2|1:2,0:0:0:0:
234,236,43694,1,0,3:0:0:0:
234,236,43865,1,2,1:2:0:0:
374,338,44206,6,0,P|376:304|387:272,1,67.6800000000001,2|2,1:2|0:1,0:0:0:0:
452,199,44547,2,0,P|449:165|438:133,1,67.6799989672852,2|2,1:2|0:1,0:0:0:0:
357,57,44888,2,0,P|323:60|291:71,1,67.6800000000001,10|10,0:2|0:3,0:0:0:0:
215,132,45228,1,2,1:2:0:0:
128,62,45399,5,10,0:0:0:0:
128,62,45484,1,8,0:0:0:0:
128,62,45569,2,0,P|119:94|112:127,1,67.6799989672852,4|2,1:2|0:0,0:0:0:0:
39,198,45910,1,2,1:2:0:0:
39,198,46081,2,0,P|54:272|72:345,1,135.35999793457,2|2,0:0|0:2,0:0:0:0:
171,324,46592,1,2,1:2:0:0:
171,324,46763,6,0,P|198:304|231:298,1,67.6800000000001,2|4,0:0|1:2,0:0:0:0:
317,217,47103,2,0,P|283:211|256:192,1,67.6800000000001,6|8,0:3|0:3,0:0:0:0:
183,113,47444,2,0,P|247:95|313:77,1,135.36,14|10,0:0|0:3,0:0:0:0:
426,4,47956,2,0,L|417:36,3,33.8400000000001,10|8|10|8,0:0|0:0|0:0|0:0,0:0:0:0:
431,66,48297,6,0,P|438:98|446:132,1,67.6800000000001,4|2,1:2|0:0,0:0:0:0:
512,214,48638,1,2,1:2:0:0:
512,214,48808,2,0,P|504:246|496:280,1,67.6800000000001,2|0,0:0|1:2,0:0:0:0:
414,342,49149,2,0,P|375:289|310:288,1,135.36,2|2,0:0|0:0,0:0:0:0:
238,364,49660,5,14,0:0:0:0:
170,290,49831,1,0,1:2:0:0:
238,205,50001,2,0,P|205:197|172:189,1,67.6800000000001,2|8,1:2|0:0,0:0:0:0:
87,112,50342,2,0,P|119:104|152:96,1,67.6800000000001,6|4,0:3|0:3,0:0:0:0:
230,35,50683,2,0,P|262:42|295:50,1,67.6800000000001,10|8,0:3|0:3,0:0:0:0:
409,4,51024,6,0,P|382:56|406:110,1,120.96,6|0,1:2|3:0,0:0:0:0:
487,60,51535,2,0,P|513:112|489:166,1,120.96,2|2,1:2|3:0,0:0:0:0:
361,384,52217,6,0,P|344:325|329:267,1,120.959996308594,2|8,0:0|0:0,0:0:0:0:
249,356,52728,2,0,L|236:297,1,60.48,2|8,1:2|0:0,0:0:0:0:
146,327,53069,2,0,L|133:268,1,60.4799981542969,6|4,1:3|0:3,0:0:0:0:
46,295,53410,2,0,L|33:236,1,60.48,10|8,1:3|0:3,0:0:0:0:
7,124,53751,6,0,P|58:97|112:120,1,120.96,6|0,1:2|3:0,0:0:0:0:
173,47,54263,2,0,P|224:73|278:50,1,120.96,2|2,1:2|3:0,0:0:0:0:
419,0,54944,1,2,0:0:0:0:
492,78,55115,6,0,L|479:137,1,60.48,6|8,0:3|0:0,0:0:0:0:
461,157,55370,1,8,0:0:0:0:
461,157,55456,2,0,L|474:216,1,60.48,8|12,0:0|0:0,0:0:0:0:
512,302,55797,2,0,P|482:307|457:324,1,60.48,0|8,1:2|0:3,0:0:0:0:
390,379,56138,2,0,P|360:373|335:356,1,60.48,10|8,0:0|0:0,0:0:0:0:
311,322,56393,5,8,0:0:0:0:
311,322,56478,2,0,P|302:278|290:233,1,90.72,6|0,1:2|0:0,0:0:0:0:
256,208,56819,2,0,P|265:175|269:149,1,60.48,2|0,1:2|3:0,0:0:0:0:
206,58,57160,2,0,P|181:74|151:80,1,60.48,2|0,1:2|3:0,0:0:0:0:
58,33,57501,2,0,P|53:62|36:87,1,60.48,2|0,1:2|3:0,0:0:0:0:
83,173,57842,5,2,1:2:0:0:
0,235,58013,1,8,0:0:0:0:
0,235,58098,1,8,0:0:0:0:
0,235,58183,2,0,L|11:283,3,30.24,10|8|8|8,0:0|0:0|0:0|0:0,0:0:0:0:
24,293,58524,2,0,P|53:297|82:305,1,60.48,10|4,0:0|0:3,0:0:0:0:
153,361,58865,2,0,P|182:356|211:348,1,60.48,10|8,0:3|0:3,0:0:0:0:
312,381,59206,6,0,L|284:263,1,120.96,6|0,1:2|1:2,0:0:0:0:
184,245,59717,2,0,L|211:127,1,120.96,12|0,0:0|1:2,0:0:0:0:
294,80,60228,1,12,0:0:0:0:
11,239,61251,6,0,L|53:248,3,30.24,2|2|2|2,0:0|0:0|0:0|0:0,0:0:0:0:
60,268,61592,2,0,L|102:258,3,30.24,2|2|2|2,0:0|0:0|0:0|0:0,0:0:0:0:
126,238,61933,6,0,P|194:253|271:271,1,149.76,6|10,1:2|0:0,0:0:0:0:
336,350,62444,1,0,0:0:0:0:
420,286,62615,2,0,P|425:248|436:213,1,74.88,2|0,1:2|0:0,0:0:0:0:
504,144,62956,2,0,P|498:106|487:71,1,74.88,10|0,0:0|0:0,0:0:0:0:
391,28,63297,6,0,P|361:74|307:84,1,112.32,2|0,1:2|0:0,0:0:0:0:
276,76,63638,2,0,P|264:111|259:148,1,74.88,10|0,0:0|0:0,0:0:0:0:
156,139,63978,2,0,P|167:174|172:211,1,74.88,2|0,1:2|0:0,0:0:0:0:
96,280,64319,1,10,0:0:0:0:
195,331,64490,5,0,1:2:0:0:
195,331,64575,1,0,1:2:0:0:
195,331,64660,2,0,B|219:341|255:346|255:346|270:373|270:373|301:377|334:387,2,149.76,2|8|0,1:2|0:0|1:2,0:0:0:0:
96,280,65513,2,0,P|91:242|79:207,1,74.88,2|8,0:0|0:0,0:0:0:0:
0,146,65853,1,2,0:0:0:0:
74,82,66024,6,0,P|109:70|146:65,1,74.88,0|2,1:2|0:0,0:0:0:0:
220,14,66365,2,0,P|255:25|292:30,1,74.88,8|0,0:0|0:0,0:0:0:0:
370,91,66706,1,0,1:2:0:0:
460,33,66876,1,8,0:3:0:0:
512,119,67047,2,0,P|500:154|495:191,1,74.88,14|0,0:0|0:0,0:0:0:0:
444,285,67388,6,0,P|368:265|298:251,1,149.76,6|10,1:2|0:0,0:0:0:0:
238,169,67899,1,0,0:0:0:0:
159,239,68069,2,0,P|163:276|176:311,1,74.88,2|0,1:2|0:0,0:0:0:0:
84,384,68410,2,0,P|79:346|66:311,1,74.88,10|0,0:0|0:0,0:0:0:0:
0,232,68751,6,0,P|-3:177|32:136,1,112.32,2|0,1:2|0:0,0:0:0:0:
58,127,69092,2,0,P|62:89|75:54,1,74.88,10|0,0:0|0:0,0:0:0:0:
191,21,69433,2,0,P|178:56|173:93,1,74.88,2|0,1:2|0:0,0:0:0:0:
262,170,69774,2,0,P|266:132|279:97,1,74.88,10|0,0:0|0:0,0:0:0:0:
358,39,70115,6,0,P|428:24|477:77,1,149.76,2|8,1:2|0:0,0:0:0:0:
425,154,70626,1,0,3:0:0:0:
498,225,70797,1,0,1:2:0:0:
429,295,70967,2,0,P|394:283|357:278,1,74.88,2|8,3:0|0:0,0:0:0:0:
266,348,71308,1,2,3:0:0:0:
252,244,71478,6,0,P|270:191|275:135,1,112.32,4|0,0:3|0:0,0:0:0:0:
289,93,71819,2,0,P|253:80|216:76,1,74.88,12|8,0:0|0:3,0:0:0:0:
147,10,72160,2,0,P|111:22|74:26,1,74.8799995429687,4|8,0:3|0:0,0:0:0:0:
54,37,72416,1,8,0:0:0:0:
54,37,72501,2,0,L|65:88,3,37.44,10|8|8|8,0:0|0:0|0:0|0:0,0:0:0:0:
81,100,72842,6,0,P|66:168|48:245,1,149.76,6|10,1:2|0:0,0:0:0:0:
0,356,73353,2,0,P|35:343|72:339,1,74.88,2|0,0:0|1:2,0:0:0:0:
147,266,73694,2,0,P|182:278|219:282,1,74.88,2|8,0:0|0:0,0:0:0:0:
310,233,74035,1,2,0:0:0:0:
384,358,74206,6,0,P|401:285|417:211,1,149.76,2|10,1:2|0:0,0:0:0:0:
493,155,74718,2,0,P|489:117|477:82,1,74.88,2|0,0:0|1:2,0:0:0:0:
383,20,75058,1,2,0:0:0:0:
297,86,75228,2,0,P|261:73|224:70,1,74.88,10|0,0:0|0:0,0:0:0:0:
103,7,75569,6,0,P|120:80|136:153,1,149.76,2|10,1:2|0:0,0:0:0:0:
90,278,76081,2,0,P|117:255|159:249,1,74.88,2|0,0:0|1:2,0:0:0:0:
232,190,76422,2,0,P|259:212|301:218,1,74.88,2|8,0:0|0:0,0:0:0:0:
380,149,76763,1,2,0:0:0:0:
450,226,76933,6,0,P|437:261|434:298,1,74.88,2|0,1:2|0:0,0:0:0:0:
349,384,77274,2,0,P|345:346|333:311,1,74.88,10|2,0:0|0:0,0:0:0:0:
255,246,77615,1,0,1:2:0:0:
183,322,77785,1,6,0:3:0:0:
100,255,77956,2,0,P|103:217|115:182,1,74.88,8|2,0:0|0:0,0:0:0:0:
55,91,78297,6,0,P|111:86|164:67,1,112.32,6|0,1:2|0:0,0:0:0:0:
181,38,78638,2,0,P|218:42|253:55,1,74.88,10|0,0:0|3:0,0:0:0:0:
353,131,78978,2,0,P|315:135|280:148,1,74.88,2|0,1:2|3:0,0:0:0:0:
210,234,79319,2,0,P|247:238|282:251,1,74.88,10|0,0:0|3:0,0:0:0:0:
325,370,79660,6,0,P|354:324|408:313,1,112.32,2|0,1:2|0:0,0:0:0:0:
443,317,80001,2,0,P|455:281|460:244,1,74.88,10|4,0:0|3:3,0:0:0:0:
376,177,80342,1,2,1:2:0:0:
453,109,80513,1,8,0:3:0:0:
387,40,80683,2,0,P|349:45|314:56,1,74.88,10|0,0:0|0:0,0:0:0:0:
243,119,81024,6,0,P|207:107|170:102,1,74.88,14|4,0:0|0:3,0:0:0:0:
142,106,81280,1,4,0:3:0:0:
142,106,81365,1,8,1:3:0:0:
26,77,81535,2,0,P|37:112|42:149,1,74.88,14|4,0:0|0:3,0:0:0:0:
49,181,81791,1,4,0:3:0:0:
49,181,81876,1,8,1:3:0:0:
0,276,82047,1,14,0:0:0:0:
269,157,82899,5,0,1:2:0:0:
269,157,83069,2,0,P|302:148|341:140,1,74.88,10|4,0:0|0:3,0:0:0:0:
411,74,83410,1,12,0:0:0:0:
481,158,83581,5,10,0:0:0:0:
481,158,83666,1,8,0:0:0:0:
481,158,83751,2,0,P|466:226|448:303,1,149.76,6|10,1:2|0:0,0:0:0:0:
370,378,84263,1,0,0:0:0:0:
296,302,84433,2,0,P|258:307|223:318,1,74.88,2|0,1:2|0:0,0:0:0:0:
149,384,84774,2,0,P|111:378|76:367,1,74.88,10|0,0:0|0:0,0:0:0:0:
2,293,85115,6,0,P|48:263|58:209,1,112.32,2|0,1:2|0:0,0:0:0:0:
50,178,85456,2,0,P|85:166|122:161,1,74.88,10|0,0:0|0:0,0:0:0:0:
182,76,85797,2,0,P|217:88|254:93,1,74.88,2|0,1:2|0:0,0:0:0:0:
327,21,86138,1,10,0:0:0:0:
418,95,86308,5,0,1:2:0:0:
418,95,86393,1,0,1:2:0:0:
418,95,86478,2,0,B|381:161|381:161|414:231,2,149.76,2|8|0,1:2|0:0|1:2,0:0:0:0:
327,21,87331,2,0,P|289:26|254:37,1,74.88,2|8,0:0|0:0,0:0:0:0:
175,105,87672,1,2,0:0:0:0:
88,39,87842,6,0,P|76:74|71:111,1,74.88,0|2,1:2|0:0,0:0:0:0:
0,182,88183,2,0,P|11:217|16:254,1,74.88,8|0,0:0|0:0,0:0:0:0:
75,342,88524,1,0,1:2:0:0:
153,282,88694,1,8,0:3:0:0:
231,349,88865,2,0,P|266:337|303:332,1,74.88,14|0,0:0|0:0,0:0:0:0:
437,384,89206,6,0,P|398:323|430:258,1,149.76,6|10,1:2|0:0,0:0:0:0:
501,178,89717,1,0,0:0:0:0:
413,120,89888,2,0,P|376:124|341:137,1,74.88,2|0,1:2|0:0,0:0:0:0:
261,195,90228,2,0,P|223:190|188:177,1,74.88,10|0,0:0|0:0,0:0:0:0:
87,123,90569,6,0,P|90:178|55:219,1,112.32,2|0,1:2|0:0,0:0:0:0:
12,230,90910,2,0,P|24:265|28:302,1,74.88,10|0,0:0|0:0,0:0:0:0:
126,383,91251,2,0,P|129:345|142:310,1,74.88,2|0,1:2|0:0,0:0:0:0:
241,255,91592,2,0,P|245:293|258:328,1,74.88,10|0,0:0|0:0,0:0:0:0:
364,384,91933,6,0,P|361:329|396:288,1,112.32,0|0,1:2|0:0,0:0:0:0:
422,279,92274,2,0,P|426:241|439:206,1,74.88,10|0,0:0|3:0,0:0:0:0:
458,181,92530,1,2,0:0:0:0:
458,181,92615,1,0,1:2:0:0:
389,97,92785,2,0,P|351:101|316:114,1,74.88,2|8,3:0|0:0,0:0:0:0:
257,29,93126,6,0,P|221:41|184:45,1,74.88,2|8,3:0|0:3,0:0:0:0:
103,115,93467,1,2,0:0:0:0:
204,173,93638,2,0,P|186:245|170:319,1,149.76,10|4,0:0|0:3,0:0:0:0:
73,371,94149,1,8,0:0:0:0:
73,371,94234,1,8,0:0:0:0:
73,371,94319,2,0,L|22:360,3,37.44,10|8|8|8,0:0|0:0|0:0|0:0,0:0:0:0:
0,358,94660,6,0,P|18:286|34:212,1,149.76,6|10,1:2|0:0,0:0:0:0:
0,114,95172,2,0,P|37:110|72:97,1,74.88,2|0,0:0|1:2,0:0:0:0:
145,17,95513,2,0,P|183:22|218:35,1,74.88,2|8,0:0|0:0,0:0:0:0:
290,114,95853,1,2,0:0:0:0:
362,32,96024,6,0,P|414:80|401:151,1,149.76,2|10,1:2|0:0,0:0:0:0:
377,250,96535,2,0,P|411:236|449:232,1,74.88,2|0,0:0|1:2,0:0:0:0:
433,339,96876,2,0,P|398:352|360:356,1,74.88,2|10,0:0|0:0,0:0:0:0:
279,279,97217,1,0,0:0:0:0:
199,367,97388,6,0,P|183:293|165:221,1,149.76,2|10,1:2|0:0,0:0:0:0:
49,248,97899,2,0,P|62:213|66:175,1,74.88,2|0,0:0|1:2,0:0:0:0:
0,91,98240,2,0,P|37:86|72:73,1,74.88,2|8,0:0|0:0,0:0:0:0:
146,1,98581,1,2,0:0:0:0:
203,91,98751,6,0,P|271:68|348:57,1,149.76,0|8,1:2|0:0,0:0:0:0:
427,0,99263,1,2,0:0:0:0:
488,87,99433,2,0,P|474:123|469:160,1,74.88,0|6,1:2|0:3,0:0:0:0:
352,157,99774,2,0,P|365:191|370:228,1,74.88,8|2,0:0|0:0,0:0:0:0:
292,297,100115,5,6,1:2:0:0:
216,221,100285,2,0,P|178:215|144:202,1,74.88,2|8,3:0|0:0,0:0:0:0:
62,128,100626,1,6,3:3:0:0:
0,218,100797,2,0,P|13:252|18:289,1,74.88,10|0,1:3|3:0,0:0:0:0:
78,375,101138,1,10,0:0:0:0:
161,310,101308,6,0,P|229:333|306:344,1,149.76,2|2,3:0|1:2,0:0:0:0:
387,281,101819,1,10,0:0:0:0:
454,360,101990,1,2,1:2:0:0:
512,276,102160,2,0,P|508:239|495:204,1,74.88,8|6,0:0|1:3,0:0:0:0:
402,153,102501,2,0,P|407:115|420:80,1,74.88,8|10,0:0|0:3,0:0:0:0:
330,26,102842,6,0,P|294:38|257:43,1,74.88,12|4,0:0|0:3,0:0:0:0:
229,39,103098,1,4,0:3:0:0:
229,39,103183,1,0,1:2:0:0:
108,0,103353,2,0,P|120:36|125:73,1,74.88,12|4,0:0|0:3,0:0:0:0:
121,101,103609,1,4,0:3:0:0:
121,101,103694,1,0,1:2:0:0:
0,82,103865,2,0,P|5:119|16:154,1,74.88,12|0,0:0|1:2,0:0:0:0:
93,213,104206,1,12,0:0:0:0:
441,384,105058,5,2,1:2:0:0:
441,384,105143,1,2,1:2:0:0:
441,384,105228,2,0,L|469:264,1,112.32,14|2,0:0|0:0,0:0:0:0:
476,237,105569,6,0,P|417:288|347:259,1,149.76,6|8,1:2|0:0,0:0:0:0:
286,180,106081,1,0,0:0:0:0:
207,288,106251,2,0,P|201:250|190:215,1,74.88,2|0,1:2|0:0,0:0:0:0:
98,160,106592,2,0,P|103:122|114:87,1,74.88,8|0,0:0|0:0,0:0:0:0:
203,31,106933,6,0,B|230:39|264:47|264:47|278:70|278:70|310:76|341:87,1,149.76,2|8,1:2|0:0,0:0:0:0:
420,32,107444,1,0,0:0:0:0:
480,122,107615,2,0,P|458:149|452:191,1,74.88,2|0,1:2|0:0,0:0:0:0:
355,228,107956,2,0,P|378:255|382:297,1,74.88,8|0,0:0|0:0,0:0:0:0:
295,352,108297,6,0,P|239:361|185:377,1,112.319999314453,0|0,1:0|0:0,0:0:0:0:
153,377,108638,2,0,P|163:341|169:304,1,74.88,8|0,0:0|0:0,0:0:0:0:
213,199,108978,1,2,1:2:0:0:
213,199,109149,1,0,0:0:0:0:
310,257,109319,2,0,P|345:245|382:241,1,74.88,8|0,0:0|0:0,0:0:0:0:
498,143,109660,6,0,P|427:153|380:98,1,149.76,2|8,1:2|0:0,0:0:0:0:
298,25,110172,1,4,0:3:0:0:
214,109,110342,1,6,1:3:0:0:
214,109,110513,1,8,0:3:0:0:
125,45,110683,2,0,P|87:48|52:60,1,74.88,10|2,0:0|0:0,0:0:0:0:
31,82,110939,5,2,0:0:0:0:
31,82,111024,2,0,P|50:154|64:227,1,149.76,2|8,1:2|0:0,0:0:0:0:
94,333,111535,1,0,0:0:0:0:
191,282,111706,2,0,P|226:293|263:297,1,74.88,2|0,1:2|0:0,0:0:0:0:
336,384,112047,2,0,P|371:372|408:368,1,74.88,8|0,0:0|0:0,0:0:0:0:
493,296,112388,6,0,B|453:228|453:228|483:160,1,149.76,2|10,1:2|0:0,0:0:0:0:
400,73,112899,1,2,0:0:0:0:
331,165,113069,2,0,P|295:176|258:180,1,74.88,2|0,1:2|0:0,0:0:0:0:
234,280,113410,2,0,P|198:268|161:264,1,74.88,8|0,0:0|0:0,0:0:0:0:
70,353,113751,6,0,P|65:315|55:280,1,74.88,2|0,1:2|3:0,0:0:0:0:
0,187,114092,2,0,P|4:149|14:114,1,74.88,8|0,0:0|3:0,0:0:0:0:
82,25,114433,1,0,1:0:0:0:
161,101,114603,1,0,3:0:0:0:
244,27,114774,1,8,0:0:0:0:
323,111,114944,6,0,P|311:146|307:183,1,74.88,4|0,1:2|0:0,0:0:0:0:
368,294,115285,1,0,1:0:0:0:
368,294,115370,1,0,1:0:0:0:
368,294,115456,1,12,0:0:0:0:
280,373,115626,1,0,0:0:0:0:
199,306,115797,2,0,P|194:268|184:233,1,74.88,4|8,0:3|0:0,0:0:0:0:
176,205,116052,1,8,0:0:0:0:
176,205,116138,2,0,L|125:216,3,37.44,8|8|8|8,0:0|0:0|0:0|0:0,0:0:0:0:
113,219,116478,6,0,B|252:298|343:159|288:129|387:-12|513:79,1,483.840000000001,4|8,1:2|0:0,0:0:0:0:
437,155,119035,1,0,1:2:0:0:
