osu file format v14

[General]
AudioFilename: audio.mp3
AudioLeadIn: 0
PreviewTime: 60738
Countdown: 0
SampleSet: Soft
StackLeniency: 0.7
Mode: 0
LetterboxInBreaks: 0
WidescreenStoryboard: 0

[Editor]
DistanceSpacing: 1.2
BeatDivisor: 4
GridSize: 16
TimelineZoom: 1.6

[Metadata]
Title:Forever Friends
TitleUnicode:Forever Friends
Artist:AiRBLUE
ArtistUnicode:AiRBLUE
Creator:Ninjaking311
Version:Beloved
Source:CUE!
Tags:EnuHQ NakaRoniX Female Vocals Idols Japanese Pop J-Pop JPop Haruna Mutsuishi 六石陽菜 Yurina Uchiyama 内山悠里菜 Maika Takatori 鷹取舞花 Nene Hieda 稗田寧々 Shiho Kano 鹿野志穂 Kyoka Moriya Kyouka 亨香守屋 Honoka Tsukii 月居ほのか Yuna Ogata 佑奈緒方 Yuuki Tendo Tendou 天童悠希 Ayaka Takamura 彩花鷹村 Chisa Akagawa 赤川千紗 Satsuki Miyahara 宮原颯希 Airi Eniwa 恵庭あいり Mayu Iizuka 麻結飯塚 Yuzuha Kujo Kujou 九条柚葉 Manatsu Murakami まなつ村上 Miharu Yomine 夜峰美晴 Yukari Anzai 由香里安齋 Aya Kamuro 神室絢 Sakii Matsuda 彩希松田 Mahoro Miyaji 宮路まほろ Megumi Yamaguchi 愛山口 Riko Hinakura 日名倉莉子 Arisa Tsuruno 鶴野有紗 Rie Maruyama 丸山利恵 Hina Tachibana 橘陽菜 Satori Utsugi 宇津木聡里 Ami Komine 愛未小峯 Rinne Myojin Myoujin 明神凛音 Mai Sato Satou 舞佐藤 Mei Toomi 遠見鳴 Rio Tsuchiya 李央土屋 flower bird wind moon dialogue+ short cut ver version pv CUE! キュー! video game
BeatmapID:3574757
BeatmapSetID:1747658

[Difficulty]
HPDrainRate:6
CircleSize:4.2
OverallDifficulty:8.8
ApproachRate:9.3
SliderMultiplier:1.74
SliderTickRate:1

[Events]
//Background and Video events
Video,-50,"vid.mp4"
0,0,"bg.jpg",0,0
//Break Periods
//Storyboard Layer 0 (Background)
//Storyboard Layer 1 (Fail)
//Storyboard Layer 2 (Pass)
//Storyboard Layer 3 (Foreground)
//Storyboard Layer 4 (Overlay)
//Storyboard Sound Samples

[TimingPoints]
7388,340.909090909091,4,2,1,60,1,0
7388,-185.185185185185,4,2,1,60,0,0
15569,-294.117647058824,4,2,1,60,0,0
16166,-294.117647058824,4,2,1,15,0,0
16933,-294.117647058824,4,2,1,60,0,0
18297,-80.6451612903226,4,2,1,80,0,0
18808,-87.719298245614,4,2,1,80,0,0
18978,-87.719298245614,4,2,10,80,0,0
19660,-87.719298245614,4,2,20,80,0,0
20342,-87.719298245614,4,2,18,80,0,0
20683,-74.6268656716418,4,2,18,80,0,0
21024,-87.719298245614,4,2,18,80,0,0
21706,-87.719298245614,4,2,10,80,0,0
22388,-87.719298245614,4,2,20,80,0,0
23070,-87.719298245614,4,2,18,80,0,0
23410,-87.719298245614,4,2,1,80,0,0
24430,-87.719298245614,4,2,10,80,0,0
25112,-87.719298245614,4,2,20,80,0,0
25285,-87.719298245614,4,2,1,80,0,0
25794,-87.719298245614,4,2,18,80,0,0
26138,-74.6268656716418,4,2,18,80,0,0
26478,-87.719298245614,4,2,13,80,0,0
26649,-87.719298245614,4,2,1,80,0,0
27672,-80.6451612903226,4,2,1,80,0,0
28353,-87.719298245614,4,2,1,80,0,0
29206,-135.135135135135,4,2,1,60,0,0
34660,-106.382978723404,4,2,1,60,0,0
35683,-135.135135135135,4,2,1,60,0,0
38751,-87.719298245614,4,2,1,60,0,0
39263,-135.135135135135,4,2,1,60,0,0
40115,-96.1538461538461,4,2,1,70,0,0
45569,-106.382978723404,4,2,1,70,0,0
47444,-80.6451612903226,4,2,1,70,0,0
48297,-96.1538461538461,4,2,1,70,0,0
51024,-119.047619047619,4,2,1,65,0,0
56308,-96.1538461538461,4,2,1,65,0,0
56478,-96.1538461538461,4,2,1,75,0,0
58524,-119.047619047619,4,2,1,75,0,0
59206,-69.4444444444444,4,2,1,85,0,0
59547,-87.719298245614,4,2,1,85,0,0
59717,-69.4444444444444,4,2,1,85,0,0
60058,-87.719298245614,4,2,1,85,0,0
60228,-69.4444444444444,4,2,1,85,0,0
60910,-69.4444444444444,4,2,13,60,0,0
61251,-119.047619047619,4,2,14,60,0,0
61336,-119.047619047619,4,2,1,60,0,0
61507,-119.047619047619,4,2,12,60,0,0
61592,-119.047619047619,4,2,1,60,0,0
61763,-119.047619047619,4,2,10,60,0,0
61848,-119.047619047619,4,2,1,60,0,0
61933,-80.6451612903226,4,2,20,85,0,0
62274,-87.719298245614,4,2,18,85,0,0
62618,-87.719298245614,4,2,20,85,0,0
62959,-87.719298245614,4,2,18,85,0,0
63290,-87.719298245614,4,2,20,85,0,0
63631,-87.719298245614,4,2,18,85,0,0
63978,-87.719298245614,4,2,19,85,0,0
64319,-87.719298245614,4,2,18,85,0,0
64660,-87.719298245614,4,2,10,85,0,0
65513,-87.719298245614,4,2,12,85,0,0
65853,-87.719298245614,4,2,10,85,0,0
66194,-87.719298245614,4,2,20,85,0,0
67047,-69.4444444444444,4,2,17,85,0,0
67388,-87.719298245614,4,2,20,85,0,0
67728,-87.719298245614,4,2,18,85,0,0
68069,-87.719298245614,4,2,20,85,0,0
68409,-87.719298245614,4,2,19,85,0,0
68751,-87.719298245614,4,2,12,85,0,0
69092,-87.719298245614,4,2,10,85,0,0
69433,-87.719298245614,4,2,20,85,0,0
69774,-87.719298245614,4,2,18,85,0,0
70115,-87.719298245614,4,2,20,85,0,0
70967,-87.719298245614,4,2,10,85,0,0
71308,-87.719298245614,4,2,20,85,0,0
71649,-87.719298245614,4,2,18,85,0,0
71819,-80.6451612903226,4,2,18,85,0,0
72501,-80.6451612903226,4,2,13,85,0,0
73183,-80.6451612903226,4,2,11,85,0,0
73353,-87.719298245614,4,2,11,85,0,0
73694,-87.719298245614,4,2,10,85,0,0
74206,-87.719298245614,4,2,20,85,0,0
74547,-87.719298245614,4,2,1,85,0,0
75228,-87.719298245614,4,2,16,85,0,0
75569,-74.6268656716418,4,2,16,85,0,0
75910,-74.6268656716418,4,2,17,85,0,0
76081,-87.719298245614,4,2,17,85,0,0
76422,-87.719298245614,4,2,12,85,0,0
76933,-87.719298245614,4,2,10,85,0,0
77274,-87.719298245614,4,2,1,85,0,0
78297,-74.6268656716418,4,2,1,85,0,0
78638,-87.719298245614,4,2,18,85,0,0
78978,-87.719298245614,4,2,14,85,0,0
79319,-87.719298245614,4,2,18,85,0,0
80001,-87.719298245614,4,2,16,85,0,0
80342,-87.719298245614,4,2,18,85,0,0
80683,-69.4444444444444,4,2,20,85,0,0
81024,-69.4444444444444,4,2,10,90,0,0
81535,-69.4444444444444,4,2,20,90,0,0
82047,-69.4444444444444,4,2,12,90,0,0
82728,-69.4444444444444,4,2,1,70,0,0
83069,-69.4444444444444,4,2,14,70,0,0
83325,-69.4444444444444,4,2,12,70,0,0
83581,-69.4444444444444,4,2,10,70,0,0
83751,-69.4444444444444,4,2,20,85,0,0
84092,-87.719298245614,4,2,18,85,0,0
84436,-87.719298245614,4,2,20,85,0,0
84777,-87.719298245614,4,2,18,85,0,0
85108,-87.719298245614,4,2,20,85,0,0
85449,-87.719298245614,4,2,18,85,0,0
85796,-87.719298245614,4,2,19,85,0,0
86137,-87.719298245614,4,2,18,85,0,0
86478,-87.719298245614,4,2,10,85,0,0
87331,-87.719298245614,4,2,12,85,0,0
87671,-87.719298245614,4,2,10,85,0,0
88012,-87.719298245614,4,2,20,85,0,0
88865,-69.4444444444444,4,2,17,85,0,0
89206,-87.719298245614,4,2,20,85,0,0
89546,-87.719298245614,4,2,18,85,0,0
89887,-87.719298245614,4,2,20,85,0,0
90227,-87.719298245614,4,2,19,85,0,0
90569,-87.719298245614,4,2,12,85,0,0
90910,-87.719298245614,4,2,10,85,0,0
91251,-87.719298245614,4,2,20,85,0,0
91592,-87.719298245614,4,2,18,85,0,0
92274,-87.719298245614,4,2,20,85,0,0
92359,-87.719298245614,4,2,1,85,0,0
92530,-87.719298245614,4,2,18,85,0,0
92615,-87.719298245614,4,2,1,85,0,0
92785,-87.719298245614,4,2,14,85,0,0
92870,-87.719298245614,4,2,1,85,0,0
93126,-87.719298245614,4,2,10,85,0,0
93467,-87.719298245614,4,2,20,85,0,0
93638,-87.719298245614,4,2,18,85,0,0
94319,-87.719298245614,4,2,13,85,0,0
94660,-80.6451612903226,4,2,13,85,0,0
95001,-80.6451612903226,4,2,11,85,0,0
95172,-87.719298245614,4,2,11,85,0,0
95513,-87.719298245614,4,2,10,85,0,0
96024,-87.719298245614,4,2,20,85,0,0
96365,-87.719298245614,4,2,1,85,0,0
97047,-87.719298245614,4,2,17,85,0,0
97388,-87.719298245614,4,2,21,85,0,0
97728,-87.719298245614,4,2,10,85,0,0
97899,-87.719298245614,4,2,20,85,0,0
98240,-87.719298245614,4,2,10,85,0,0
98581,-87.719298245614,4,2,20,85,0,0
98922,-87.719298245614,4,2,18,85,0,0
99092,-87.719298245614,4,2,1,85,0,0
100115,-80.6451612903226,4,2,1,85,0,0
100285,-80.6451612903226,4,2,12,85,0,0
100626,-80.6451612903226,4,2,10,85,0,0
100797,-80.6451612903226,4,2,12,85,0,0
101138,-80.6451612903226,4,2,10,85,0,0
101309,-80.6451612903226,4,2,12,85,0,0
101649,-80.6451612903226,4,2,10,85,0,0
101819,-80.6451612903226,4,2,18,85,0,0
102501,-64.9350649350649,4,2,18,85,0,0
102672,-64.9350649350649,4,2,14,85,0,0
102842,-64.9350649350649,4,2,14,90,0,0
104547,-64.9350649350649,4,2,1,60,0,0
104888,-64.9350649350649,4,2,1,60,0,0
104973,-64.9350649350649,4,2,1,60,0,0
105228,-227.272727272727,4,2,20,60,0,0
105314,-227.272727272727,4,2,1,60,0,0
105569,-80.6451612903226,4,2,12,80,0,0
106251,-80.6451612903226,4,2,10,80,0,0
106933,-80.6451612903226,4,2,20,80,0,0
107615,-80.6451612903226,4,2,18,80,0,0
107956,-80.6451612903226,4,2,18,80,0,0
108979,-80.6451612903226,4,2,10,80,0,0
109661,-80.6451612903226,4,2,20,80,0,0
110343,-80.6451612903226,4,2,18,80,0,0
110683,-80.6451612903226,4,2,1,80,0,0
111703,-80.6451612903226,4,2,10,80,0,0
112385,-80.6451612903226,4,2,20,80,0,0
112558,-80.6451612903226,4,2,1,80,0,0
113067,-80.6451612903226,4,2,18,80,0,0
113751,-80.6451612903226,4,2,13,80,0,0
113922,-80.6451612903226,4,2,1,80,0,0
114944,-74.6268656716418,4,2,1,80,0,0
115797,-80.6451612903226,4,2,1,80,0,0
116478,-250,4,2,1,80,0,0

[Colours]
Combo1 : 164,100,240
Combo2 : 230,110,150
Combo3 : 100,200,200
Combo4 : 130,120,255

[HitObjects]
24,84,7388,6,0,B|131:64|96:163|207:139,1,187.920004587891,6|2,1:2|0:0,0:0:0:0:
338,51,8751,2,0,P|308:153|293:236,1,187.920004587891,2|2,0:0|0:0,0:0:0:0:
88,384,10115,6,0,B|22:383|6:318|6:318|36:354|70:361,1,187.920004587891,6|2,1:2|0:0,0:0:0:0:
180,225,11478,2,0,B|221:251|263:267|263:267|244:318|233:367,1,187.920004587891,2|10,0:0|0:3,0:0:0:0:
424,140,12842,6,0,B|385:96|334:118|334:118|313:157|267:171,1,187.920004587891,6|2,1:2|0:0,0:0:0:0:
146,295,14206,2,0,P|128:202|101:112,1,187.920004587891,2|2,0:0|0:0,0:0:0:0:
267,170,15569,6,0,P|295:210|414:199,1,177.480001083252,6|0,1:2|0:0,0:0:0:0:
267,170,16933,5,4,0:3:0:0:
431,82,17103,1,8,0:0:0:0:
450,89,17188,1,8,0:0:0:0:
469,97,17273,1,8,0:0:0:0:
393,204,17444,5,8,0:3:0:0:
300,28,17615,1,8,0:0:0:0:
281,35,17700,1,8,0:0:0:0:
262,43,17785,1,8,0:0:0:0:
243,51,17871,1,8,0:0:0:0:
217,102,17956,1,8,0:0:0:0:
229,158,18041,1,4,0:3:0:0:
271,198,18126,1,4,0:3:0:0:
328,204,18211,1,8,0:3:0:0:
334,191,18297,6,0,B|201:182|275:276|136:270,1,215.759991440186,4|8,1:2|0:0,0:0:0:0:
300,28,18808,1,0,0:0:0:0:
129,103,18978,2,0,P|179:112|224:128,1,99.1799987893067,2|0,1:2|0:0,0:0:0:0:
412,23,19319,2,0,P|420:71|437:118,1,99.1799987893067,8|0,0:0|0:0,0:0:0:0:
300,28,19660,5,2,1:2:0:0:
103,198,19831,2,0,P|119:151|128:102,1,99.1799987893067,0|8,0:0|0:0,0:0:0:0:
23,203,20172,1,0,0:0:0:0:
216,357,20342,2,0,P|199:310|190:261,1,99.1799987893067,2|0,1:2|0:0,0:0:0:0:
0,116,20683,2,0,B|77:86|77:86|128:109|119:167,1,174.869991728257,8|0,0:0|0:0,0:0:0:0:
49,188,21024,6,0,B|92:204|125:210|125:210|145:253|145:253|185:263|223:280,1,198.359997578613,0|8,1:0|0:0,0:0:0:0:
0,116,21535,1,0,0:0:0:0:
151,0,21706,2,0,P|144:51|131:107,1,99.1799987893067,2|0,1:2|0:0,0:0:0:0:
226,285,22047,2,0,P|158:301|111:329,1,99.1799987893067,8|0,0:0|0:0,0:0:0:0:
370,118,22388,5,2,1:2:0:0:
241,10,22558,2,0,P|286:30|334:38,1,99.1799987893067,0|8,0:0|0:0,0:0:0:0:
488,164,22899,1,4,0:3:0:0:
310,242,23069,1,6,1:3:0:0:
455,88,23240,1,8,0:3:0:0:
315,0,23410,1,10,0:0:0:0:
334,39,23495,1,2,0:0:0:0:
351,81,23580,1,2,0:0:0:0:
365,123,23665,1,2,0:0:0:0:
375,167,23751,6,0,B|459:197|459:197|527:169|506:99,1,198.359997578613,2|8,1:2|0:0,0:0:0:0:
351,310,24263,1,0,0:0:0:0:
460,195,24433,2,0,P|469:243|483:291,1,99.1799987893067,2|0,1:2|0:0,0:0:0:0:
308,140,24774,2,0,P|260:154|211:163,1,99.1799987893067,8|0,0:0|0:0,0:0:0:0:
108,276,25115,5,2,1:2:0:0:
243,76,25285,1,2,0:0:0:0:
325,247,25456,5,10,0:0:0:0:
149,98,25626,1,2,1:2:0:0:
149,98,25711,1,0,1:2:0:0:
149,98,25796,1,2,1:2:0:0:
269,196,25967,5,0,0:0:0:0:
56,347,26138,2,0,B|171:338|105:264|227:271,1,174.869991728257,8|0,0:0|0:0,0:0:0:0:
300,289,26478,6,0,P|289:239|268:195,1,99.1799987893067,2|0,1:2|3:0,0:0:0:0:
431,80,26819,2,0,P|391:119|365:154,1,99.1799987893067,8|0,0:0|3:0,0:0:0:0:
185,72,27160,2,0,P|233:86|282:91,1,99.1799987893067,0|0,1:0|3:0,0:0:0:0:
512,201,27501,5,8,0:0:0:0:
455,50,27672,2,0,P|424:159|377:283,1,215.759991440186,4|0,1:2|1:0,0:0:0:0:
422,333,28098,1,0,1:0:0:0:
415,324,28183,1,12,0:0:0:0:
287,198,28353,5,0,0:0:0:0:
149,377,28524,2,0,L|261:354,1,99.1799987893067,4|8,0:3|0:0,0:0:0:0:
301,280,28780,1,8,0:0:0:0:
291,292,28865,2,0,L|243:277,1,49.5899993946533,8|8,0:0|0:0,0:0:0:0:
83,119,29035,2,0,L|130:104,1,49.5899993946533,8|8,0:0|0:0,0:0:0:0:
170,31,29206,6,0,P|213:75|208:137,2,128.760003143555,0|2|2,1:0|1:2|1:2,0:0:0:0:
0,256,30228,1,2,1:2:0:0:
58,201,30399,2,0,P|111:218|182:235,1,128.760003143555,2|2,0:0|0:0,0:0:0:0:
301,122,30910,1,2,1:2:0:0:
256,184,31081,2,0,P|265:214|273:246,1,64.3800015717774,2|0,0:0|1:2,0:0:0:0:
222,67,31422,2,0,P|214:35|204:5,1,64.3800015717774,2|2,0:0|1:2,0:0:0:0:
349,177,31763,5,2,0:0:0:0:
349,177,31933,2,0,B|427:164|389:128|460:117,1,128.760003143555,0|2,1:2|1:2,0:0:0:0:
334,265,32615,2,0,B|256:252|294:216|223:205,1,128.760003143555,0|0,1:2|1:2,0:0:0:0:
349,353,33297,2,0,B|427:340|389:304|460:293,1,128.760003143555,0|0,1:2|1:2,0:0:0:0:
301,140,33978,6,0,P|314:202|333:264,1,128.760003143555,2|0,1:2|1:2,0:0:0:0:
132,382,34575,5,0,0:0:0:0:
122,376,34660,2,0,B|137:313|137:313|169:293|169:293|187:220,2,163.559997504273,4|2|2,1:2|1:2|1:2,0:0:0:0:
242,184,35683,1,2,1:2:0:0:
183,233,35853,2,0,P|121:241|73:200,1,128.760003143555,2|2,0:0|0:0,0:0:0:0:
58,128,36365,1,2,1:2:0:0:
269,336,36706,5,2,1:2:0:0:
183,384,36876,1,8,0:1:0:0:
183,384,36961,1,2,0:1:0:0:
183,384,37047,2,0,P|188:352|194:320,1,64.3800015717774,2|2,1:2|0:0,0:0:0:0:
383,214,37388,5,8,0:0:0:0:
298,129,37558,2,0,P|303:160|308:192,1,64.3800015717774,6|2,1:3|0:0,0:0:0:0:
473,68,37899,1,8,0:0:0:0:
310,335,38240,6,0,L|279:324,2,32.1900007858887,4|6|10,0:3|0:3|0:3,0:0:0:0:
112,136,38666,5,2,0:0:0:0:
116,124,38751,2,0,B|152:99|191:124|191:124|194:160|237:179,1,148.76999818396,6|0,1:2|0:0,0:0:0:0:
258,246,39092,1,8,0:3:0:0:
51,384,39263,2,0,P|62:320|77:258,1,128.760003143555,12|8,0:0|0:3,0:0:0:0:
23,80,39774,5,8,0:0:0:0:
0,122,39859,1,8,0:0:0:0:
17,166,39944,1,8,0:0:0:0:
63,182,40029,1,8,0:0:0:0:
79,175,40115,6,0,P|121:159|165:148,1,90.4799994477539,4|2,1:2|3:2,0:0:0:0:
98,76,40456,1,2,1:2:0:0:
158,253,40626,1,2,3:0:0:0:
158,253,40711,1,0,3:0:0:0:
158,253,40797,2,0,P|173:295|184:339,1,90.4799994477539,2|0,1:2|3:0,0:0:0:0:
78,227,41138,1,2,1:2:0:0:
266,151,41308,1,2,3:0:0:0:
257,175,41393,1,0,3:0:0:0:
250,201,41478,1,0,1:2:0:0:
71,51,41649,6,0,P|125:36|184:2,1,90.4799994477539,14|0,0:0|1:2,0:0:0:0:
0,196,41990,2,0,P|54:211|113:245,1,90.4799994477539,10|0,0:3|1:2,0:0:0:0:
208,332,42331,1,6,0:3:0:0:
101,254,42501,1,2,1:3:0:0:
273,152,42672,5,10,3:3:0:0:
273,152,42757,1,0,3:0:0:0:
273,152,42842,2,0,P|258:196|249:239,1,90.4799994477539,4|2,1:2|3:3,0:0:0:0:
107,355,43183,2,0,P|98:310|83:267,1,90.4799994477539,2|0,1:2|3:0,0:0:0:0:
23,220,43524,1,2,1:2:0:0:
188,350,43695,1,0,3:0:0:0:
200,344,43780,1,0,3:0:0:0:
212,338,43865,1,2,1:2:0:0:
373,186,44035,5,0,3:0:0:0:
398,213,44120,1,0,3:0:0:0:
388,248,44205,1,2,1:2:0:0:
268,155,44376,1,2,0:1:0:0:
417,94,44547,1,2,1:2:0:0:
307,9,44717,1,2,0:1:0:0:
373,185,44888,2,0,P|384:229|392:274,1,90.4799994477539,10|10,0:2|0:3,0:0:0:0:
227,173,45228,2,0,P|248:166|267:154,1,45.239999723877,2|0,1:2|1:2,0:0:0:0:
504,60,45398,5,10,0:0:0:0:
504,60,45484,1,8,0:0:0:0:
504,60,45569,2,0,P|444:47|386:23,1,122.669998128204,4|0,1:2|0:0,0:0:0:0:
321,56,45910,1,2,1:2:0:0:
220,207,46081,2,0,B|261:208|261:208|290:180,1,81.7799987521363,2|0,0:0|1:2,0:0:0:0:
124,57,46422,5,2,0:0:0:0:
231,127,46592,1,2,1:2:0:0:
78,240,46763,2,0,P|65:199|52:162,1,81.7799987521363,2|4,0:0|1:2,0:0:0:0:
267,340,47103,2,0,P|278:298|293:262,1,81.7799987521363,6|8,0:3|0:3,0:0:0:0:
485,57,47444,6,0,B|439:21|397:60|397:60|390:110|310:116,1,161.819993580139,14|0,0:0|0:0,0:0:0:0:
317,166,47785,1,10,0:3:0:0:
189,32,47956,1,10,0:0:0:0:
189,32,48041,1,8,0:0:0:0:
189,32,48126,2,0,P|212:45|238:52,1,53.9399978600465,10|8,0:0|0:0,0:0:0:0:
85,165,48297,6,0,P|45:185|1:197,1,90.4799994477539,4|2,1:2|0:0,0:0:0:0:
169,339,48638,1,2,1:2:0:0:
92,374,48808,2,0,B|77:328|77:328|103:292,1,90.4799994477539,2|0,0:0|1:2,0:0:0:0:
288,161,49149,5,2,0:0:0:0:
271,242,49319,1,2,1:2:0:0:
254,324,49490,1,2,0:0:0:0:
441,258,49660,5,14,0:0:0:0:
288,161,49831,1,0,1:2:0:0:
470,44,50001,1,2,1:2:0:0:
373,187,50172,2,0,P|336:170|286:160,1,90.4799994477539,8|6,0:0|0:3,0:0:0:0:
106,188,50513,1,4,0:3:0:0:
255,65,50683,1,10,0:3:0:0:
97,2,50853,1,8,0:3:0:0:
195,143,51024,6,0,P|180:70|167:-4,1,146.159995539551,6|0,1:2|3:0,0:0:0:0:
27,123,51535,2,0,P|14:194|0:266,1,146.159995539551,2|2,1:2|3:0,0:0:0:0:
211,55,52217,1,0,3:2:0:0:
222,59,52302,1,2,0:1:0:0:
232,62,52387,1,0,1:2:0:0:
329,216,52558,6,0,P|293:224|259:237,1,73.0799977697755,8|2,0:0|1:2,0:0:0:0:
413,81,52899,2,0,P|377:72|343:59,1,73.0799977697755,8|6,0:0|1:3,0:0:0:0:
426,174,53240,1,4,0:3:0:0:
339,46,53410,2,0,P|298:80|304:132,1,109.619996654663,10|0,1:3|0:0,0:0:0:0:
243,200,53751,6,0,P|312:178|385:179,1,146.159995539551,6|0,1:2|3:0,0:0:0:0:
491,335,54263,2,0,P|406:300|417:247,1,146.159995539551,2|2,1:2|3:0,0:0:0:0:
295,384,54945,1,2,3:0:0:0:
306,380,55030,1,2,0:1:0:0:
316,377,55115,1,6,0:3:0:0:
196,209,55285,5,8,0:0:0:0:
173,236,55370,1,8,0:0:0:0:
179,272,55455,1,8,0:0:0:0:
323,303,55626,2,0,P|284:297|251:287,1,73.0799977697755,12|0,0:0|1:2,0:0:0:0:
140,341,55967,1,8,0:3:0:0:
263,212,56138,1,10,0:0:0:0:
118,170,56308,2,0,P|126:190|131:212,1,45.239999723877,8|8,0:0|0:0,0:0:0:0:
256,384,56478,6,0,P|279:300|295:273,1,90.4799994477539,6|0,1:2|3:0,0:0:0:0:
438,172,56819,1,2,1:2:0:0:
426,175,56904,1,0,3:0:0:0:
414,179,56990,2,0,P|391:175|370:167,1,45.239999723877,0|0,3:0|3:0,0:0:0:0:
208,238,57160,2,0,P|252:228|294:213,1,90.4799994477539,2|0,1:2|3:0,0:0:0:0:
162,27,57501,1,2,1:2:0:0:
172,31,57586,1,0,3:0:0:0:
184,34,57672,2,0,P|200:50|213:69,1,45.239999723877,0|0,3:0|3:0,0:0:0:0:
176,142,57842,5,2,1:2:0:0:
317,32,58013,2,0,P|309:53|305:75,1,45.239999723877,8|8,0:0|0:0,0:0:0:0:
418,227,58184,1,10,0:0:0:0:
378,189,58269,1,8,0:0:0:0:
326,193,58354,1,8,0:0:0:0:
293,233,58439,1,8,0:0:0:0:
291,249,58524,6,0,P|300:282|310:321,1,73.0799977697755,10|4,0:0|0:3,0:0:0:0:
418,227,58865,1,10,0:3:0:0:
196,92,59035,5,8,0:3:0:0:
192,83,59120,1,0,0:0:0:0:
198,76,59206,6,0,B|262:113|262:113|293:180|216:227,1,187.920004587891,6|0,1:2|0:0,0:0:0:0:
172,254,59547,2,0,P|161:209|176:192,1,49.5899993946533,0|0,1:2|0:0,0:0:0:0:
391,344,59717,6,0,B|350:394|290:380|290:380|348:375|379:305,1,187.920004587891,12|0,0:0|0:0,0:0:0:0:
290,306,60058,2,0,L|299:229,1,49.5899993946533,0|0,1:2|0:0,0:0:0:0:
450,120,60228,6,0,B|497:86|450:9|334:53|379:165|453:139|433:229,1,250.560006117188,12|0,0:0|0:0,0:0:0:0:
155,40,61251,6,0,L|171:98,3,36.5399988848877,2|2|2|2,0:0|0:0|0:0|0:0,0:0:0:0:
46,176,61592,1,2,0:0:0:0:
46,176,61677,1,2,0:0:0:0:
46,176,61763,2,0,L|36:211,1,36.5399988848877,2|2,0:0|0:0,0:0:0:0:
25,94,61933,6,0,B|117:76|88:160|169:147,1,161.819993580139,6|0,1:2|0:0,0:0:0:0:
250,161,62274,2,0,P|262:114|238:72,1,99.1799987893067,10|0,0:0|0:0,0:0:0:0:
47,232,62615,1,2,1:2:0:0:
213,357,62785,1,0,0:0:0:0:
182,274,62956,6,0,P|134:291|88:305,1,99.1799987893067,10|0,0:0|0:0,0:0:0:0:
308,232,63297,2,0,P|356:215|402:201,1,99.1799987893067,2|0,1:2|0:0,0:0:0:0:
166,80,63638,1,10,0:0:0:0:
262,0,63808,1,0,1:0:0:0:
262,0,63893,1,0,1:0:0:0:
262,0,63978,2,0,P|252:45|242:97,1,99.1799987893067,2|0,1:2|0:0,0:0:0:0:
397,278,64319,1,10,0:0:0:0:
222,195,64490,1,0,0:0:0:0:
27,355,64660,6,0,P|89:284|180:309,2,198.359997578613,2|8|0,1:2|0:0|1:2,0:0:0:0:
179,308,65513,1,2,0:0:0:0:
43,150,65683,2,0,P|56:101|66:53,1,99.1799987893067,8|2,0:0|0:0,0:0:0:0:
230,243,66024,1,0,1:2:0:0:
113,187,66194,5,2,0:0:0:0:
317,15,66365,2,0,P|327:63|339:111,1,99.1799987893067,8|0,0:0|0:0,0:0:0:0:
399,349,66706,1,0,1:2:0:0:
512,251,66876,1,8,0:3:0:0:
390,367,67047,2,0,B|343:354|343:354|326:325|326:325|268:310,1,125.280003058594,14|0,0:0|1:0,0:0:0:0:
284,314,67302,5,0,1:0:0:0:
284,314,67388,2,0,B|402:297|324:226|452:217,1,198.359997578613,6|10,1:2|0:0,0:0:0:0:
436,302,67899,1,0,0:0:0:0:
248,207,68069,2,0,P|201:224|153:236,1,99.1799987893067,2|0,1:2|0:0,0:0:0:0:
341,88,68410,2,0,P|387:105|435:117,1,99.1799987893067,10|0,0:0|0:0,0:0:0:0:
508,262,68751,5,2,1:2:0:0:
303,153,68922,1,0,0:0:0:0:
512,0,69092,1,10,0:0:0:0:
440,146,69263,1,0,0:0:0:0:
288,30,69433,6,0,P|240:19|195:0,1,99.1799987893067,2|0,1:2|0:0,0:0:0:0:
352,224,69774,2,0,P|280:240|213:271,1,148.76999818396,10|0,0:0|0:0,0:0:0:0:
125,299,70115,6,0,P|156:349|179:393,1,99.1799987893067,2|0,1:2|3:0,0:0:0:0:
110,181,70456,2,0,P|50:183|0:180,1,99.1799987893067,8|0,0:0|3:0,0:0:0:0:
219,227,70797,2,0,P|247:174|274:132,1,99.1799987893067,0|2,1:2|3:0,0:0:0:0:
0,65,71138,5,8,0:0:0:0:
100,13,71308,1,2,1:2:0:0:
100,13,71393,1,0,1:0:0:0:
100,13,71478,1,4,0:3:0:0:
10,180,71649,1,2,0:0:0:0:
258,126,71819,2,0,B|222:116|194:102|194:102|164:118|164:118|134:101|102:94,1,161.819993580139,12|8,0:0|0:3,0:0:0:0:
40,70,72160,1,4,0:3:0:0:
261,5,72331,5,8,0:0:0:0:
299,39,72416,1,8,0:0:0:0:
297,93,72501,1,10,0:0:0:0:
258,126,72587,1,8,0:0:0:0:
218,158,72672,1,8,0:0:0:0:
216,212,72757,1,8,0:0:0:0:
288,255,72842,6,0,P|269:178|251:87,1,161.819993580139,6|0,1:2|0:0,0:0:0:0:
299,39,73183,1,10,0:0:0:0:
149,186,73353,2,0,P|100:195|52:209,1,99.1799987893067,2|0,0:0|1:2,0:0:0:0:
361,303,73694,2,0,P|409:312|457:326,1,99.1799987893067,2|8,0:0|0:0,0:0:0:0:
257,384,74035,5,2,0:0:0:0:
424,221,74206,2,0,P|423:148|368:102,1,148.76999818396,2|0,1:2|0:0,0:0:0:0:
294,79,74547,1,10,0:0:0:0:
512,24,74717,1,2,1:2:0:0:
512,24,74802,1,0,1:2:0:0:
512,24,74887,1,0,1:2:0:0:
424,221,75058,5,2,0:0:0:0:
341,15,75228,2,0,P|269:2|217:57,1,148.76999818396,10|0,0:0|0:0,0:0:0:0:
122,109,75569,6,0,B|207:82|207:82|257:104|238:169,1,174.869991728257,2|0,1:2|0:0,0:0:0:0:
288,211,75910,1,10,0:0:0:0:
97,318,76081,2,0,P|149:328|191:347,1,99.1799987893067,2|0,0:0|1:2,0:0:0:0:
14,105,76422,2,0,P|66:95|108:76,1,99.1799987893067,2|8,0:0|0:0,0:0:0:0:
33,0,76763,5,2,0:0:0:0:
116,206,76933,2,0,P|136:274|151:366,1,148.76999818396,2|0,1:2|0:0,0:0:0:0:
84,384,77274,1,10,0:0:0:0:
222,253,77444,1,2,1:2:0:0:
222,253,77530,1,0,1:2:0:0:
222,253,77615,1,0,1:2:0:0:
13,149,77785,1,6,0:3:0:0:
151,33,77956,1,8,0:0:0:0:
96,281,78126,2,0,L|46:297,1,49.5899993946533,2|2,0:0|0:0,0:0:0:0:
190,160,78297,6,0,B|217:173|258:183|258:183|271:210|271:210|315:219|351:245,1,174.869991728257,6|0,1:2|0:0,0:0:0:0:
394,182,78638,2,0,P|417:140|402:94,1,99.1799987893067,10|0,0:0|3:0,0:0:0:0:
198,245,78978,1,2,1:2:0:0:
391,363,79149,1,0,3:0:0:0:
355,282,79319,6,0,L|257:314,1,99.1799987893067,10|0,0:0|3:0,0:0:0:0:
439,172,79660,2,0,L|515:240,1,99.1799987893067,2|0,1:2|3:0,0:0:0:0:
302,155,80001,2,0,L|323:54,1,99.1799987893067,10|4,0:0|3:3,0:0:0:0:
384,17,80257,1,4,0:3:0:0:
394,11,80342,2,0,L|465:33,1,49.5899993946533,2|0,1:2|0:0,0:0:0:0:
227,147,80513,2,0,L|156:169,1,49.5899993946533,8|0,0:3|0:0,0:0:0:0:
456,331,80683,2,0,B|455:290|481:237|481:237|452:188|383:214,1,187.920004587891,10|0,0:0|0:0,0:0:0:0:
340,164,81024,5,14,0:0:0:0:
146,378,81194,1,4,0:3:0:0:
139,359,81280,1,4,0:3:0:0:
132,340,81365,1,8,1:3:0:0:
8,53,81535,5,14,0:0:0:0:
173,162,81705,1,4,0:3:0:0:
166,181,81790,1,4,0:3:0:0:
159,200,81876,1,8,1:3:0:0:
470,35,82047,5,14,0:0:0:0:
355,358,82899,1,0,1:2:0:0:
191,144,83069,5,10,0:0:0:0:
156,321,83240,1,4,0:3:0:0:
351,67,83410,5,12,0:0:0:0:
446,279,83581,1,10,0:0:0:0:
469,246,83666,1,8,0:0:0:0:
454,215,83751,6,0,B|411:174|364:206|364:206|351:259|283:267,1,187.920004587891,6|0,1:2|0:0,0:0:0:0:
252,334,84092,2,0,P|220:297|217:248,1,99.1799987893067,10|0,0:0|0:0,0:0:0:0:
351,67,84433,1,2,1:2:0:0:
286,185,84603,1,0,0:0:0:0:
138,24,84774,6,0,P|80:10|43:-6,1,99.1799987893067,10|0,0:0|0:0,0:0:0:0:
162,264,85115,2,0,P|104:278|67:294,1,99.1799987893067,2|0,1:2|0:0,0:0:0:0:
232,71,85456,2,0,P|276:90|290:136,1,99.1799987893067,10|0,0:0|0:0,0:0:0:0:
424,284,85797,1,2,1:2:0:0:
277,218,85967,1,0,0:0:0:0:
498,70,86138,1,10,0:0:0:0:
387,0,86308,5,0,1:2:0:0:
387,0,86393,1,0,1:2:0:0:
387,0,86478,2,0,P|395:90|414:208,2,198.359997578613,2|8|0,1:2|0:0|1:2,0:0:0:0:
325,206,87331,1,2,0:0:0:0:
511,76,87501,2,0,P|462:63|415:49,1,99.1799987893067,8|2,0:0|0:0,0:0:0:0:
264,160,87842,5,0,1:2:0:0:
431,306,88013,1,2,0:0:0:0:
276,135,88183,2,0,P|229:149|181:161,1,99.1799987893067,8|0,0:0|0:0,0:0:0:0:
81,313,88524,1,0,1:2:0:0:
0,121,88695,1,8,0:3:0:0:
89,341,88865,2,0,P|149:347|196:308,1,125.280003058594,14|0,0:0|1:2,0:0:0:0:
285,302,89120,5,0,1:2:0:0:
285,302,89206,2,0,B|161:290|249:200|103:196,1,198.359997578613,6|10,1:2|0:0,0:0:0:0:
285,302,89717,1,0,0:0:0:0:
399,135,89888,2,0,P|429:172|424:220,1,99.1799987893067,2|0,1:2|0:0,0:0:0:0:
191,99,90228,2,0,L|209:2,1,99.1799987893067,10|0,0:0|0:0,0:0:0:0:
365,261,90569,5,2,1:2:0:0:
262,135,90740,1,0,0:0:0:0:
480,38,90910,1,10,0:0:0:0:
331,328,91081,1,0,0:0:0:0:
512,247,91251,2,0,P|460:234|398:213,1,99.1799987893067,2|0,1:2|0:0,0:0:0:0:
178,133,91592,2,0,P|250:114|324:88,1,148.76999818396,10|0,0:0|0:0,0:0:0:0:
398,117,91933,6,0,P|403:68|377:28,1,99.1799987893067,0|0,1:2|3:0,0:0:0:0:
291,193,92274,5,10,0:0:0:0:
283,187,92359,1,2,0:0:0:0:
197,351,92530,5,2,0:0:0:0:
203,343,92615,1,2,1:2:0:0:
291,193,92785,5,2,0:0:0:0:
283,187,92870,1,2,0:0:0:0:
275,181,92956,2,0,P|322:166|368:147,1,99.1799987893067,10|2,0:0|3:0,0:0:0:0:
128,383,93297,6,0,B|84:359|29:349|29:349|2:294|72:243,1,198.359997578613,8|10,0:3|0:0,0:0:0:0:
0,384,93808,1,4,0:3:0:0:
148,250,93978,1,4,0:3:0:0:
0,155,94149,1,8,0:0:0:0:
0,155,94234,1,8,0:0:0:0:
0,155,94319,2,0,L|17:236,1,49.5899993946533,10|8,0:0|0:0,0:0:0:0:
128,383,94490,2,0,L|145:302,1,49.5899993946533,8|8,0:0|0:0,0:0:0:0:
327,148,94660,6,0,B|287:120|252:151|252:151|244:206|170:220,1,161.819993580139,6|0,1:2|0:0,0:0:0:0:
145,253,95001,1,10,0:0:0:0:
54,106,95172,2,0,P|102:94|149:78,1,99.1799987893067,2|0,0:0|1:2,0:0:0:0:
8,305,95513,2,0,P|57:316|104:332,1,99.1799987893067,2|8,0:0|0:0,0:0:0:0:
349,166,95853,1,2,0:0:0:0:
240,34,96024,6,0,P|227:136|209:246,1,198.359997578613,2|10,1:2|0:0,0:0:0:0:
119,102,96535,1,2,1:2:0:0:
119,102,96620,1,0,1:2:0:0:
119,102,96706,1,0,1:2:0:0:
319,0,96876,1,2,0:0:0:0:
98,111,97047,2,0,P|70:71|80:24,1,99.1799987893067,10|0,0:0|0:0,0:0:0:0:
241,247,97388,6,0,B|329:234|295:308|375:297,1,148.76999818396,2|0,1:2|0:0,0:0:0:0:
409,359,97728,1,10,0:0:0:0:
227,238,97899,2,0,P|222:190|253:153,1,99.1799987893067,2|0,0:0|1:2,0:0:0:0:
425,67,98240,2,0,P|376:58|328:47,1,99.1799987893067,2|8,0:0|0:0,0:0:0:0:
455,0,98581,1,2,0:0:0:0:
327,305,98751,6,0,B|315:248|293:207|293:207|317:147|409:182,1,198.359997578613,0|8,1:2|0:0,0:0:0:0:
245,332,99263,1,2,1:2:0:0:
245,332,99348,1,0,1:2:0:0:
245,332,99433,1,0,1:2:0:0:
397,244,99603,1,6,0:3:0:0:
231,160,99774,1,8,0:0:0:0:
334,31,99944,2,0,P|338:55|347:78,1,49.5899993946533,2|2,0:0|0:0,0:0:0:0:
500,274,100115,6,0,P|449:255|396:243,1,107.879995720093,6|2,1:2|3:0,0:0:0:0:
245,332,100456,1,8,0:0:0:0:
443,104,100626,1,6,3:3:0:0:
443,104,100711,1,4,0:3:0:0:
443,104,100797,2,0,P|392:122|339:135,1,107.879995720093,10|0,1:3|3:0,0:0:0:0:
468,298,101138,1,10,0:0:0:0:
207,168,101308,5,10,3:3:0:0:
207,168,101393,1,8,0:3:0:0:
207,168,101478,2,0,P|224:117|237:64,1,107.879995720093,0|2,1:2|1:2,0:0:0:0:
93,229,101819,5,10,0:0:0:0:
339,134,101990,1,2,1:2:0:0:
115,15,102160,5,8,0:0:0:0:
297,304,102331,1,6,1:3:0:0:
286,309,102416,1,0,1:2:0:0:
275,314,102501,2,0,L|245:113,1,200.969996013474,8|0,0:0|0:0,0:0:0:0:
304,74,102842,5,12,0:0:0:0:
88,318,103013,1,4,0:3:0:0:
113,306,103098,1,4,0:3:0:0:
137,294,103183,1,0,1:2:0:0:
355,209,103353,5,12,0:0:0:0:
95,73,103524,1,4,0:3:0:0:
101,47,103609,1,4,0:3:0:0:
107,21,103694,1,0,1:2:0:0:
289,310,103865,1,12,0:0:0:0:
115,221,104035,1,0,1:2:0:0:
433,21,104206,1,12,0:0:0:0:
169,335,105058,5,2,1:2:0:0:
169,335,105143,1,2,1:2:0:0:
169,335,105228,2,0,L|155:279,1,57.4200017523194,14|2,0:0|0:0,0:0:0:0:
91,238,105569,6,0,B|127:183|194:205|194:205|220:256|297:259,1,215.759991440186,6|8,1:2|0:0,0:0:0:0:
100,375,106081,1,0,0:0:0:0:
269,176,106251,2,0,P|270:122|234:84,1,107.879995720093,2|0,1:2|0:0,0:0:0:0:
66,253,106592,2,0,L|171:230,1,107.879995720093,8|0,0:0|0:0,0:0:0:0:
291,317,106933,5,2,1:2:0:0:
139,55,107103,2,0,L|116:160,1,107.879995720093,0|8,0:0|0:0,0:0:0:0:
263,10,107444,1,0,0:0:0:0:
110,181,107615,2,0,P|58:173|35:126,1,107.879995720093,2|0,1:2|0:0,0:0:0:0:
151,326,107956,2,0,B|243:334|199:254|289:260,1,161.819993580139,8|0,0:0|0:0,0:0:0:0:
359,384,108297,6,0,B|235:393|301:285|173:294,1,215.759991440186,0|8,1:0|0:0,0:0:0:0:
332,122,108808,1,0,0:0:0:0:
179,293,108978,2,0,P|231:298|268:261,1,107.879995720093,2|0,1:2|0:0,0:0:0:0:
142,42,109319,2,0,P|158:93|167:146,1,107.879995720093,8|0,0:0|0:0,0:0:0:0:
78,109,109660,5,2,1:2:0:0:
302,264,109831,2,0,P|310:210|325:158,1,107.879995720093,0|8,0:0|0:0,0:0:0:0:
446,261,110172,1,4,0:3:0:0:
246,125,110342,1,6,1:3:0:0:
454,38,110513,1,8,0:3:0:0:
302,264,110683,1,10,0:0:0:0:
262,242,110768,1,2,0:0:0:0:
220,225,110853,1,2,0:0:0:0:
176,214,110938,1,2,0:0:0:0:
132,208,111024,6,0,B|123:136|107:97|107:97|187:77|240:36,1,215.759991440186,2|8,1:2|0:0,0:0:0:0:
64,263,111535,1,0,0:0:0:0:
217,38,111706,2,0,P|252:75|242:126,1,107.879995720093,2|0,1:2|0:0,0:0:0:0:
0,28,112047,2,0,L|104:1,1,107.879995720093,8|0,0:0|0:0,0:0:0:0:
241,126,112388,5,2,1:2:0:0:
47,244,112558,1,2,0:0:0:0:
210,334,112728,5,10,0:0:0:0:
106,167,112899,1,2,1:2:0:0:
106,167,112984,1,0,1:2:0:0:
106,167,113069,1,2,1:2:0:0:
51,350,113240,5,0,0:0:0:0:
232,182,113410,2,0,B|220:147|207:124|207:124|222:91|222:91|209:62|199:31,1,161.819993580139,8|0,0:0|0:0,0:0:0:0:
126,0,113751,6,0,P|114:52|96:103,1,107.879995720093,2|0,1:2|3:0,0:0:0:0:
350,76,114092,2,0,P|309:39|274:-2,1,107.879995720093,8|0,0:0|3:0,0:0:0:0:
189,237,114433,2,0,P|240:220|293:210,1,107.879995720093,0|0,1:0|3:0,0:0:0:0:
217,100,114774,1,8,0:0:0:0:
429,384,114944,6,0,B|434:318|462:276|462:276|438:216|346:251,1,233.159988971009,4|0,1:2|1:0,0:0:0:0:
293,209,115370,1,0,1:0:0:0:
281,203,115455,1,12,0:0:0:0:
117,357,115626,5,0,0:0:0:0:
269,197,115797,2,0,L|290:302,1,107.879995720093,4|8,0:3|0:0,0:0:0:0:
353,345,116052,1,8,0:0:0:0:
364,352,116138,2,0,L|420:338,1,53.9399978600465,8|8,0:0|0:0,0:0:0:0:
188,201,116308,2,0,L|135:187,1,53.9399978600465,8|8,0:0|0:0,0:0:0:0:
443,39,116478,6,0,B|304:-40|213:99|268:129|169:270|43:179,1,487.2,4|8,1:2|0:0,0:0:0:0:
247,254,119035,5,0,1:2:0:0:
