osu file format v14

[General]
AudioFilename: audio.ogg
AudioLeadIn: 0
PreviewTime: 41600
Countdown: 0
SampleSet: Soft
StackLeniency: 0.7
Mode: 3
LetterboxInBreaks: 0
SpecialStyle: 0
WidescreenStoryboard: 1

[Editor]
DistanceSpacing: 0.2
BeatDivisor: 8
GridSize: 32
TimelineZoom: 1.2

[Metadata]
Title:Itterasshai (TV Size)
TitleUnicode:いってらっしゃい (TV Size)
Artist:Ai Higuchi
ArtistUnicode:ヒグチアイ
Creator:Kibitz
Version:anatha's Hard
Source:「進撃の巨人」The Final Season 完結編
Tags:Shingeki no Kyojin SNK Finale Final Chapter Chapters Movie Special エンディングテーマ Three 3 Part 2 Two Theme Thema Attack on Titan AoT Ending Ed Anime Short Cut Version Ver Japanese Orchestral Jpop J-Pop See You Later Take Care PONY CANYON Nobutaro Sato Yamato Kasai hamo her LN release mapper anatharax
BeatmapID:4378117
BeatmapSetID:2085980

[Difficulty]
HPDrainRate:7.5
CircleSize:4
OverallDifficulty:7
ApproachRate:5
SliderMultiplier:1.4
SliderTickRate:1

[Events]
//Background and Video events
0,0,"goodbye.jpg",0,0
Video,0,"Itterasshai.m4v"
//Break Periods
//Storyboard Layer 0 (Background)
//Storyboard Layer 1 (Fail)
//Storyboard Layer 2 (Pass)
//Storyboard Layer 3 (Foreground)
//Storyboard Layer 4 (Overlay)
//Storyboard Sound Samples

[TimingPoints]
800,400,4,2,1,50,1,0
42400,-100,4,2,1,50,0,1
53600,-100,4,2,1,50,0,0
55200,-100,4,2,1,50,0,1
68000,-100,4,2,1,50,0,0

[HitObjects]
64,192,800,128,0,1200:0:0:0:0:
448,192,800,128,0,1000:0:0:0:0:
320,192,1000,128,0,1200:0:0:0:0:
192,192,1200,128,0,1600:0:0:0:0:
448,192,1400,128,0,1600:0:0:0:0:
320,192,1600,128,0,2000:0:0:0:0:
64,192,1800,128,0,2000:0:0:0:0:
448,192,2000,128,0,2400:0:0:0:0:
192,192,2200,128,0,2400:0:0:0:0:
64,192,2400,128,0,2800:0:0:0:0:
448,192,2600,128,0,2800:0:0:0:0:
192,192,2800,128,0,3200:0:0:0:0:
320,192,3000,128,0,3200:0:0:0:0:
448,192,3200,128,0,3600:0:0:0:0:
64,192,3400,128,0,3800:0:0:0:0:
320,192,3600,128,0,3800:0:0:0:0:
192,192,3800,128,0,4000:0:0:0:0:
320,192,3900,1,0,0:0:0:0:
64,192,4000,128,0,4200:0:0:0:0:
448,192,4000,128,0,4400:0:0:0:0:
320,192,4200,128,0,4400:0:0:0:0:
192,192,4400,128,0,4800:0:0:0:0:
64,192,4600,128,0,4800:0:0:0:0:
320,192,4800,128,0,5200:0:0:0:0:
448,192,5000,128,0,5200:0:0:0:0:
64,192,5200,128,0,5600:0:0:0:0:
320,192,5400,128,0,5600:0:0:0:0:
192,192,5600,128,0,6000:0:0:0:0:
448,192,5800,128,0,6000:0:0:0:0:
320,192,6000,128,0,6400:0:0:0:0:
64,192,6200,128,0,6400:0:0:0:0:
192,192,6400,128,0,6600:0:0:0:0:
320,192,6500,1,0,0:0:0:0:
448,192,6600,128,0,6800:0:0:0:0:
192,192,6700,1,0,0:0:0:0:
64,192,6800,128,0,7000:0:0:0:0:
448,192,6900,1,0,0:0:0:0:
320,192,7000,128,0,7200:0:0:0:0:
64,192,7100,1,0,0:0:0:0:
448,192,7200,128,0,7600:0:0:0:0:
192,192,7200,128,0,7400:0:0:0:0:
64,192,7400,128,0,7600:0:0:0:0:
192,192,7600,128,0,8000:0:0:0:0:
320,192,7800,128,0,8000:0:0:0:0:
64,192,8000,128,0,8400:0:0:0:0:
448,192,8200,128,0,8400:0:0:0:0:
320,192,8400,128,0,8800:0:0:0:0:
192,192,8600,128,0,8800:0:0:0:0:
448,192,8800,128,0,9200:0:0:0:0:
64,192,9000,128,0,9200:0:0:0:0:
320,192,9200,128,0,9600:0:0:0:0:
64,192,9400,128,0,9800:0:0:0:0:
192,192,9600,128,0,9800:0:0:0:0:
448,192,9800,128,0,10000:0:0:0:0:
320,192,10000,128,0,10200:0:0:0:0:
192,192,10200,128,0,10400:0:0:0:0:
320,192,10300,1,0,0:0:0:0:
448,192,10400,128,0,10800:0:0:0:0:
64,192,10400,128,0,10600:0:0:0:0:
320,192,10600,128,0,10800:0:0:0:0:
64,192,10800,128,0,11200:0:0:0:0:
192,192,11000,128,0,11200:0:0:0:0:
448,192,11200,128,0,11600:0:0:0:0:
320,192,11400,128,0,11600:0:0:0:0:
64,192,11600,128,0,12000:0:0:0:0:
448,192,11800,128,0,12000:0:0:0:0:
320,192,12000,128,0,12400:0:0:0:0:
64,192,12200,128,0,12400:0:0:0:0:
192,192,12400,128,0,12800:0:0:0:0:
320,192,12600,128,0,12800:0:0:0:0:
448,192,12800,128,0,13000:0:0:0:0:
64,192,12900,1,0,0:0:0:0:
192,192,13000,128,0,13200:0:0:0:0:
320,192,13100,1,0,0:0:0:0:
64,192,13200,128,0,13400:0:0:0:0:
320,192,13300,1,0,0:0:0:0:
192,192,13400,1,0,0:0:0:0:
448,192,13500,1,0,0:0:0:0:
320,192,13600,128,0,13800:0:0:0:0:
64,192,13600,128,0,14000:0:0:0:0:
320,192,14000,128,0,14200:0:0:0:0:
64,192,14200,128,0,14400:0:0:0:0:
320,192,14400,128,0,15000:0:0:0:0:
448,192,14400,128,0,14600:0:0:0:0:
192,192,14800,128,0,15200:0:0:0:0:
448,192,15000,128,0,15200:0:0:0:0:
320,192,15200,128,0,15800:0:0:0:0:
64,192,15200,128,0,15600:0:0:0:0:
64,192,15800,128,0,16000:0:0:0:0:
192,192,16000,128,0,16200:0:0:0:0:
320,192,16200,128,0,16600:0:0:0:0:
448,192,16400,128,0,16600:0:0:0:0:
64,192,16600,128,0,17000:0:0:0:0:
192,192,16700,1,0,0:0:0:0:
448,192,16800,128,0,17200:0:0:0:0:
320,192,16800,1,0,0:0:0:0:
192,192,17000,128,0,17400:0:0:0:0:
320,192,17200,128,0,17600:0:0:0:0:
448,192,17400,128,0,17600:0:0:0:0:
64,192,17600,128,0,17800:0:0:0:0:
192,192,17800,128,0,18000:0:0:0:0:
448,192,18000,128,0,18400:0:0:0:0:
320,192,18200,128,0,18400:0:0:0:0:
192,192,18400,128,0,18800:0:0:0:0:
448,192,18600,128,0,18800:0:0:0:0:
64,192,18800,128,0,19200:0:0:0:0:
320,192,18800,128,0,19400:0:0:0:0:
448,192,19200,128,0,19400:0:0:0:0:
64,192,19400,128,0,19600:0:0:0:0:
192,192,19400,128,0,19800:0:0:0:0:
320,192,19600,128,0,20200:0:0:0:0:
448,192,20000,128,0,20200:0:0:0:0:
64,192,20200,128,0,20600:0:0:0:0:
320,192,20600,128,0,21000:0:0:0:0:
64,192,20800,128,0,21000:0:0:0:0:
192,192,21000,128,0,21400:0:0:0:0:
320,192,21200,128,0,21400:0:0:0:0:
64,192,21400,128,0,21800:0:0:0:0:
448,192,21600,128,0,22200:0:0:0:0:
320,192,21600,128,0,21800:0:0:0:0:
192,192,21800,128,0,22000:0:0:0:0:
320,192,22000,128,0,22400:0:0:0:0:
448,192,22400,1,0,0:0:0:0:
192,192,22800,128,0,23000:0:0:0:0:
320,192,23000,128,0,23200:0:0:0:0:
64,192,23100,1,0,0:0:0:0:
448,192,23200,128,0,23400:0:0:0:0:
192,192,23200,128,0,23600:0:0:0:0:
320,192,23600,128,0,24000:0:0:0:0:
64,192,23600,128,0,23800:0:0:0:0:
192,192,23800,128,0,24400:0:0:0:0:
448,192,24000,128,0,24400:0:0:0:0:
320,192,24400,128,0,24600:0:0:0:0:
64,192,24600,128,0,25200:0:0:0:0:
320,192,24800,1,0,0:0:0:0:
320,192,25200,128,0,25400:0:0:0:0:
192,192,25200,128,0,25600:0:0:0:0:
448,192,25400,128,0,25800:0:0:0:0:
320,192,25600,128,0,25800:0:0:0:0:
192,192,25700,1,0,0:0:0:0:
64,192,25800,128,0,26000:0:0:0:0:
320,192,25900,1,0,0:0:0:0:
448,192,26000,128,0,26400:0:0:0:0:
64,192,26100,1,0,0:0:0:0:
192,192,26200,1,0,0:0:0:0:
320,192,26300,1,0,0:0:0:0:
192,192,26400,128,0,26600:0:0:0:0:
64,192,26400,128,0,27200:0:0:0:0:
320,192,26800,128,0,27000:0:0:0:0:
448,192,27200,128,0,27600:0:0:0:0:
192,192,27600,128,0,28000:0:0:0:0:
320,192,27800,1,0,0:0:0:0:
320,192,28000,128,0,28400:0:0:0:0:
64,192,28000,128,0,28600:0:0:0:0:
448,192,28400,128,0,29000:0:0:0:0:
64,192,28800,128,0,29200:0:0:0:0:
320,192,29000,128,0,29600:0:0:0:0:
192,192,29200,128,0,29400:0:0:0:0:
448,192,29400,128,0,29800:0:0:0:0:
64,192,29600,128,0,30200:0:0:0:0:
448,192,30000,128,0,30200:0:0:0:0:
320,192,30200,1,0,0:0:0:0:
320,192,30400,128,0,30800:0:0:0:0:
64,192,30600,128,0,31000:0:0:0:0:
448,192,30800,128,0,31200:0:0:0:0:
192,192,31000,1,0,0:0:0:0:
64,192,31200,128,0,31800:0:0:0:0:
192,192,31200,128,0,31600:0:0:0:0:
448,192,32000,128,0,32200:0:0:0:0:
64,192,32000,128,0,32600:0:0:0:0:
448,192,32400,128,0,33000:0:0:0:0:
64,192,32800,128,0,33000:0:0:0:0:
192,192,32800,128,0,33400:0:0:0:0:
320,192,33000,128,0,33200:0:0:0:0:
448,192,33200,128,0,33600:0:0:0:0:
320,192,33400,128,0,33600:0:0:0:0:
64,192,33600,128,0,34000:0:0:0:0:
192,192,33600,128,0,33800:0:0:0:0:
320,192,34200,128,0,34400:0:0:0:0:
192,192,34400,128,0,34600:0:0:0:0:
64,192,34400,128,0,35000:0:0:0:0:
320,192,34600,128,0,34800:0:0:0:0:
448,192,34800,128,0,35000:0:0:0:0:
192,192,35000,128,0,35200:0:0:0:0:
320,192,35200,128,0,35800:0:0:0:0:
64,192,35200,128,0,35400:0:0:0:0:
448,192,35800,128,0,36200:0:0:0:0:
320,192,36000,128,0,36200:0:0:0:0:
64,192,36000,128,0,36800:0:0:0:0:
320,192,36400,128,0,36600:0:0:0:0:
192,192,36600,128,0,36800:0:0:0:0:
448,192,36800,128,0,37000:0:0:0:0:
64,192,37000,128,0,37200:0:0:0:0:
448,192,37200,128,0,37600:0:0:0:0:
64,192,37400,128,0,37600:0:0:0:0:
192,192,37600,128,0,38000:0:0:0:0:
320,192,37600,128,0,37800:0:0:0:0:
448,192,37800,128,0,38200:0:0:0:0:
64,192,38000,128,0,38200:0:0:0:0:
320,192,38200,128,0,38600:0:0:0:0:
192,192,38400,128,0,38600:0:0:0:0:
448,192,38400,128,0,38800:0:0:0:0:
64,192,38800,128,0,39000:0:0:0:0:
192,192,39000,128,0,39200:0:0:0:0:
448,192,39200,128,0,40800:0:0:0:0:
320,192,39200,1,0,0:0:0:0:
192,192,39800,1,0,0:0:0:0:
320,192,40000,128,0,40800:0:0:0:0:
64,192,40400,1,0,0:0:0:0:
192,192,40600,1,0,0:0:0:0:
192,192,40800,128,0,41000:0:0:0:0:
64,192,40800,128,0,41200:0:0:0:0:
448,192,41000,1,0,0:0:0:0:
320,192,41200,1,0,0:0:0:0:
192,192,41300,1,0,0:0:0:0:
448,192,41400,1,0,0:0:0:0:
64,192,41500,1,0,0:0:0:0:
192,192,41600,1,0,0:0:0:0:
320,192,41600,128,0,42000:0:0:0:0:
192,192,41800,128,0,42000:0:0:0:0:
448,192,42000,128,0,42400:0:0:0:0:
64,192,42000,1,0,0:0:0:0:
64,192,42200,128,0,42400:0:0:0:0:
192,192,42400,128,0,42800:0:0:0:0:
320,192,42400,128,0,42600:0:0:0:0:
448,192,42600,1,0,0:0:0:0:
448,192,42800,128,0,43200:0:0:0:0:
320,192,43000,128,0,43200:0:0:0:0:
192,192,43200,1,0,0:0:0:0:
64,192,43200,128,0,43600:0:0:0:0:
192,192,43600,128,0,44000:0:0:0:0:
320,192,43800,128,0,44000:0:0:0:0:
64,192,44000,128,0,44800:0:0:0:0:
448,192,44000,128,0,44200:0:0:0:0:
448,192,44400,128,0,44800:0:0:0:0:
320,192,44800,128,0,45000:0:0:0:0:
192,192,44800,128,0,45200:0:0:0:0:
320,192,45200,1,0,0:0:0:0:
64,192,45400,128,0,45600:0:0:0:0:
320,192,45600,128,0,45800:0:0:0:0:
448,192,45600,128,0,46000:0:0:0:0:
192,192,45800,1,0,0:0:0:0:
192,192,46000,128,0,46800:0:0:0:0:
448,192,46200,1,0,0:0:0:0:
448,192,46400,128,0,46600:0:0:0:0:
64,192,46400,128,0,46800:0:0:0:0:
320,192,46800,128,0,47100:0:0:0:0:
192,192,47100,1,0,0:0:0:0:
448,192,47200,128,0,47800:0:0:0:0:
64,192,47200,128,0,47600:0:0:0:0:
320,192,47400,1,0,0:0:0:0:
64,192,47800,128,0,48000:0:0:0:0:
448,192,48000,1,0,0:0:0:0:
192,192,48000,128,0,48400:0:0:0:0:
448,192,48400,128,0,48800:0:0:0:0:
64,192,48800,128,0,49400:0:0:0:0:
192,192,48800,128,0,49200:0:0:0:0:
320,192,49000,1,0,0:0:0:0:
320,192,49200,128,0,49600:0:0:0:0:
192,192,49400,1,0,0:0:0:0:
448,192,49600,1,0,0:0:0:0:
192,192,49600,128,0,50000:0:0:0:0:
320,192,50000,128,0,50400:0:0:0:0:
64,192,50200,128,0,50400:0:0:0:0:
448,192,50400,128,0,50600:0:0:0:0:
192,192,50400,128,0,51200:0:0:0:0:
448,192,50800,128,0,51200:0:0:0:0:
64,192,51200,1,0,0:0:0:0:
320,192,51600,128,0,52000:0:0:0:0:
64,192,51600,128,0,51800:0:0:0:0:
448,192,52000,1,0,0:0:0:0:
64,192,52000,128,0,52400:0:0:0:0:
448,192,52200,128,0,52600:0:0:0:0:
192,192,52400,128,0,52800:0:0:0:0:
320,192,52600,1,0,0:0:0:0:
64,192,52800,128,0,53600:0:0:0:0:
320,192,52800,128,0,53200:0:0:0:0:
448,192,53200,128,0,53600:0:0:0:0:
192,192,53600,1,0,0:0:0:0:
192,192,53800,128,0,54000:0:0:0:0:
448,192,54000,1,0,0:0:0:0:
64,192,54200,1,0,0:0:0:0:
320,192,54300,1,0,0:0:0:0:
192,192,54400,1,0,0:0:0:0:
448,192,54400,128,0,54600:0:0:0:0:
192,192,54600,128,0,54800:0:0:0:0:
320,192,54800,128,0,55000:0:0:0:0:
64,192,54800,1,0,0:0:0:0:
448,192,55000,1,0,0:0:0:0:
64,192,55000,128,0,55200:0:0:0:0:
448,192,55200,128,0,55400:0:0:0:0:
192,192,55200,128,0,55600:0:0:0:0:
320,192,55400,1,0,0:0:0:0:
320,192,55600,128,0,56000:0:0:0:0:
64,192,55800,128,0,56000:0:0:0:0:
448,192,56000,1,0,0:0:0:0:
192,192,56000,128,0,56400:0:0:0:0:
320,192,56200,128,0,56400:0:0:0:0:
448,192,56400,128,0,56800:0:0:0:0:
192,192,56600,128,0,56800:0:0:0:0:
320,192,56800,1,0,0:0:0:0:
64,192,56800,128,0,57200:0:0:0:0:
320,192,57000,128,0,57400:0:0:0:0:
448,192,57200,128,0,57400:0:0:0:0:
192,192,57400,1,0,0:0:0:0:
192,192,57600,128,0,58000:0:0:0:0:
320,192,57600,1,0,0:0:0:0:
448,192,57800,128,0,58000:0:0:0:0:
64,192,58000,128,0,58400:0:0:0:0:
448,192,58200,128,0,58400:0:0:0:0:
192,192,58400,128,0,58800:0:0:0:0:
320,192,58600,1,0,0:0:0:0:
320,192,58800,128,0,59200:0:0:0:0:
192,192,59000,128,0,59200:0:0:0:0:
64,192,59200,1,0,0:0:0:0:
448,192,59200,128,0,59600:0:0:0:0:
192,192,59400,128,0,59600:0:0:0:0:
320,192,59600,128,0,59800:0:0:0:0:
64,192,59800,128,0,60000:0:0:0:0:
448,192,60000,128,0,60400:0:0:0:0:
192,192,60000,1,0,0:0:0:0:
192,192,60200,128,0,60400:0:0:0:0:
320,192,60400,128,0,60600:0:0:0:0:
64,192,60600,128,0,60800:0:0:0:0:
320,192,60800,128,0,61200:0:0:0:0:
64,192,61000,128,0,61200:0:0:0:0:
448,192,61200,1,0,0:0:0:0:
192,192,61200,128,0,61400:0:0:0:0:
448,192,61400,128,0,61600:0:0:0:0:
64,192,61600,128,0,61800:0:0:0:0:
320,192,61600,128,0,62000:0:0:0:0:
192,192,61800,1,0,0:0:0:0:
192,192,62000,128,0,62200:0:0:0:0:
64,192,62000,128,0,62400:0:0:0:0:
448,192,62200,1,0,0:0:0:0:
320,192,62400,1,0,0:0:0:0:
448,192,62400,128,0,62600:0:0:0:0:
192,192,62600,128,0,62800:0:0:0:0:
320,192,62800,128,0,63200:0:0:0:0:
64,192,63000,128,0,63200:0:0:0:0:
448,192,63200,128,0,64000:0:0:0:0:
192,192,63200,128,0,63400:0:0:0:0:
192,192,63600,128,0,64000:0:0:0:0:
320,192,64000,1,0,0:0:0:0:
64,192,64000,128,0,64400:0:0:0:0:
320,192,64400,128,0,64800:0:0:0:0:
64,192,64800,128,0,65400:0:0:0:0:
192,192,64800,128,0,65200:0:0:0:0:
448,192,65000,1,0,0:0:0:0:
448,192,65200,128,0,65600:0:0:0:0:
320,192,65400,128,0,65600:0:0:0:0:
64,192,65600,128,0,66000:0:0:0:0:
192,192,65600,1,0,0:0:0:0:
448,192,65800,128,0,66200:0:0:0:0:
192,192,66000,128,0,66400:0:0:0:0:
320,192,66200,128,0,66400:0:0:0:0:
64,192,66400,128,0,66800:0:0:0:0:
448,192,66600,1,0,0:0:0:0:
448,192,66800,128,0,67200:0:0:0:0:
192,192,67000,1,0,0:0:0:0:
64,192,67200,1,0,0:0:0:0:
192,192,67200,128,0,67400:0:0:0:0:
320,192,67400,1,0,0:0:0:0:
320,192,67600,128,0,68000:0:0:0:0:
64,192,67800,1,0,0:0:0:0:
64,192,68000,128,0,68200:0:0:0:0:
64,192,68400,128,0,68600:0:0:0:0:
448,192,68400,128,0,68800:0:0:0:0:
320,192,68600,128,0,68800:0:0:0:0:
192,192,68800,128,0,69000:0:0:0:0:
192,192,69200,128,0,69600:0:0:0:0:
448,192,69600,128,0,69800:0:0:0:0:
192,192,70000,128,0,70400:0:0:0:0:
448,192,70000,128,0,70200:0:0:0:0:
64,192,70200,128,0,70400:0:0:0:0:
320,192,70400,128,0,71000:0:0:0:0:
192,192,70600,128,0,70800:0:0:0:0:
448,192,70800,128,0,72800:0:0:0:0:
64,192,71200,128,0,71400:0:0:0:0:
64,192,71600,128,0,72000:0:0:0:0:
320,192,72000,1,0,0:0:0:0:
320,192,72400,128,0,73200:0:0:0:0:
192,192,72800,128,0,73600:0:0:0:0:
448,192,73200,1,0,0:0:0:0:
320,192,73400,128,0,73600:0:0:0:0:
64,192,73600,128,0,74000:0:0:0:0:
448,192,73600,128,0,73800:0:0:0:0:
192,192,74000,1,0,0:0:0:0:
448,192,74000,128,0,74400:0:0:0:0:
320,192,74200,1,0,0:0:0:0:
64,192,74400,128,0,74600:0:0:0:0:
320,192,74800,128,0,75000:0:0:0:0:
64,192,74800,128,0,75200:0:0:0:0:
448,192,75000,128,0,75400:0:0:0:0:
192,192,75200,128,0,75400:0:0:0:0:
192,192,75600,128,0,76000:0:0:0:0:
320,192,76000,128,0,76200:0:0:0:0:
64,192,76400,128,0,76600:0:0:0:0:
320,192,76400,128,0,76800:0:0:0:0:
192,192,76600,128,0,77000:0:0:0:0:
448,192,76800,128,0,77400:0:0:0:0:
192,192,77200,128,0,77400:0:0:0:0:
64,192,77400,128,0,77800:0:0:0:0:
320,192,77600,128,0,77800:0:0:0:0:
192,192,77800,128,0,78200:0:0:0:0:
448,192,78000,128,0,78200:0:0:0:0:
320,192,78200,128,0,78400:0:0:0:0:
64,192,78400,128,0,78800:0:0:0:0:
192,192,78400,128,0,78600:0:0:0:0:
320,192,78600,128,0,79000:0:0:0:0:
448,192,78800,128,0,79200:0:0:0:0:
64,192,79000,128,0,79400:0:0:0:0:
192,192,79200,128,0,79800:0:0:0:0:
448,192,79400,128,0,79600:0:0:0:0:
320,192,79600,128,0,80200:0:0:0:0:
64,192,79800,128,0,80000:0:0:0:0:
448,192,80000,128,0,80600:0:0:0:0:
192,192,80200,128,0,80600:0:0:0:0:
64,192,80400,128,0,80600:0:0:0:0:
64,192,80800,128,0,81600:0:0:0:0:
192,192,80800,1,0,0:0:0:0:
320,192,82000,128,0,82400:0:0:0:0:
192,192,82400,128,0,83600:0:0:0:0:
448,192,82450,1,0,0:0:0:0:
320,192,83200,128,0,83600:0:0:0:0:
64,192,83200,1,0,0:0:0:0:
448,192,83600,128,0,84000:0:0:0:0:
64,192,84000,128,0,87600:0:0:0:0:
192,192,84000,1,0,0:0:0:0:
448,192,84800,128,0,85200:0:0:0:0:
320,192,84800,1,0,0:0:0:0:
320,192,85600,128,0,86000:0:0:0:0:
448,192,85600,1,0,0:0:0:0:
192,192,86000,128,0,86400:0:0:0:0:
320,192,86400,1,0,0:0:0:0:
448,192,86800,128,0,87000:0:0:0:0:
320,192,87000,128,0,87200:0:0:0:0:
192,192,87200,128,0,87600:0:0:0:0:
448,192,87600,1,0,0:0:0:0:
