osu file format v14

[General]
AudioFilename: audio.mp3
AudioLeadIn: 0
PreviewTime: 50769
Countdown: 0
SampleSet: Soft
StackLeniency: 0.7
Mode: 0
LetterboxInBreaks: 0
WidescreenStoryboard: 1

[Editor]
Bookmarks: 765,24769,35439,46106,51439,62106,72773,82106
DistanceSpacing: 0.9
BeatDivisor: 8
GridSize: 32
TimelineZoom: 1.6

[Metadata]
Title:Akuma no Ko (TV Size)
TitleUnicode:悪魔の子 (TV Size)
Artist:Ai Higuchi
ArtistUnicode:ヒグチアイ
Creator:hypercyte
Version:Normal
Source:進撃の巨人 Attack on Titan The Final Season Part 2
Tags:aot snk attack on titan shingeki no kyojin season 4 four final season part 2 two devil's child of evil demon hypercute eren jaeger yaeger freedom ending ed 2 last season pop jpop j-pop japanese orchestral anime higuchiai
BeatmapID:3414158
BeatmapSetID:1670886

[Difficulty]
HPDrainRate:3
CircleSize:3.5
OverallDifficulty:4
ApproachRate:6
SliderMultiplier:2.4
SliderTickRate:1

[Events]
//Background and Video events
0,0,"R41Pa.jpg",0,0
Video,50,"akuma no ko 32rf.mp4"
//Break Periods
2,46106,47723
//Storyboard Layer 0 (Background)
//Storyboard Layer 1 (Fail)
//Storyboard Layer 2 (Pass)
//Storyboard Layer 3 (Foreground)
//Storyboard Layer 4 (Overlay)
//Storyboard Sound Samples

[TimingPoints]
765,666.666666666667,4,2,4,30,1,0
765,-133.333333333333,4,2,4,30,0,0
1765,652.173913043479,4,2,4,30,1,0
2091,655.737704918033,4,2,4,30,1,0
2091,-133.333333333333,4,2,4,30,0,0
3427,681.818181818182,4,2,4,30,1,0
4961,659.340659340659,4,2,4,30,1,8
5125,652.173913043478,4,2,4,30,1,8
6108,666.666666666667,4,2,4,30,1,0
6108,-133.333333333333,4,2,4,30,0,0
10108,-133.333333333333,4,2,4,30,0,0
14108,-133.333333333333,4,2,4,40,0,0
16745,666.666666666667,4,2,4,40,1,0
16745,-133.333333333333,4,2,4,40,0,0
17245,689.655172413793,4,2,4,40,1,0
17934,618.556701030928,4,2,4,40,1,0
18245,666.666666666667,4,2,4,40,1,0
18245,-133.333333333333,4,2,4,40,0,0
19411,681.818181818182,4,2,4,40,1,0
19411,-133.333333333333,4,2,4,40,0,0
20774,666.666666666667,4,2,4,40,1,8
20774,-133.333333333333,4,2,4,40,0,0
22107,666.666666666667,4,2,4,40,1,0
22107,-133.333333333333,4,2,4,40,0,0
24773,666.666666666667,4,2,4,50,1,0
25773,-117.647058823529,4,2,4,50,0,0
33356,-117.647058823529,4,2,4,5,0,0
33439,-117.647058823529,4,2,4,50,0,0
34023,-117.647058823529,4,2,4,5,0,0
34106,-117.647058823529,4,2,4,50,0,0
41439,-117.647058823529,4,2,4,60,0,0
44606,-117.647058823529,4,2,4,65,0,0
46106,-117.647058823529,4,2,4,44,0,0
46273,-117.647058823529,4,2,4,30,0,0
49439,-117.647058823529,4,2,4,70,0,0
51439,-100,4,2,4,70,0,0
82106,-133.333333333333,4,2,4,70,0,0
82773,-133.333333333333,4,2,4,30,0,0
83106,-133.333333333333,4,2,4,35,0,0
87189,-133.333333333333,4,2,4,35,0,0

[Colours]
Combo1 : 255,169,132
Combo2 : 207,180,181
Combo3 : 155,159,187
Combo4 : 191,190,162
Combo5 : 255,91,140
Combo6 : 255,157,255
Combo7 : 196,159,255
Combo8 : 138,211,255

[HitObjects]
72,151,765,6,0,P|123:87|209:117,1,180.000006866455,2|0,0:0|0:0,0:0:0:0:
382,293,2091,2,0,P|376:334|380:392,2,90.0000034332277,2|0|0,0:0|0:0|0:0,0:0:0:0:
447,49,3427,1,2,0:0:0:0:
261,219,4108,1,0,0:0:0:0:
23,134,4790,1,0,0:0:0:0:
89,29,5125,1,0,0:0:0:0:
196,83,5451,1,0,0:0:0:0:
178,332,6108,6,0,B|230:332|271:295|248:295|293:264|349:262,1,180.000006866455,2|0,0:0|0:0,0:0:0:0:
150,96,7441,2,0,P|128:47|153:15,2,90.0000034332277,2|0|0,0:0|0:0|0:0,0:0:0:0:
394,157,8774,1,2,0:0:0:0:
184,297,9441,1,0,0:0:0:0:
432,338,10108,2,0,P|468:312|459:268,2,90.0000034332277
341,249,11108,1,2,0:0:0:0:
247,333,11441,2,0,P|178:308|65:289,1,180.000006866455,2|0,0:0|0:0,0:0:0:0:
256,192,12274,12,0,13440,0:0:0:0:
222,146,14108,6,0,P|222:108|227:100,2,45.0000017166138,6|0|0,0:0|0:0|0:0,0:0:0:0:
260,170,14608,2,0,L|355:151,1,90.0000034332277
460,228,15441,2,0,P|477:277|428:340,1,135.000005149841,2|0,0:0|0:0,0:0:0:0:
344,310,16274,1,0,0:0:0:0:
263,344,16608,85,0,0:0:0:0:
263,344,16745,2,0,P|216:321|227:246,1,135.000005149841,2|0,0:0|0:0,0:0:0:0:
265,167,17589,1,0,0:0:0:0:
190,116,17935,1,0,0:0:0:0:
246,46,18243,1,2,0:0:0:0:
246,46,18411,2,0,P|311:45|328:69,2,90.0000034332277,2|0|0,0:0|0:0|0:0,0:0:0:0:
190,116,19411,6,0,P|125:118|91:176,1,135.000005149841,2|0,0:0|0:0,0:0:0:0:
121,258,20263,1,0,0:0:0:0:
252,228,20774,2,0,L|299:208,2,45.0000017166138,2|0|0,0:0|0:0|0:0,0:0:0:0:
234,268,21274,2,0,B|221:312|221:312|259:337,1,90.0000034332277
392,332,22107,6,0,P|398:260|421:192,1,135.000005149841,2|0,0:0|0:0,0:0:0:0:
492,144,22940,1,0,0:0:0:0:
443,74,23273,1,0,0:0:0:0:
443,74,23440,1,0,0:0:0:0:
87,131,24773,85,8,0:2:0:0:
170,163,25106,1,0,0:0:0:0:
174,252,25439,1,2,0:0:0:0:
276,257,25773,6,0,B|329:244|377:269|377:269|394:219|446:193,1,204.000003890991,0|2,0:0|0:0,0:0:0:0:
389,107,26773,2,0,B|336:94|288:119|288:119|271:69|219:43,1,204.000003890991,2|10,0:0|0:2,0:0:0:0:
172,42,27606,1,8,0:0:0:0:
172,42,27773,1,8,0:0:0:0:
107,120,28106,1,0,0:0:0:0:
178,192,28439,6,0,B|206:202|222:220|222:220|240:209|272:206,1,102.000001945496,0|2,0:0|0:0,0:0:0:0:
339,280,29106,2,0,B|367:270|383:252|383:252|401:263|433:266,2,102.000001945496,2|2|2,0:0|0:0|0:0,0:0:0:0:
267,352,30106,2,0,B|210:340|182:303|182:303|133:326|70:320,1,204.000003890991,10|0,0:2|0:0,0:0:0:0:
27,234,31106,86,0,P|29:203|47:193,1,51.0000009727478,0|8,0:0|0:0,0:0:0:0:
95,193,31439,1,10,0:0:0:0:
190,230,31773,1,10,0:2:0:0:
284,191,32106,2,0,B|314:193|332:206|332:206|355:196|383:195,1,102.000001945496,2|2,0:0|0:0,0:0:0:0:
396,93,32773,2,0,B|366:91|348:78|348:78|325:88|298:88,1,102.000001945496,10|0,0:0|0:0,0:0:0:0:
208,135,33439,2,0,B|152:148|122:184|122:184|63:163|12:179,2,204.000003890991,2|2|2,0:0|0:0|0:0,0:0:0:0:
396,240,35439,5,12,0:0:0:0:
385,290,35606,1,8,0:0:0:0:
333,288,35773,1,8,0:0:0:0:
299,191,36106,1,2,0:0:0:0:
212,244,36439,6,0,B|183:245|162:235|162:235|152:255|120:274,2,102.000001945496,0|10|10,0:0|0:0|0:0,0:0:0:0:
299,191,37439,2,0,B|327:202|337:222|337:222|358:212|387:213,1,102.000001945496,2|2,0:0|0:0,0:0:0:0:
480,255,38106,1,10,0:0:0:0:
423,339,38439,2,0,B|403:343|394:347|394:347|382:339|364:333,1,51.0000009727478,8|0,0:0|0:0,0:0:0:0:
326,321,38773,1,0,0:0:0:0:
224,312,39106,86,0,B|195:303|182:283|182:283|158:286|129:279,2,102.000001945496,0|2|10,0:0|0:0|0:0,0:0:0:0:
295,238,40106,2,0,B|312:215|318:195|318:195|338:201|371:203,1,102.000001945496,2|2,0:0|0:0,0:0:0:0:
449,137,40773,1,8,0:0:0:0:
449,137,40939,1,8,0:0:0:0:
449,137,41106,1,8,0:0:0:0:
376,64,41439,1,2,0:0:0:0:
247,147,41939,5,10,0:0:0:0:
247,147,42106,2,0,B|203:143|173:163|173:163|149:123|93:115,1,153.000002918243,10|0,0:0|0:0,0:0:0:0:
62,124,42773,1,2,0:0:0:0:
82,275,43273,5,2,0:0:0:0:
129,256,43439,2,0,B|205:241|276:280|276:280|321:214|407:193,1,306.000005836487,10|2,0:0|0:0,0:0:0:0:
396,144,44606,2,0,B|338:116|274:131|274:131|252:70|188:35,1,255.000004863739,10|0,0:0|0:0,0:0:0:0:
256,192,48773,12,2,50773,0:0:0:0:
317,357,51439,6,0,P|303:297|302:99,1,240,14|0,0:0|0:0,0:0:0:0:
209,38,52439,2,0,P|146:27|140:34,1,60,8|8,0:1|0:1,0:0:0:0:
116,63,52773,2,0,P|133:126|136:187,1,120,10|0,0:1|0:0,0:0:0:0:
186,289,53439,1,0,0:0:0:0:
284,219,53773,5,8,0:0:0:0:
327,260,53939,1,8,0:0:0:0:
379,230,54106,2,0,P|362:165|366:-9,1,240,10|0,0:0|0:0,0:0:0:0:
458,69,55106,2,0,P|456:109|441:124,1,60,8|8,0:1|0:1,0:0:0:0:
388,140,55439,1,10,0:1:0:0:
388,140,55606,1,8,0:1:0:0:
220,75,56106,2,0,P|185:92|178:180,1,120
241,262,56773,6,0,B|303:266|360:243|353:237|390:208|480:201,1,240,10|0,0:0|0:0,0:0:0:0:
476,321,57773,2,0,P|450:354|431:352,1,60,8|8,0:1|0:1,0:0:0:0:
376,345,58106,2,0,P|312:343|275:390,1,120,10|0,0:1|0:0,0:0:0:0:
166,334,58773,5,2,0:0:0:0:
239,239,59106,1,10,0:0:0:0:
200,192,59273,1,8,0:0:0:0:
241,149,59439,2,0,B|295:163|295:163|299:168|299:168|364:185,2,120,10|2|2,0:0|0:0|0:0,0:0:0:0:
125,119,60439,2,0,P|104:99|118:66,1,60,10|8,0:1|0:1,0:0:0:0:
162,39,60773,5,10,0:1:0:0:
277,72,61106,1,2,0:0:0:0:
316,185,61439,1,2,0:0:0:0:
261,292,61773,1,2,0:0:0:0:
155,235,62106,54,0,P|139:157|-7:105,1,240,12|0,0:0|0:0,0:0:0:0:
17,221,63106,2,0,P|42:256|37:275,1,60,8|0,0:1|0:0,0:0:0:0:
24,328,63439,2,0,P|59:367|127:347,1,120,10|0,0:1|0:0,0:0:0:0:
231,310,64106,1,0,0:0:0:0:
336,366,64439,5,8,0:0:0:0:
385,332,64606,1,8,0:0:0:0:
438,358,64773,2,0,P|426:280|429:118,1,240,8|0,0:0|0:0,0:0:0:0:
333,46,65773,2,0,P|285:40|281:56,1,60,8|8,0:1|0:1,0:0:0:0:
263,95,66106,1,10,0:1:0:0:
311,129,66273,1,8,0:1:0:0:
138,181,66773,1,0,0:0:0:0:
22,211,67106,2,0,P|-6:250|9:274,1,60,2|2,0:0|0:0,0:0:0:0:
21,311,67439,6,0,B|85:300|140:320|140:320|171:288|263:266,1,240,10|0,0:0|0:0,0:0:0:0:
364,293,68439,2,0,P|408:298|425:279,1,60,8|8,0:1|0:1,0:0:0:0:
437,232,68773,2,0,P|397:180|400:46,1,180,10|0,0:1|0:0,0:0:0:0:
427,21,69439,1,2,0:0:0:0:
511,106,69773,5,10,0:0:0:0:
474,146,69939,1,8,0:0:0:0:
508,188,70106,1,10,0:0:0:0:
431,280,70439,1,2,0:0:0:0:
313,254,70773,1,2,0:0:0:0:
250,356,71106,1,2,0:0:0:0:
138,311,71439,1,8,0:1:0:0:
138,311,71606,1,8,0:1:0:0:
242,164,72106,6,0,P|246:120|223:103,1,60,2|2,0:0|0:0,0:0:0:0:
185,80,72439,2,0,P|127:83|116:100,1,60,2|2,0:0|0:0,0:0:0:0:
97,132,72773,53,12,0:0:0:0:
159,234,73106,1,0,0:0:0:0:
278,234,73439,1,8,0:0:0:0:
324,272,73606,1,8,0:0:0:0:
293,323,73773,1,12,0:0:0:0:
399,378,74106,5,2,0:0:0:0:
469,281,74439,1,2,0:0:0:0:
397,184,74773,2,0,P|385:141|400:127,1,60,10|10,0:0|0:0,0:0:0:0:
444,104,75106,2,0,P|450:63|430:45,1,60,10|2,0:0|0:0,0:0:0:0:
384,26,75439,5,8,0:0:0:0:
285,94,75773,1,0,0:0:0:0:
175,45,76106,2,0,P|128:46|117:56,1,60,8|8,0:1|0:1,0:0:0:0:
93,106,76439,1,8,0:1:0:0:
167,200,76773,1,0,0:0:0:0:
64,347,77273,5,0,0:0:0:0:
64,347,77439,2,0,P|94:331|127:339,1,60,2|10,0:0|0:0,0:0:0:0:
174,358,77773,2,0,P|204:342|237:350,1,60,10|2,0:0|0:0,0:0:0:0:
279,377,78106,1,8,0:0:0:0:
368,221,78606,5,0,0:0:0:0:
368,221,78773,2,0,P|410:246|411:261,1,60,2|2,0:0|0:0,0:0:0:0:
388,307,79106,2,0,P|388:343|409:362,1,60,10|10,0:1|0:1,0:0:0:0:
463,363,79439,1,12,0:0:0:0:
481,183,79939,53,0,0:0:0:0:
481,183,80106,2,0,L|457:121,1,60,2|2,0:0|0:0,0:0:0:0:
400,116,80439,2,0,L|376:54,1,60,2|2,0:0|0:0,0:0:0:0:
322,37,80773,5,8,0:0:0:0:
236,120,81106,1,0,0:0:0:0:
323,201,81439,1,10,0:0:0:0:
240,288,81773,1,2,0:0:0:0:
329,356,82106,5,4,0:0:0:0:
459,231,82773,1,2,0:0:0:0:
309,130,83439,1,0,0:0:0:0:
230,174,83773,1,0,0:0:0:0:
150,132,84106,1,2,0:0:0:0:
229,293,84773,5,0,0:0:0:0:
369,180,85439,1,2,0:0:0:0:
222,75,86106,1,0,0:0:0:0:
159,139,86439,1,0,0:0:0:0:
75,105,86773,1,2,0:0:0:0:
17,173,87106,5,2,3:2:0:0:
