osu file format v14

[General]
AudioFilename: audio.mp3
AudioLeadIn: 0
PreviewTime: 50769
Countdown: 0
SampleSet: Soft
StackLeniency: 0.7
Mode: 0
LetterboxInBreaks: 0
WidescreenStoryboard: 0

[Editor]
Bookmarks: 765,14108,24773,35439,46106,51439,62106,72773,82106
DistanceSpacing: 1.1
BeatDivisor: 8
GridSize: 32
TimelineZoom: 1.6

[Metadata]
Title:Akuma no Ko (TV Size)
TitleUnicode:悪魔の子 (TV Size)
Artist:Ai Higuchi
ArtistUnicode:ヒグチアイ
Creator:hypercyte
Version:Jiyuu
Source:進撃の巨人 Attack on Titan The Final Season Part 2
Tags:aot snk attack on titan shingeki no kyojin season 4 four final season part 2 two devil's child of evil demon hypercute eren jaeger yaeger freedom ending ed 2 last season pop jpop j-pop japanese orchestral anime higuchiai
BeatmapID:3412619
BeatmapSetID:1670886

[Difficulty]
HPDrainRate:5.5
CircleSize:4.4
OverallDifficulty:6.9
ApproachRate:9.2
SliderMultiplier:3
SliderTickRate:1

[Events]
//Background and Video events
0,0,"R41Pa.jpg",0,0
Video,50,"akuma no ko 32rf.mp4"
//Break Periods
//Storyboard Layer 0 (Background)
//Storyboard Layer 1 (Fail)
//Storyboard Layer 2 (Pass)
//Storyboard Layer 3 (Foreground)
//Storyboard Layer 4 (Overlay)
//Storyboard Sound Samples

[TimingPoints]
765,666.666666666667,4,2,4,30,1,0
765,-200,4,2,4,30,0,0
1765,652.173913043479,4,2,4,30,1,0
2091,655.737704918033,4,2,4,30,1,0
2091,-200,4,2,4,30,0,0
3427,681.818181818182,4,2,4,30,1,0
3427,-200,4,2,4,30,0,0
4279,-133.333333333333,4,2,4,30,0,0
4961,659.340659340659,4,2,4,30,1,8
5125,652.173913043478,4,2,4,30,1,8
6108,666.666666666667,4,2,4,30,1,0
6108,-200,4,2,4,30,0,0
9608,-133.333333333333,4,2,4,30,0,0
14102,-133.333333333333,4,2,4,40,0,0
16745,666.666666666667,4,2,4,40,1,0
16745,-133.333333333333,4,2,4,40,0,0
17245,689.655172413793,4,2,4,40,1,0
17245,-133.333333333333,4,2,4,40,0,0
17934,618.556701030928,4,2,4,40,1,0
18245,666.666666666667,4,2,4,40,1,0
19411,681.818181818182,4,2,4,40,1,0
19411,-133.333333333333,4,2,4,40,0,0
20774,666.666666666667,4,2,4,40,1,8
20774,-133.333333333333,4,2,4,40,0,8
21769,-100,4,2,4,40,0,0
22107,666.666666666667,4,2,4,44,1,0
23440,-100,4,2,4,40,0,0
24773,666.666666666667,4,2,4,50,1,0
25523,-100,4,2,4,5,0,0
25606,-100,4,2,4,50,0,0
25773,-133.333333333333,4,2,4,50,0,0
26106,-83.3333333333333,4,2,4,50,0,0
28439,-133.333333333333,4,2,4,50,0,0
28773,-74.6268656716418,4,2,4,50,0,0
31106,-133.333333333333,4,2,4,50,0,0
31439,-83.3333333333333,4,2,4,50,0,0
32106,-133.333333333333,4,2,4,50,0,0
32773,-200,4,2,4,50,0,0
33356,-200,4,2,4,5,0,0
33439,-200,4,2,4,50,0,0
34023,-200,4,2,4,5,0,0
34106,-100,4,2,4,50,0,0
36439,-133.333333333333,4,2,4,50,0,0
36773,-86.9565217391304,4,2,4,50,0,0
38106,-100,4,2,4,50,0,0
39106,-133.333333333333,4,2,4,50,0,0
39439,-74.0740740740741,4,2,4,50,0,0
41439,-83.3333333333333,4,2,4,60,0,0
44606,-71.4285714285714,4,2,4,65,0,0
46106,-71.4285714285714,4,2,4,44,0,0
46273,-200,4,2,4,30,0,0
48689,-200,4,2,4,5,0,0
48773,-200,4,2,4,30,0,0
49439,-133.333333333333,4,2,4,70,0,0
51439,-71.4285714285714,4,2,4,70,0,0
52773,-76.9230769230769,4,2,4,70,0,0
58023,-83.3333333333333,4,2,4,70,0,0
58773,-76.9230769230769,4,2,4,70,0,0
59773,-71.4285714285714,4,2,4,70,0,0
60773,-76.9230769230769,4,2,4,70,0,0
61439,-100,4,2,4,70,0,0
62106,-76.9230769230769,4,2,4,70,0,0
68773,-100,4,2,4,70,0,0
69439,-76.9230769230769,4,2,4,70,0,0
70439,-71.4285714285714,4,2,4,70,0,0
78773,-100,4,2,4,70,0,0
80439,-71.4285714285714,4,2,4,70,0,0
82106,-83.3333333333333,4,2,4,70,0,0
82773,-83.3333333333333,4,2,4,30,0,0
83106,-200,4,2,4,35,0,0
87189,-200,4,2,4,5,0,0

[Colours]
Combo1 : 255,169,132
Combo2 : 207,180,181
Combo3 : 155,159,187
Combo4 : 191,190,162
Combo5 : 255,91,140
Combo6 : 255,157,255
Combo7 : 196,159,255
Combo8 : 138,211,255

[HitObjects]
135,131,765,6,0,P|181:129|189:139,2,37.5,2|0|0,0:0|0:0|0:0,0:0:0:0:
142,213,1265,2,0,P|184:236|190:259,1,75
400,289,1928,5,0,0:0:0:0:
400,289,2091,2,0,P|398:251|381:233,2,37.5,2|0|0,0:0|0:0|0:0,0:0:0:0:
326,328,2582,1,0,0:0:0:0:
269,276,2910,1,0,0:0:0:0:
310,205,3238,5,0,0:0:0:0:
310,205,3427,2,0,P|320:167|341:155,2,37.5,2|0|0,0:0|0:0|0:0,0:0:0:0:
395,223,3938,1,0,0:0:0:0:
395,223,4279,86,0,P|423:166|486:165,2,112.500004291535,2|2|2,0:0|0:0|0:0,0:0:0:0:
394,314,5125,1,2,0:0:0:0:
331,368,5288,1,2,0:0:0:0:
254,332,5451,5,0,0:0:0:0:
249,299,5614,1,0,0:0:0:0:
265,275,5777,1,0,0:0:0:0:
294,267,5940,1,0,0:0:0:0:
362,165,6108,6,0,P|355:120|340:112,2,37.5,2|0|0,0:0|0:0|0:0,0:0:0:0:
288,187,6608,2,0,P|260:164|237:167,1,37.5
294,267,6941,1,0,0:0:0:0:
59,316,7274,85,0,0:0:0:0:
59,316,7441,2,0,P|55:275|72:264,2,37.5,2|0|0,0:0|0:0|0:0,0:0:0:0:
134,348,7941,1,0,0:0:0:0:
51,187,8274,1,0,0:0:0:0:
51,187,8608,5,0,0:0:0:0:
51,187,8774,2,0,P|49:146|60:136,2,37.5,2|0|0,0:0|0:0|0:0,0:0:0:0:
140,222,9274,1,0,0:0:0:0:
140,222,9608,5,2,0:0:0:0:
140,222,9774,1,2,0:0:0:0:
140,222,9941,1,2,0:0:0:0:
139,20,10274,86,0,P|184:37|185:56,2,56.2500021457673
379,202,10941,6,0,P|353:172|359:145,2,56.2500021457673,2|2|2,0:0|0:0|0:0,0:0:0:0:
476,231,11441,2,0,P|452:155|109:32,1,450.000017166138,2|0,0:0|0:0,0:0:0:0:
256,192,12941,12,0,13941,0:0:0:0:
231,268,14108,6,0,L|295:283,2,56.2500021457673,6|0|0,0:0|0:0|0:0,0:0:0:0:
223,176,14608,2,0,L|347:205,1,112.500004291535
121,109,15274,85,0,0:0:0:0:
121,109,15441,2,0,L|185:94,2,56.2500021457673,2|0|0,0:0|0:0|0:0,0:0:0:0:
41,49,15941,1,0,0:0:0:0:
223,176,16274,1,0,0:0:0:0:
418,309,16608,5,0,0:0:0:0:
418,309,16745,2,0,L|436:251,2,56.2500021457673,2|0|0,0:0|0:0|0:0,0:0:0:0:
314,270,17245,2,0,L|356:407,2,112.500004291535
159,47,18245,5,2,0:0:0:0:
41,136,18411,1,2,0:0:0:0:
84,266,18578,1,2,0:0:0:0:
112,167,18745,85,0,0:0:0:0:
78,135,18911,1,0,0:0:0:0:
104,98,19078,1,0,0:0:0:0:
86,80,19245,1,0,0:0:0:0:
214,214,19411,6,0,L|270:193,2,56.2500021457673,2|0|0,0:0|0:0|0:0,0:0:0:0:
192,303,19922,1,0,0:0:0:0:
192,303,20263,1,0,0:0:0:0:
314,115,20604,5,0,0:0:0:0:
313,39,20774,2,0,L|333:118,2,56.2500021457673,2|0|0,0:0|0:0|0:0,0:0:0:0:
363,194,21274,1,0,0:0:0:0:
363,194,21440,1,0,0:0:0:0:
363,194,21607,1,0,0:0:0:0:
106,281,21940,85,0,0:0:0:0:
166,186,22107,1,2,0:0:0:0:
106,281,22273,1,2,0:0:0:0:
46,380,22440,1,2,0:0:0:0:
40,223,22607,6,0,L|21:150,1,75
189,298,22940,2,0,L|207:370,1,75
417,177,23273,5,2,0:0:0:0:
417,177,23440,2,0,B|350:168|303:127|334:127|281:70|226:70,1,225,2|0,0:0|0:0,0:0:0:0:
256,192,24107,12,8,24773,0:2:0:0:
255,383,24940,85,8,0:2:0:0:
171,345,25107,1,8,0:2:0:0:
256,192,25273,1,0,0:0:0:0:
35,80,25440,2,0,P|32:66|38:80,1,37.5,2|0,0:0|0:0,0:0:0:0:
256,192,25774,6,0,B|265:169|262:150|262:150|267:172|287:188,1,84.3750032186509
334,263,26106,2,0,B|384:261|407:221|407:221|401:269|445:321,1,179.999994506836,10|2,0:0|0:0,0:0:0:0:
149,166,26774,5,2,0:0:0:0:
113,173,26940,1,0,0:0:0:0:
79,156,27107,1,2,0:0:0:0:
91,189,27274,1,0,0:0:0:0:
77,222,27440,2,0,B|169:233|233:151|233:151|221:252|298:318,1,359.999989013672,10|0,0:2|0:0,0:0:0:0:
445,68,28440,86,0,B|421:60|410:42|410:42|416:64|407:83,1,84.3750032186509
357,196,28774,2,0,B|408:192|445:152|445:152|467:203|512:225,3,200.999990492249,2|2|2|2,0:0|0:0|0:0|0:0,0:0:0:0:
244,202,30107,5,10,0:2:0:0:
207,208,30274,1,8,0:2:0:0:
184,241,30440,1,8,0:2:0:0:
148,222,30607,1,0,0:0:0:0:
114,228,30774,1,0,0:0:0:0:
86,60,31107,6,0,B|112:69|124:84|124:84|139:74|159:69,1,84.3750032186509
259,123,31440,2,0,B|306:123|343:150|343:150|371:100|405:86,1,179.999994506836,10|10,0:0|0:2,0:0:0:0:
207,269,32107,2,0,B|181:272|157:290|157:290|139:257|118:249,1,112.500004291535,2|2,0:0|0:0,0:0:0:0:
320,368,32774,86,0,B|354:353|368:324|368:324|395:351|431:350,1,131.25,10|0,0:0|0:0,0:0:0:0:
425,266,33440,2,0,B|401:235|407:203|407:203|395:234|359:246,1,131.25,2|0,0:0|0:0,0:0:0:0:
297,170,34107,2,0,B|327:110|312:27|312:27|357:90|452:113,2,300,2|2|12,0:0|0:0|0:0,0:0:0:0:
214,250,35607,5,8,0:0:0:0:
199,171,35774,1,8,0:0:0:0:
79,150,35940,1,0,0:0:0:0:
17,17,36107,1,2,0:0:0:0:
304,107,36440,6,0,B|326:118|336:136|336:136|352:121|382:117,1,84.3750032186509
427,186,36774,2,0,B|389:203|369:243|369:243|332:214|279:212,1,172.500003290176,10|10,0:0|0:0,0:0:0:0:
30,98,37440,85,2,0:0:0:0:
64,102,37607,1,0,0:0:0:0:
90,124,37774,1,2,0:0:0:0:
107,94,37940,1,0,0:0:0:0:
138,80,38107,2,0,B|199:116|203:202|203:202|282:155|354:175,1,300,10|0,0:0|0:0,0:0:0:0:
135,294,39107,6,0,B|119:308|112:332|112:332|99:312|70:300,1,84.3750032186509
209,353,39440,2,0,B|259:352|303:368|303:368|344:339|411:334,3,202.500000772476,2|10|2|2,0:0|0:0|0:0|0:0,0:0:0:0:
251,173,40774,6,0,P|281:161|315:168,1,50.6250001931191,8|0,0:0|0:0,0:0:0:0:
312,164,40940,2,0,B|325:164|341:168|341:168|347:159|360:151,1,50.6250001931191,8|0,0:0|0:0,0:0:0:0:
367,143,41107,2,0,P|390:123|414:117,1,50.6250001931191,8|0,0:0|0:0,0:0:0:0:
183,260,41440,86,0,B|141:246|94:255|94:255|71:218|26:198,1,179.999994506836,2|0,0:0|0:0,0:0:0:0:
137,160,41940,1,10,0:0:0:0:
263,338,42107,2,0,B|330:302|347:239|347:239|414:265|495:251,1,269.999991760254,10|0,0:0|0:0,0:0:0:0:
283,160,42774,5,2,0:0:0:0:
213,109,42940,1,0,0:0:0:0:
183,22,43107,1,0,0:0:0:0:
113,83,43274,1,2,0:0:0:0:
32,94,43440,6,0,B|146:155|207:294|207:294|322:216|462:227,1,539.999983520508,10|2,0:0|0:0,0:0:0:0:
504,35,44607,2,0,B|382:57|286:159|286:159|175:71|7:96,1,524.999983978272,10|0,0:0|0:0,0:0:0:0:
256,192,45524,12,2,46107,0:0:0:0:
356,311,46607,85,0,0:0:0:0:
356,311,46774,1,0,0:0:0:0:
164,186,47274,5,0,0:0:0:0:
164,186,47440,2,0,B|204:169|224:145|224:145|256:162|297:165,1,150
370,262,48607,6,0,P|375:278|380:282,1,18.75
444,236,48774,1,0,0:0:0:0:
444,236,49107,1,0,0:0:0:0:
444,236,49440,86,0,P|413:161|126:24,1,393.750015020371,2|0,0:0|0:0,0:0:0:0:
114,216,50773,37,2,0:0:0:0:
116,235,50884,1,2,0:0:0:0:
133,223,50995,1,2,0:0:0:0:
84,132,51106,5,2,0:0:0:0:
37,126,51217,1,2,0:0:0:0:
47,168,51328,1,2,0:0:0:0:
163,148,51439,6,0,B|250:103|244:1|244:1|271:105|387:108,1,367.49998878479,14|0,0:0|0:0,0:0:0:0:
463,124,52106,2,0,B|498:104|484:65|484:65|455:80|454:113,1,104.999996795654
182,364,52439,5,8,0:1:0:0:
217,294,52550,1,8,0:1:0:0:
294,286,52661,1,8,0:1:0:0:
375,322,52773,6,0,B|454:314|450:211|450:211|427:238|402:251|403:230|367:260|369:316,1,292.499986610413,10|0,0:1|0:0,0:0:0:0:
130,98,53439,54,0,B|128:64|167:54|167:54|169:84|151:95,1,97.4999955368044
89,192,53773,2,0,B|66:217|31:196|31:196|51:174|72:179,1,97.4999955368044,0|8,0:0|0:0,0:0:0:0:
375,319,54106,6,0,B|330:273|310:202|371:153|321:90|321:90|278:151|344:202|327:274|285:320,1,487.499977684022,10|0,0:0|0:0,0:0:0:0:
82,200,55106,5,8,0:1:0:0:
109,133,55217,1,8,0:1:0:0:
182,138,55328,1,8,0:1:0:0:
178,243,55439,5,10,0:1:0:0:
236,58,55606,2,0,P|199:139|176:266,1,194.999991073609,8|0,0:1|0:0,0:0:0:0:
322,52,56106,2,0,B|373:-8|455:54|455:54|420:56|395:70|412:81|368:93|323:59,1,292.499986610413
109,133,56773,6,0,B|29:135|21:32|21:32|46:56|73:66|70:45|109:70|113:126,1,292.499986610413,10|0,0:0|0:0,0:0:0:0:
141,245,57439,2,0,B|143:279|104:289|104:289|102:259|120:248,1,97.4999955368044
301,215,57773,53,8,0:1:0:0:
322,286,57884,1,8,0:1:0:0:
252,269,57995,1,8,0:1:0:0:
324,383,58106,6,0,P|296:303|133:131,1,314.999990386963,10|0,0:1|0:0,0:0:0:0:
25,135,58773,6,0,B|-7:140|-22:103|-22:103|8:97|10:105,1,97.4999955368044,2|0,0:0|0:0,0:0:0:0:
242,159,59106,6,0,B|274:153|289:190|289:190|258:196|256:188,1,97.4999955368044,2|8,0:0|0:0,0:0:0:0:
103,35,59439,6,0,B|82:9|107:-21|107:-21|127:2|121:8,1,97.4999955368044,10|0,0:0|0:0,0:0:0:0:
178,238,59773,54,0,B|199:264|174:295|174:295|154:272|161:258,1,104.999996795654,2|0,0:0|0:0,0:0:0:0:
227,53,60106,6,0,B|238:22|278:28|278:28|268:58|251:57,1,104.999996795654,2|0,0:0|0:0,0:0:0:0:
56,223,60439,6,0,B|43:254|4:249|4:249|14:219|35:217,1,104.999996795654,10|0,0:0|0:0,0:0:0:0:
391,181,60773,6,0,B|407:179|409:159|409:159|394:160|390:170,1,48.7499977684022,10|0,0:1|0:0,0:0:0:0:
278,125,60939,6,0,B|281:108|262:100|262:100|259:115|267:122,1,48.7499977684022,10|0,0:1|0:0,0:0:0:0:
181,228,61106,54,0,B|166:219|152:234|152:234|166:242|175:236,1,48.7499977684022,2|0,0:0|0:0,0:0:0:0:
252,328,61273,6,0,B|239:339|249:356|249:356|261:346|258:336,1,48.7499977684022,2|0,0:0|0:0,0:0:0:0:
287,254,61439,6,0,B|283:239|266:239|266:239|269:252|278:255,1,37.5,2|0,0:0|0:0,0:0:0:0:
362,251,61606,6,0,B|374:243|369:227|369:227|357:233|358:242,1,37.5,2|0,0:0|0:0,0:0:0:0:
390,325,61773,6,0,B|400:334|414:324|414:324|404:315|396:318,1,37.5,2|0,0:0|0:0,0:0:0:0:
329,366,61939,54,0,B|323:379|337:389|337:389|342:377|336:370,1,37.5,2|0,0:0|0:0,0:0:0:0:
184,147,62106,6,0,B|145:111|121:-10|121:-10|145:111|134:161,1,341.249984378815,12|0,0:0|0:0,0:0:0:0:
223,17,62773,6,0,B|240:10|260:28|260:28|232:50|209:30,1,97.4999955368044
44,73,63106,2,0,B|26:79|6:61|6:61|34:39|57:59,1,97.4999955368044,8|0,0:1|0:1,0:0:0:0:
264,127,63438,6,0,B|333:124|403:168|403:168|432:98|503:65,1,292.499986610413,10|0,0:1|0:0,0:0:0:0:
171,162,64106,6,0,B|143:175|151:210|151:210|175:198|177:179,1,97.4999955368044
178,64,64439,2,0,B|159:41|180:12|180:12|198:32|192:48,1,97.4999955368044,0|8,0:0|0:0,0:0:0:0:
262,127,64773,1,8,0:0:0:0:
418,13,64939,2,0,P|348:177|311:399,1,389.999982147218,10|0,0:0|0:0,0:0:0:0:
133,303,65773,53,8,0:1:0:0:
145,343,65884,1,8,0:1:0:0:
107,334,65995,1,8,0:1:0:0:
207,297,66106,5,10,0:1:0:0:
35,369,66273,2,0,P|235:215|445:171,1,438.74997991562,8|0,0:1|0:0,0:0:0:0:
428,87,67106,2,0,B|426:91|423:74|423:74|445:74|449:91,1,48.7499977684022,2|0,0:0|0:0,0:0:0:0:
497,159,67273,2,0,B|492:158|507:150|507:150|514:171|499:180,1,48.7499977684022,2|0,0:0|0:0,0:0:0:0:
404,289,67439,6,0,B|314:288|235:226|267:223|183:168|92:165,1,341.249984378815,10|0,0:0|0:0,0:0:0:0:
244,120,68106,2,0,B|261:130|282:87|282:87|255:77|241:93,1,97.4999955368044
34,359,68439,5,8,0:1:0:0:
57,285,68550,1,8,0:1:0:0:
135,282,68661,1,8,0:1:0:0:
223,384,68773,6,0,P|248:288|310:123,1,262.5,10|0,0:1|0:0,0:0:0:0:
425,159,69439,54,0,B|457:154|472:191|472:191|442:197|440:189,1,97.4999955368044,2|0,0:0|0:0,0:0:0:0:
190,124,69772,6,0,B|158:130|143:93|143:93|174:87|176:95,1,97.4999955368044,2|8,0:0|0:0,0:0:0:0:
336,261,70106,6,0,B|357:287|332:317|332:317|312:294|318:288,1,97.4999955368044,10|0,0:0|0:0,0:0:0:0:
274,35,70439,6,0,B|253:9|278:-22|278:-22|298:1|291:15,1,104.999996795654,2|0,0:0|0:0,0:0:0:0:
222,234,70773,6,0,B|209:268|165:261|165:261|177:229|186:231,1,104.999996795654,2|0,0:0|0:0,0:0:0:0:
396,63,71106,54,0,B|409:31|449:36|449:36|439:67|417:69,1,104.999996795654,2|0,0:0|0:0,0:0:0:0:
302,137,71439,1,8,0:1:0:0:
322,378,71606,6,0,P|275:298|305:133,1,262.499991989136,8|0,0:1|0:0,0:0:0:0:
380,101,72106,6,0,B|382:85|388:74|388:74|380:83|367:90,1,52.4999983978272,2|0,0:0|0:0,0:0:0:0:
296,58,72273,2,0,B|289:43|287:31|287:31|286:43|279:56,1,52.4999983978272,2|0,0:0|0:0,0:0:0:0:
86,208,72439,6,0,B|83:192|77:181|77:181|85:190|98:197,1,52.4999983978272,2|0,0:0|0:0,0:0:0:0:
185,142,72606,2,0,B|191:127|193:115|193:115|194:127|201:140,1,52.4999983978272,2|0,0:0|0:0,0:0:0:0:
331,337,72773,6,0,P|337:219|295:128,2,209.999993591309,12|0|8,0:0|0:0|0:0,0:0:0:0:
233,384,73606,1,8,0:0:0:0:
386,102,73774,2,0,P|465:131|473:162,1,104.999996795654,12|0,0:0|0:0,0:0:0:0:
99,123,74107,54,0,L|73:182,1,52.4999983978272,2|0,0:0|0:0,0:0:0:0:
165,172,74274,6,0,L|139:231,1,52.4999983978272,2|0,0:0|0:0,0:0:0:0:
366,250,74440,6,0,L|392:309,1,52.4999983978272,2|0,0:0|0:0,0:0:0:0:
300,299,74607,6,0,L|326:358,1,52.4999983978272,2|0,0:0|0:0,0:0:0:0:
115,363,74774,6,0,B|98:360|96:346|96:346|111:345|120:358,1,52.4999983978272,2|0,0:0|0:0,0:0:0:0:
189,314,74940,2,0,B|186:296|199:290|199:290|204:304|195:317,1,52.4999983978272,10|0,0:0|0:0,0:0:0:0:
368,91,75107,54,0,B|375:80|390:81|390:81|388:95|371:98,1,52.4999983978272,10|0,0:0|0:0,0:0:0:0:
284,56,75273,2,0,B|276:46|281:32|281:32|294:38|292:55,1,52.4999983978272,2|0,0:0|0:0,0:0:0:0:
256,384,75440,5,8,0:0:0:0:
65,253,75774,5,0,0:0:0:0:
169,47,76107,5,8,0:1:0:0:
169,47,76274,1,8,0:1:0:0:
398,64,76440,1,8,0:1:0:0:
455,288,76774,5,0,0:0:0:0:
260,208,77107,1,0,0:0:0:0:
260,208,77274,1,0,0:0:0:0:
430,164,77440,54,0,P|444:152|427:160,1,52.4999983978272,2|0,0:0|0:0,0:0:0:0:
336,143,77607,2,0,P|333:124|331:143,1,52.4999983978272,10|0,0:0|0:0,0:0:0:0:
45,108,77773,6,0,P|30:96|47:104,1,52.4999983978272,10|0,0:0|0:0,0:0:0:0:
169,47,77939,2,0,P|171:28|173:47,1,52.4999983978272,2|0,0:0|0:0,0:0:0:0:
184,338,78106,6,0,P|201:242|286:24,1,314.999990386963,8|0,0:0|0:0,0:0:0:0:
470,59,78773,6,0,P|467:41|445:26,1,37.5,2|0,0:0|0:0,0:0:0:0:
391,63,78939,2,0,P|394:81|416:96,1,37.5,2|0,0:0|0:0,0:0:0:0:
320,173,79106,6,0,P|323:155|345:140,1,37.5,10|0,0:1|0:0,0:0:0:0:
402,177,79272,2,0,P|399:195|377:210,1,37.5,10|0,0:1|0:0,0:0:0:0:
423,375,79439,53,12,0:0:0:0:
423,375,79939,1,0,0:0:0:0:
491,279,80106,6,0,P|507:246|519:233,1,37.5,2|0,0:0|0:0,0:0:0:0:
404,253,80273,2,0,P|406:211|402:204,1,37.5,2|0,0:0|0:0,0:0:0:0:
160,162,80439,6,0,P|140:137|115:130,1,52.4999983978272,2|0,0:0|0:0,0:0:0:0:
227,120,80606,2,0,P|231:84|221:50,1,52.4999983978272,2|0,0:0|0:0,0:0:0:0:
498,103,80773,6,0,P|401:111|295:164,1,209.999993591309,8|0,0:0|0:0,0:0:0:0:
285,253,81273,1,8,0:0:0:0:
0,103,81439,6,0,B|-32:85|-18:42|-18:42|11:59|7:68,1,104.999996795654,10|0,0:0|0:0,0:0:0:0:
163,346,81773,2,0,B|166:351|136:368|136:368|122:325|154:308,1,104.999996795654,2|0,0:0|0:0,0:0:0:0:
353,137,82106,54,0,P|145:172|29:279,1,359.999989013672,6|2,0:0|0:0,0:0:0:0:
366,292,83106,6,0,P|383:295|390:303,2,25
317,353,83439,2,0,P|282:331|271:283,1,75
398,112,84106,1,2,0:0:0:0:
398,112,84773,6,0,B|372:85|362:46|362:46|370:88|362:125,1,150,0|2,0:0|0:0,0:0:0:0:
154,270,86106,2,0,B|167:258|176:240|176:240|171:261|174:278,2,75,0|0|2,0:0|0:0|0:0,0:0:0:0:
487,28,87106,6,0,L|506:7,1,18.75,2|0,3:2|0:0,0:0:0:0:
