osu file format v14

[General]
AudioFilename: audio.mp3
AudioLeadIn: 0
PreviewTime: 50769
Countdown: 0
SampleSet: Soft
StackLeniency: 0.7
Mode: 0
LetterboxInBreaks: 0
WidescreenStoryboard: 1

[Editor]
Bookmarks: 765,14108,24773,35439,46106,51439,62106,72773,82106
DistanceSpacing: 0.6
BeatDivisor: 8
GridSize: 32
TimelineZoom: 1.6

[Metadata]
Title:Akuma no Ko (TV Size)
TitleUnicode:悪魔の子 (TV Size)
Artist:Ai Higuchi
ArtistUnicode:ヒグチアイ
Creator:hypercyte
Version:Insane
Source:進撃の巨人 Attack on Titan The Final Season Part 2
Tags:aot snk attack on titan shingeki no kyojin season 4 four final season part 2 two devil's child of evil demon hypercute eren jaeger yaeger freedom ending ed 2 last season pop jpop j-pop japanese orchestral anime higuchiai
BeatmapID:3414294
BeatmapSetID:1670886

[Difficulty]
HPDrainRate:5
CircleSize:4
OverallDifficulty:6
ApproachRate:9
SliderMultiplier:3
SliderTickRate:1

[Events]
//Background and Video events
0,0,"R41Pa.jpg",0,0
Video,50,"akuma no ko 32rf.mp4"
//Break Periods
//Storyboard Layer 0 (Background)
//Storyboard Layer 1 (Fail)
//Storyboard Layer 2 (Pass)
//Storyboard Layer 3 (Foreground)
//Storyboard Layer 4 (Overlay)
//Storyboard Sound Samples

[TimingPoints]
765,666.666666666667,4,2,4,30,1,0
765,-200,4,2,4,30,0,0
1765,652.173913043479,4,2,4,30,1,0
2091,655.737704918033,4,2,4,30,1,0
2091,-200,4,2,4,30,0,0
3427,681.818181818182,4,2,4,30,1,0
3427,-200,4,2,4,30,0,0
4279,-133.333333333333,4,2,4,30,0,0
4961,659.340659340659,4,2,4,30,1,8
5125,652.173913043478,4,2,4,30,1,8
6108,666.666666666667,4,2,4,30,1,0
6108,-200,4,2,4,30,0,0
9608,-133.333333333333,4,2,4,30,0,0
14102,-133.333333333333,4,2,4,40,0,0
16745,666.666666666667,4,2,4,40,1,0
16745,-133.333333333333,4,2,4,40,0,0
17245,689.655172413793,4,2,4,40,1,0
17245,-133.333333333333,4,2,4,40,0,0
17934,618.556701030928,4,2,4,40,1,0
18245,666.666666666667,4,2,4,40,1,0
19411,681.818181818182,4,2,4,40,1,0
19411,-133.333333333333,4,2,4,40,0,0
20774,666.666666666667,4,2,4,40,1,8
20774,-133.333333333333,4,2,4,40,0,0
21769,-100,4,2,4,40,0,0
22107,666.666666666667,4,2,4,40,1,0
22107,-100,4,2,4,40,0,0
24773,666.666666666667,4,2,4,50,1,0
25523,-100,4,2,4,5,0,0
25606,-100,4,2,4,50,0,0
25773,-133.333333333333,4,2,4,50,0,0
26106,-100,4,2,4,50,0,0
28439,-133.333333333333,4,2,4,50,0,0
28773,-86.9565217391304,4,2,4,50,0,0
31106,-133.333333333333,4,2,4,50,0,0
31439,-83.3333333333333,4,2,4,50,0,0
32106,-133.333333333333,4,2,4,50,0,0
32773,-200,4,2,4,50,0,0
33356,-200,4,2,4,5,0,0
33439,-200,4,2,4,50,0,0
34023,-200,4,2,4,5,0,0
34106,-100,4,2,4,50,0,0
36439,-133.333333333333,4,2,4,50,0,0
36773,-100,4,2,4,50,0,0
38106,-100,4,2,4,50,0,0
39106,-133.333333333333,4,2,4,50,0,0
39439,-86.9565217391304,4,2,4,50,0,0
41439,-90.9090909090909,4,2,4,60,0,0
44606,-83.3333333333333,4,2,4,65,0,0
46106,-71.4285714285714,4,2,4,44,0,0
46273,-200,4,2,4,30,0,0
49439,-133.333333333333,4,2,4,70,0,0
51439,-83.3333333333333,4,2,4,70,0,0
52773,-90.9090909090909,4,2,4,70,0,0
58023,-83.3333333333333,4,2,4,70,0,0
58773,-83.3333333333333,4,2,4,70,0,0
61439,-100,4,2,4,70,0,0
62106,-83.3333333333333,4,2,4,70,0,0
64773,-90.9090909090909,4,2,4,70,0,0
68773,-100,4,2,4,70,0,0
69439,-83.3333333333333,4,2,4,70,0,0
78773,-100,4,2,4,70,0,0
80439,-83.3333333333333,4,2,4,70,0,0
82106,-100,4,2,4,70,0,0
82773,-83.3333333333333,4,2,4,30,0,0
83106,-200,4,2,4,35,0,0
87189,-200,4,2,4,5,0,0

[Colours]
Combo1 : 255,169,132
Combo2 : 207,180,181
Combo3 : 155,159,187
Combo4 : 191,190,162
Combo5 : 255,91,140
Combo6 : 255,157,255
Combo7 : 196,159,255
Combo8 : 138,211,255

[HitObjects]
377,131,765,6,0,P|331:129|323:139,2,37.5,2|0|0,0:0|0:0|0:0,0:0:0:0:
345,202,1265,2,0,P|289:215|276:242,1,75
107,173,1928,5,0,0:0:0:0:
107,173,2091,2,0,P|109:135|126:117,2,37.5,2|0|0,0:0|0:0|0:0,0:0:0:0:
172,242,2582,1,0,0:0:0:0:
125,326,2910,1,0,0:0:0:0:
289,319,3238,5,0,0:0:0:0:
289,319,3427,2,0,P|251:329|239:350,2,37.5,2|0|0,0:0|0:0|0:0,0:0:0:0:
389,340,3938,1,0,0:0:0:0:
389,340,4279,2,0,P|392:278|356:227,2,112.500004291535,2|2|2,0:0|0:0|0:0,0:0:0:0:
311,359,5125,1,2,0:0:0:0:
311,359,5288,1,2,0:0:0:0:
224,322,5451,85,0,0:0:0:0:
219,289,5614,1,0,0:0:0:0:
235,265,5777,1,0,0:0:0:0:
264,257,5940,1,0,0:0:0:0:
375,266,6108,6,0,P|374:239|364:228,2,37.5,2|0|0,0:0|0:0|0:0,0:0:0:0:
461,251,6608,2,0,P|450:212|453:201,1,37.5
394,149,6941,1,0,0:0:0:0:
241,47,7274,5,0,0:0:0:0:
241,47,7441,2,0,P|282:43|293:60,2,37.5,2|0|0,0:0|0:0|0:0,0:0:0:0:
207,126,7941,1,0,0:0:0:0:
311,285,8274,1,0,0:0:0:0:
178,332,8608,85,0,0:0:0:0:
178,332,8774,2,0,P|176:291|187:281,2,37.5,2|0|0,0:0|0:0|0:0,0:0:0:0:
311,285,9274,1,0,0:0:0:0:
442,237,9608,5,2,0:0:0:0:
442,237,9774,1,2,0:0:0:0:
442,237,9941,1,2,0:0:0:0:
319,142,10274,6,0,P|327:103|357:94,2,56.2500021457673
207,245,10941,86,0,P|193:207|177:206,2,56.2500021457673,2|2|2,0:0|0:0|0:0,0:0:0:0:
82,234,11441,2,0,P|99:173|376:52,1,393.750015020371,2|0,0:0|0:0,0:0:0:0:
256,192,12774,12,0,13940,0:0:0:0:
200,274,14108,6,0,L|215:210,2,56.2500021457673,6|0|0,0:0|0:0|0:0,0:0:0:0:
108,282,14608,2,0,L|137:158,1,112.500004291535
272,118,15274,5,0,0:0:0:0:
272,118,15441,2,0,L|208:133,2,56.2500021457673,2|0|0,0:0|0:0|0:0,0:0:0:0:
372,187,15941,1,0,0:0:0:0:
434,86,16274,1,0,0:0:0:0:
326,274,16608,85,0,0:0:0:0:
326,274,16745,2,0,L|294:329,2,56.2500021457673,2|0|0,0:0|0:0|0:0,0:0:0:0:
365,188,17245,2,0,P|355:133|285:124,2,112.500004291535
179,321,18245,5,2,0:0:0:0:
244,227,18411,1,2,0:0:0:0:
148,156,18578,1,2,0:0:0:0:
89,258,18745,5,0,0:0:0:0:
89,258,18911,1,0,0:0:0:0:
89,258,19078,1,0,0:0:0:0:
89,258,19245,1,0,0:0:0:0:
130,102,19411,86,0,L|148:156,2,56.2500021457673,2|0|0,0:0|0:0|0:0,0:0:0:0:
194,31,19922,1,0,0:0:0:0:
194,31,20263,1,0,0:0:0:0:
89,258,20604,5,0,0:0:0:0:
184,325,20774,2,0,L|164:246,2,56.2500021457673,2|0|0,0:0|0:0|0:0,0:0:0:0:
262,372,21274,1,0,0:0:0:0:
262,372,21440,1,0,0:0:0:0:
262,372,21607,1,0,0:0:0:0:
406,103,21940,5,0,0:0:0:0:
346,198,22107,1,2,0:0:0:0:
346,198,22273,1,2,0:0:0:0:
428,274,22440,1,2,0:0:0:0:
257,205,22607,2,0,P|216:225|220:261,1,75
433,188,22940,2,0,P|484:159|478:125,1,75
247,104,23273,85,2,0:0:0:0:
247,104,23440,2,0,B|180:113|133:154|164:154|111:211|56:211,1,225,2|0,0:0|0:0,0:0:0:0:
256,192,24107,12,8,24774,0:2:0:0:
115,230,24939,5,8,0:2:0:0:
217,323,25106,1,8,0:2:0:0:
256,192,25273,1,0,0:0:0:0:
370,275,25439,2,0,P|373:289|367:275,1,37.5,2|0,0:0|0:0,0:0:0:0:
349,131,25773,6,0,B|340:120|334:108|334:108|332:121|324:135,1,56.2500021457673
245,97,26106,2,0,B|209:103|182:137|182:137|160:99|128:88,1,150,10|2,0:0|0:0,0:0:0:0:
330,248,26773,85,2,0:0:0:0:
294,241,26939,1,0,0:0:0:0:
260,258,27106,1,2,0:0:0:0:
272,225,27273,1,0,0:0:0:0:
256,192,27439,2,0,B|331:177|399:222|399:222|436:140|512:134,1,300,10|0,0:2|0:0,0:0:0:0:
254,65,28439,6,0,B|243:74|236:87|236:87|228:74|212:64,1,56.2500021457673
161,118,28773,2,0,B|112:119|83:152|83:152|66:110|24:93,3,172.500003290176,2|2|2|2,0:0|0:0|0:0|0:0,0:0:0:0:
155,218,30106,5,10,0:2:0:0:
179,237,30273,1,8,0:2:0:0:
189,274,30439,1,8,0:2:0:0:
210,249,30606,1,0,0:0:0:0:
243,244,30773,1,0,0:0:0:0:
377,304,31106,86,0,B|392:308|402:315|402:315|411:305|426:295,1,56.2500021457673,0|8,0:0|0:0,0:0:0:0:
388,207,31439,2,0,B|341:207|304:180|304:180|276:230|242:244,1,179.999994506836,10|10,0:0|0:2,0:0:0:0:
264,90,32106,2,0,B|232:93|216:115|216:115|198:82|177:74,2,112.500004291535,2|2|10,0:0|0:0|0:0,0:0:0:0:
425,266,33439,6,0,B|401:235|407:203|407:203|395:234|359:246,1,131.25,2|0,0:0|0:0,0:0:0:0:
367,323,34106,2,0,B|275:318|227:273|227:273|195:325|111:365,2,300,2|2|12,0:0|0:0|0:0,0:0:0:0:
410,241,35606,5,8,0:0:0:0:
306,167,35773,1,8,0:0:0:0:
426,99,35939,1,0,0:0:0:0:
303,38,36106,1,2,0:0:0:0:
208,273,36439,86,0,B|192:266|183:255|183:255|170:264|153:267,1,56.2500021457673
185,141,36773,2,0,B|151:155|134:191|134:191|101:165|55:163,2,150,10|10|2,0:0|0:0|0:0,0:0:0:0:
415,183,37773,2,0,B|435:173|445:158|445:158|456:169|488:178,1,75,2|0,0:0|0:0,0:0:0:0:
459,255,38106,2,0,B|400:295|380:365|380:365|306:331|208:349,1,300,10|0,0:0|0:0,0:0:0:0:
67,178,39106,6,0,B|78:171|87:158|87:158|98:166|115:171,1,56.2500021457673
145,93,39439,2,0,B|185:94|222:74|222:74|252:105|305:108,3,172.500003290176,2|10|2|2,0:0|0:0|0:0|0:0,0:0:0:0:
374,372,40773,5,8,0:0:0:0:
483,302,40939,1,8,0:0:0:0:
353,232,41106,1,8,0:0:0:0:
353,232,41439,2,0,B|313:245|269:236|269:236|248:271|206:289,1,165.000005035401,2|0,0:0|0:0,0:0:0:0:
40,184,41939,85,10,0:0:0:0:
101,125,42106,2,0,B|161:116|216:151|216:151|238:83|313:50,1,247.500007553101,10|0,0:0|0:0,0:0:0:0:
441,120,42773,2,0,B|415:122|399:131|399:131|386:111|360:102,2,82.5000025177003,2|0|0,0:0|0:0|0:0,0:0:0:0:
421,41,43273,1,2,0:0:0:0:
446,198,43439,6,0,B|316:276|284:368|284:368|183:296|35:308,1,495.000015106202,10|2,0:0|0:0,0:0:0:0:
82,86,44606,6,0,B|196:161|222:245|222:245|318:179|450:198,1,449.99998626709,10|0,0:0|0:0,0:0:0:0:
256,192,45523,12,2,46106,0:0:0:0:
158,261,46606,85,0,0:0:0:0:
158,261,46773,1,0,0:0:0:0:
285,248,47273,5,0,0:0:0:0:
285,248,47439,2,0,B|327:257|345:289|345:289|372:268|418:269,1,150
132,291,48606,5,0,0:0:0:0:
132,291,48773,1,0,0:0:0:0:
97,214,49106,1,0,0:0:0:0:
23,257,49439,86,0,P|81:188|369:131,1,393.750015020371,2|0,0:0|0:0,0:0:0:0:
382,266,50773,37,2,0:0:0:0:
404,276,50884,1,2,0:0:0:0:
415,254,50995,1,2,0:0:0:0:
412,210,51106,5,2,0:0:0:0:
368,189,51217,1,2,0:0:0:0:
320,213,51328,1,2,0:0:0:0:
306,266,51439,6,0,P|208:237|25:227,1,269.999991760254,14|0,0:0|0:0,0:0:0:0:
0,167,52106,2,0,B|-6:135|23:123|23:123|30:148|11:167,1,89.9999972534181
182,364,52439,5,8,0:1:0:0:
228,350,52550,1,8,0:1:0:0:
237,303,52661,1,8,0:1:0:0:
201,264,52773,2,0,B|167:203|86:241|86:241|115:250|134:266|117:272|153:291|198:270,1,247.500007553101,10|0,0:1|0:0,0:0:0:0:
435,206,53439,6,0,B|436:231|407:239|407:239|405:216|419:208,1,82.5000025177003
368,80,53773,2,0,B|366:54|395:46|395:46|397:69|383:77,1,82.5000025177003,0|8,0:0|0:0,0:0:0:0:
300,210,54106,2,0,B|226:222|131:158|165:149|93:91|0:96,1,330.000010070801,10|0,0:0|0:0,0:0:0:0:
181,311,55106,53,8,0:1:0:0:
155,275,55217,1,8,0:1:0:0:
174,235,55328,1,8,0:1:0:0:
217,231,55439,1,10,0:1:0:0:
240,59,55606,2,0,P|295:167|297:249,1,165.000005035401,8|0,0:1|0:0,0:0:0:0:
339,41,56106,2,0,B|385:-6|451:50|451:50|421:50|399:60|413:70|375:78|339:46,1,247.500007553101
339,235,56773,6,0,B|407:237|414:150|414:150|393:170|370:179|372:161|339:182|336:230,1,247.500007553101,10|0,0:0|0:0,0:0:0:0:
150,143,57439,2,0,B|159:117|125:108|125:108|124:134|139:144,1,82.5000025177003
145,334,57773,5,8,0:1:0:0:
159,292,57884,1,8,0:1:0:0:
202,285,57995,1,8,0:1:0:0:
237,317,58106,2,0,P|143:291|166:132,1,269.999991760254,10|0,0:1|0:0,0:0:0:0:
242,127,58773,6,0,B|269:139|283:103|283:103|254:98|246:111,1,89.9999972534181,2|0,0:0|0:0,0:0:0:0:
48,148,59106,6,0,B|20:142|8:174|8:174|34:179|43:167,1,89.9999972534181,2|8,0:0|0:0,0:0:0:0:
174,50,59439,54,0,B|192:27|170:1|170:1|153:21|160:34,1,89.9999972534181,10|0,0:0|0:0,0:0:0:0:
127,209,59773,6,0,B|108:231|130:258|130:258|147:238|140:224,1,89.9999972534181,2|0,0:0|0:0,0:0:0:0:
83,60,60106,6,0,B|73:34|40:39|40:39|49:63|63:68,1,89.9999972534181,2|0,0:0|0:0,0:0:0:0:
210,189,60439,6,0,B|221:216|255:211|255:211|247:185|228:183,1,89.9999972534181,10|0,0:0|0:0,0:0:0:0:
420,142,60773,5,10,0:1:0:0:
307,86,60939,1,10,0:1:0:0:
210,189,61106,1,2,0:0:0:0:
281,289,61273,1,2,0:0:0:0:
315,214,61439,53,2,0:0:0:0:
397,218,61606,1,2,0:0:0:0:
417,298,61773,1,2,0:0:0:0:
346,340,61939,1,2,0:0:0:0:
210,189,62106,6,0,P|115:208|78:364,1,269.999991760254,12|0,0:0|0:0,0:0:0:0:
207,274,62773,6,0,B|220:286|212:312|212:312|180:296|189:266,1,89.9999972534181
229,111,63106,2,0,B|242:98|234:72|234:72|202:88|211:118,1,89.9999972534181,8|0,0:1|0:0,0:0:0:0:
315,329,63439,6,0,P|336:214|415:68,1,269.999991760254,10|0,0:1|0:0,0:0:0:0:
458,20,64106,2,0,B|479:0|507:20|507:20|488:38|471:32,1,89.9999972534181
316,73,64439,2,0,B|287:71|281:38|281:38|307:39|315:55,1,89.9999972534181,0|8,0:0|0:0,0:0:0:0:
409,245,64773,5,8,0:0:0:0:
264,215,64939,2,0,B|201:231|157:272|157:272|105:243|34:246,1,247.500007553101,10|0,0:0|0:0,0:0:0:0:
379,339,65773,5,8,0:1:0:0:
346,301,65884,1,8,0:1:0:0:
361,254,65995,1,8,0:1:0:0:
409,245,66106,1,10,0:1:0:0:
265,248,66273,2,0,P|276:144|184:18,1,247.500007553101,8|0,0:1|0:0,0:0:0:0:
124,286,67106,1,2,0:0:0:0:
189,214,67273,1,2,0:0:0:0:
379,339,67439,54,0,P|405:214|462:79,1,247.500007553101,10|0,0:0|0:0,0:0:0:0:
422,24,68106,2,0,B|418:4|384:-2|384:-2|381:23|401:32,1,82.5000025177003
158,244,68439,5,8,0:1:0:0:
166,186,68550,1,8,0:1:0:0:
226,179,68661,1,8,0:1:0:0:
260,246,68773,2,0,P|230:135|255:30,1,225,10|0,0:1|0:0,0:0:0:0:
363,257,69439,6,0,B|390:245|404:281|404:281|375:286|367:273,1,89.9999972534181,2|0,0:0|0:0,0:0:0:0:
169,236,69772,6,0,B|141:242|129:210|129:210|155:205|164:217,1,89.9999972534181,2|8,0:0|0:0,0:0:0:0:
295,334,70106,6,0,B|313:357|291:383|291:383|274:363|281:350,1,89.9999972534181,10|0,0:0|0:0,0:0:0:0:
248,175,70439,54,0,B|229:153|251:126|251:126|268:146|261:160,1,89.9999972534181,2|0,0:0|0:0,0:0:0:0:
204,324,70772,6,0,B|194:350|161:345|161:345|170:321|184:316,1,89.9999972534181,2|0,0:0|0:0,0:0:0:0:
331,195,71106,6,0,B|342:168|376:173|376:173|368:199|349:201,1,89.9999972534181,2|0,0:0|0:0,0:0:0:0:
270,259,71439,5,8,0:1:0:0:
208,90,71606,2,0,P|267:249|278:300,1,179.999994506836,8|0,0:1|0:0,0:0:0:0:
102,367,72106,5,2,0:0:0:0:
28,267,72273,1,2,0:0:0:0:
154,200,72439,1,2,0:0:0:0:
114,273,72606,1,2,0:0:0:0:
267,315,72773,54,0,P|357:253|456:235,2,179.999994506836,12|0|8,0:0|0:0|0:0,0:0:0:0:
215,384,73606,1,8,0:0:0:0:
98,158,73773,1,12,0:0:0:0:
98,158,74106,5,2,0:0:0:0:
180,88,74273,1,2,0:0:0:0:
287,98,74439,1,2,0:0:0:0:
338,193,74606,1,2,0:0:0:0:
385,112,74773,5,2,0:0:0:0:
385,112,74939,1,10,0:0:0:0:
250,179,75106,1,10,0:0:0:0:
250,179,75273,1,2,0:0:0:0:
246,350,75439,5,8,0:0:0:0:
98,242,75773,1,0,0:0:0:0:
186,71,76106,1,8,0:1:0:0:
186,71,76273,1,8,0:1:0:0:
372,86,76439,1,8,0:1:0:0:
419,271,76773,1,0,0:0:0:0:
419,271,77273,1,0,0:0:0:0:
184,338,77439,5,2,0:0:0:0:
97,233,77606,1,10,0:0:0:0:
190,140,77773,1,10,0:0:0:0:
190,140,77939,1,2,0:0:0:0:
184,338,78106,2,0,P|165:195|90:66,1,269.999991760254,8|0,0:0|0:0,0:0:0:0:
407,99,78773,53,2,0:0:0:0:
407,99,78939,1,2,0:0:0:0:
270,220,79106,1,10,0:1:0:0:
270,220,79273,1,10,0:1:0:0:
114,356,79439,1,12,0:0:0:0:
114,356,79939,1,0,0:0:0:0:
66,273,80106,5,2,0:0:0:0:
136,228,80273,1,2,0:0:0:0:
75,109,80439,5,2,0:0:0:0:
158,68,80606,1,2,0:0:0:0:
313,173,80773,6,0,B|343:161|381:123|381:123|429:146|474:150,1,179.999994506836,8|0,0:0|0:0,0:0:0:0:
398,219,81273,1,8,0:0:0:0:
249,128,81439,6,0,B|224:114|235:81|235:81|262:96|257:117,1,89.9999972534181,10|0,0:0|0:0,0:0:0:0:
398,219,81773,2,0,B|422:232|411:265|411:265|385:251|390:230,1,89.9999972534181,2|0,0:0|0:0,0:0:0:0:
242,311,82106,54,0,P|145:303|35:130,1,300,4|0,0:0|0:0,0:0:0:0:
388,122,83106,6,0,P|405:119|412:110,2,25
316,153,83439,2,0,P|286:128|283:84,2,75,0|0|2,0:0|0:0|0:0,0:0:0:0:
293,296,84773,6,0,B|267:322|258:359|258:359|265:319|258:283,1,150,0|2,0:0|0:0,0:0:0:0:
239,211,86106,2,0,B|226:199|217:181|217:181|222:202|219:219,2,75,0|0|2,0:0|0:0|0:0,0:0:0:0:
312,56,87106,6,0,L|320:29,1,18.75,2|0,3:2|0:0,0:0:0:0:
